#TITLE:The Dressing Room;
#SUBTITLE:;
#ARTIST:Breathe Carolina;
#TITLETRANSLIT:;
#SUBTITLETRANSLIT:;
#ARTISTTRANSLIT:;
#GENRE:Electronicore;
#CREDIT:;
#BANNER:The Dressing Room-bn.png;
#BACKGROUND:The Dressing Room-bg.png;
#LYRICSPATH:;
#CDTITLE:cdtitle.png;
#MUSIC:The Dressing Room.ogg;
#OFFSET:-0.223000;
#SAMPLESTART:34.445000;
#SAMPLELENGTH:28.444000;
#SELECTABLE:YES;
#DISPLAYBPM:135.000000;
#BPMS:0.000000=67.500000
,7.000000=135.000000
,209.000000=270.000000
,209.500000=135.000000
,209.750000=67.500000
,210.000000=135.000000
;
#STOPS:37.000000=0.222000,
37.500000=0.222000,
206.000000=0.333336,
206.250000=0.111107,
206.500000=0.111107,
206.750000=0.111107,
207.000000=0.111107,
207.250000=0.333328,
207.500000=0.111107,
207.750000=0.111107,
208.000000=0.111107,
208.250000=0.111107,
208.500000=0.111107,
208.750000=0.111107
;
#BGCHANGES:;
#KEYSOUNDS:;
#ATTACKS:;

//---------------dance-single - ----------------
#NOTES:
     dance-single:
     X-Scale 2:
     Beginner:
     2:
     0.118584,0.154769,0.015516,0.000000,0.000000,107.000000,105.000000,2.000000,0.000000,0.000000,0.000000,0.118584,0.154769,0.015516,0.000000,0.000000,107.000000,105.000000,2.000000,0.000000,0.000000,0.000000:
// measure 0
0000
0000
0000
0000
,  // measure 1
0000
0000
0000
1000
,  // measure 2
0000
0000
0000
0001
,  // measure 3
0000
0000
0000
0100
,  // measure 4
0000
0000
0000
0001
,  // measure 5
0000
0000
0000
1000
,  // measure 6
0000
0000
0000
0100
,  // measure 7
0000
0000
0000
0010
,  // measure 8
0000
0000
0000
0001
,  // measure 9
0000
0000
1000
0000
,  // measure 10
0000
0000
0001
0000
,  // measure 11
0000
0000
0100
0000
,  // measure 12
0000
0000
0001
0000
,  // measure 13
0000
0000
0010
0000
,  // measure 14
0000
0000
0100
0000
,  // measure 15
0000
0000
0010
0000
,  // measure 16
0000
0000
0001
0000
,  // measure 17
0000
0000
1001
0000
,  // measure 18
1000
0000
0001
0000
,  // measure 19
0100
0000
0001
0000
,  // measure 20
0010
0000
0100
0000
,  // measure 21
0010
0000
0001
0000
,  // measure 22
1000
0000
0010
0000
,  // measure 23
1000
0000
0100
0000
,  // measure 24
0010
0000
0100
0000
,  // measure 25
1000
0000
0001
0000
,  // measure 26
1000
0000
0010
0000
,  // measure 27
1000
0000
0001
0000
,  // measure 28
0010
0000
0100
0000
,  // measure 29
1000
0000
0001
0000
,  // measure 30
1000
0000
0010
0000
,  // measure 31
1000
0000
0001
0000
,  // measure 32
0010
0000
0100
0000
,  // measure 33
1000
0000
0000
0001
,  // measure 34
0000
1000
0000
0001
,  // measure 35
0000
0100
0000
0001
,  // measure 36
0000
0010
0000
0100
,  // measure 37
0000
0010
0000
0001
,  // measure 38
0000
1000
0000
0100
,  // measure 39
0000
1000
0000
0001
,  // measure 40
0000
0100
0000
0001
,  // measure 41
0000
1000
0000
0000
,  // measure 42
0001
0000
0000
0000
,  // measure 43
1000
0000
0000
0000
,  // measure 44
0010
0000
0000
0000
,  // measure 45
1000
0000
0000
0000
,  // measure 46
0001
0000
0000
0000
,  // measure 47
0010
0000
0000
0000
,  // measure 48
0100
0000
0000
0000
,  // measure 49
1000
0000
0001
0000
,  // measure 50
1000
0000
0001
0000
,  // measure 51
0100
0000
0000
0000
,  // measure 52
0000
0000
1001
0000
,  // measure 53
1000
0000
0010
0000
,  // measure 54
1000
0000
0001
0000
,  // measure 55
0100
0000
0001
0000
,  // measure 56
0010
0000
0100
0000
,  // measure 57
1000
0000
0010
0000
,  // measure 58
1000
0000
0001
0000
,  // measure 59
0100
0000
0001
0000
,  // measure 60
1000
0000
0100
0000
,  // measure 61
0010
0000
0100
0000
,  // measure 62
1000
0000
0001
0000
,  // measure 63
0100
0000
0001
0000
,  // measure 64
0010
0000
0100
0000
,  // measure 65
1000
0000
0100
0000
,  // measure 66
0010
0000
0001
0000
;

//---------------dance-single - ----------------
#NOTES:
     dance-single:
     X-Scale 7:
     Easy:
     5:
     0.305880,0.342896,0.031031,0.232735,0.000000,276.000000,272.000000,4.000000,30.000000,0.000000,0.000000,0.305880,0.342896,0.031031,0.232735,0.000000,276.000000,272.000000,4.000000,30.000000,0.000000,0.000000:
// measure 0
0000
0000
0000
0000
,  // measure 1
0000
0000
0000
1000
,  // measure 2
0100
0010
0001
0010
,  // measure 3
0100
0010
0002
0000
1003
0200
0010
0000
,  // measure 4
1000
0310
0100
1000
,  // measure 5
0001
0000
0100
0000
0001
0000
1000
0010
,  // measure 6
0000
0100
0000
0010
1000
0002
0000
0023
,  // measure 7
0100
0000
0031
1000
0010
0200
0000
0302
,  // measure 8
0100
1000
0103
0001
,  // measure 9
1000
0001
1001
1000
,  // measure 10
0001
0100
0001
1000
,  // measure 11
0010
0100
0001
2000
0100
0000
0001
0000
,  // measure 12
3010
1000
0001
0100
,  // measure 13
0001
0010
0100
0000
0010
0001
0000
1000
,  // measure 14
0000
0001
0000
0100
0010
1000
0100
1000
,  // measure 15
0001
0200
0000
0302
0100
0000
1000
0000
,  // measure 16
0010
1003
0200
0000
,  // measure 17
0000
0300
1001
1000
,  // measure 18
0010
1000
0100
1000
,  // measure 19
0001
0100
0001
1000
,  // measure 20
0010
0100
0001
1000
,  // measure 21
0001
0100
0001
0010
,  // measure 22
0100
1000
0010
0100
,  // measure 23
0001
0100
0000
0020
0100
0000
1000
0000
,  // measure 24
0100
0000
1030
0000
0010
0000
1000
0100
,  // measure 25
1000
0002
0000
0203
0000
0310
0200
0000
,  // measure 26
0010
0301
1000
0010
,  // measure 27
1000
0000
0001
0010
0100
0000
0010
0000
,  // measure 28
0001
0000
1000
0000
0001
0000
1000
0010
,  // measure 29
0100
0001
0000
0002
0000
0103
0002
0000
,  // measure 30
1003
0001
0100
0002
1000
0000
0103
0000
,  // measure 31
0001
0000
0010
0100
1000
0000
0001
0000
,  // measure 32
1000
0000
0010
0000
0100
0000
0001
0100
,  // measure 33
0010
2000
3000
2000
0000
0000
3100
0000
,  // measure 34
0000
1000
0000
0001
,  // measure 35
0000
0020
0030
0100
,  // measure 36
0000
1000
0000
0001
,  // measure 37
0000
2000
3000
0010
,  // measure 38
0000
1000
0000
0001
,  // measure 39
0000
0200
0300
0001
,  // measure 40
0000
0010
0000
0100
,  // measure 41
0000
2000
3001
1000
,  // measure 42
0010
0000
1000
0100
,  // measure 43
0010
0000
0001
2000
0000
0000
0100
0000
,  // measure 44
0000
3001
0000
1000
,  // measure 45
0001
0000
0100
0020
0000
0000
0100
0000
,  // measure 46
0000
1030
0000
0001
,  // measure 47
0000
0000
1000
0002
0100
0000
1000
0000
,  // measure 48
0103
0000
0001
0000
0000
1000
0000
0000
,  // measure 49
0010
0000
1000
0100
,  // measure 50
0010
0001
0100
0010
,  // measure 51
1000
0002
0003
0000
,  // measure 52
0000
1100
1001
0001
,  // measure 53
0100
0000
0001
0000
0010
0100
1000
0000
,  // measure 54
0001
1000
0010
0000
1000
0000
0001
0000
,  // measure 55
0100
0001
1000
0000
0100
0000
0010
0000
,  // measure 56
0100
0010
0001
0200
0010
0000
0001
0000
,  // measure 57
0310
0000
0100
0002
1000
0000
0013
0000
,  // measure 58
0001
0010
0100
0000
1000
0000
0100
0000
,  // measure 59
0010
0000
0001
0100
0000
0010
0100
0000
,  // measure 60
0001
0000
1000
0200
0010
0000
1000
0000
,  // measure 61
0310
0000
0100
1000
0000
0001
0100
0000
,  // measure 62
0001
1000
0010
0100
,  // measure 63
0001
0000
0010
0100
0000
0100
1000
0000
,  // measure 64
0001
0100
0001
1000
,  // measure 65
0100
0000
0010
0001
0000
1000
0001
0000
,  // measure 66
0100
0001
1000
0001
0010
0000
0000
0000
,  // measure 67
0001
0000
1000
0000
,  // measure 68
0010
0000
0000
0000
;

//---------------dance-single - ----------------
#NOTES:
     dance-single:
     X-Scale 10:
     Medium:
     7:
     0.437763,0.448403,0.054305,0.310313,0.062063,395.000000,388.000000,7.000000,40.000000,0.000000,0.000000,0.437763,0.448403,0.054305,0.310313,0.062063,395.000000,388.000000,7.000000,40.000000,0.000000,0.000000:
// measure 0
0000
0000
0000
0000
,  // measure 1
0000
0000
0000
0011
,  // measure 2
2000
0000
3002
0000
0103
0010
0001
0010
,  // measure 3
1000
0001
0200
0000
0310
2000
0001
0000
,  // measure 4
0010
0000
0000
0000
3001
0000
0000
0000
1000
0001
1000
0000
0100
0000
0010
0000
,  // measure 5
0001
0000
1000
0010
0100
0002
0000
2003
,  // measure 6
0001
0000
0000
0000
3100
0000
0000
0000
1000
0001
0100
0000
0001
0000
0000
0000
,  // measure 7
1000
0000
0001
0010
0100
2000
0000
3200
,  // measure 8
1000
0000
0010
0000
1300
0001
0100
0001
,  // measure 9
1000
0000
1100
1001
0101
0000
0002
0000
,  // measure 10
2003
0000
3100
0010
0001
0010
1000
0001
,  // measure 11
0100
1000
0001
2000
0100
0000
0010
0000
,  // measure 12
3001
0000
0010
0100
1000
0000
0001
0100
,  // measure 13
1000
0100
0010
0200
0000
0001
0000
0001
,  // measure 14
0000
0301
0000
0100
0010
1000
0001
0010
,  // measure 15
0100
1000
0000
0002
1000
0000
0100
0000
,  // measure 16
1000
0103
0002
0023
,  // measure 17
0230
0300
1100
1000
,  // measure 18
0010
0100
0001
0000
1000
0000
0100
0000
,  // measure 19
0010
0001
1000
0000
0001
0000
0100
0000
,  // measure 20
0010
0000
1000
0100
0010
0001
0100
0010
,  // measure 21
1000
0001
0010
0000
0100
0000
0010
0001
,  // measure 22
1000
0000
0001
0000
0100
0001
1000
0000
,  // measure 23
0010
0000
0100
0020
0001
0000
0100
0000
,  // measure 24
0001
0000
1030
0010
1000
0100
0001
0100
,  // measure 25
1000
0001
0000
0020
0000
0130
2000
0000
,  // measure 26
3002
0000
0013
0200
0000
1300
0100
0001
,  // measure 27
0100
0010
0001
1000
0002
0000
0203
0000
,  // measure 28
0320
0000
1030
0002
0000
0013
0100
1000
,  // measure 29
0001
1000
0000
0200
0000
0310
0002
0000
,  // measure 30
0003
1000
0100
2000
0000
0000
3001
1000
,  // measure 31
0100
1000
0001
1000
0100
0000
0010
0000
,  // measure 32
0001
0000
1000
0001
0000
0100
0001
1000
,  // measure 33
0001
0010
0000
0100
1000
0001
1000
0001
,  // measure 34
1000
0000
0100
0010
0000
0100
0010
0000
,  // measure 35
0100
0010
0002
0000
1003
0001
1000
0001
,  // measure 36
1000
0000
0010
1000
0000
0010
1000
0000
,  // measure 37
0010
1000
0200
0000
0310
0100
0010
0100
,  // measure 38
0010
0000
0001
0010
0000
0001
0010
0000
,  // measure 39
0001
0010
0200
0000
1300
0010
1000
0010
,  // measure 40
1000
0000
0001
0100
0000
0001
0100
0000
,  // measure 41
0001
0100
0020
0000
1030
0100
0010
0001
,  // measure 42
0100
0010
0100
0001
0010
1000
0010
0001
,  // measure 43
0010
0100
1000
0002
0100
0000
0000
0000
,  // measure 44
1003
0000
0000
0000
0001
1000
0001
0000
0000
0000
1000
0001
1000
0000
0000
0000
,  // measure 45
0100
0010
0001
2000
0010
0000
0100
0000
,  // measure 46
3001
0000
0000
0000
1000
0001
1000
0000
0000
0000
0001
1000
0001
0000
0000
0000
,  // measure 47
0010
0100
1000
0002
0000
1003
0001
0000
,  // measure 48
1000
0000
0000
0000
0001
0100
0001
0000
0000
0000
1000
0100
1000
0000
0000
0000
,  // measure 49
0001
0100
0010
2000
0010
0000
0100
0000
,  // measure 50
0010
0100
0001
0010
,  // measure 51
0001
0000
0000
0000
0020
0000
0000
0030
3010
0000
0000
1000
0001
0100
0000
0000
,  // measure 52
0000
0010
0100
0001
0000
0000
0000
0000
1001
0000
0000
0000
1000
0000
0000
0000
,  // measure 53
0100
0000
0010
0100
1000
0001
1000
0010
,  // measure 54
0001
0010
1000
0000
0001
0000
1000
0000
,  // measure 55
0010
1000
0001
0000
1000
0000
0001
0000
,  // measure 56
0010
0000
0001
0000
1000
0000
0020
0000
0001
0000
0000
0000
0100
0000
0000
0100
,  // measure 57
0030
0010
1000
0001
0100
0000
0001
0000
,  // measure 58
0010
0000
0100
0000
1000
0000
0000
0000
1100
0000
0000
0000
1000
0000
0000
1000
,  // measure 59
0001
0100
0010
0200
1000
0000
0010
0000
,  // measure 60
0301
0001
0010
0200
1000
0000
0010
0000
,  // measure 61
1300
0000
0100
0010
0000
0010
0001
0100
,  // measure 62
1000
0100
0001
0010
0100
0000
1000
0000
,  // measure 63
0001
0000
0100
0010
0000
0010
0001
0010
,  // measure 64
1000
0001
0100
0001
1000
0000
0010
0000
,  // measure 65
1000
0000
0001
0010
0000
0010
1000
0010
,  // measure 66
0001
1000
0001
0000
0010
0000
0100
0000
,  // measure 67
1000
0000
0010
0100
0000
0001
0010
0000
0000
0100
0000
0000
,  // measure 68
1000
0000
0000
0000
;

//---------------dance-single - ----------------
#NOTES:
     dance-single:
     X-Scale 14:
     Hard:
     9:
     0.611760,0.746691,0.232735,0.232735,0.345224,552.000000,522.000000,30.000000,30.000000,0.000000,0.000000,0.611760,0.746691,0.232735,0.232735,0.345224,552.000000,522.000000,30.000000,30.000000,0.000000,0.000000:
// measure 0
0000
0000
0000
0000
,  // measure 1
0000
0000
0000
0000
0000
0000
1010
0020
,  // measure 2
1030
0000
0020
0000
0031
0000
0020
0000
1030
0010
1000
0000
0100
0000
1000
0000
,  // measure 3
0001
0010
0200
0000
0310
0002
1000
0000
,  // measure 4
0100
0000
0000
0000
1003
0000
0100
0000
0001
0100
1000
0000
0010
0000
0100
0000
,  // measure 5
1001
0000
0000
0000
0100
0000
0001
0000
0101
0000
0100
0010
0100
0000
0020
0000
,  // measure 6
1030
0000
0020
0000
0031
0000
0020
0000
0130
0010
0100
0000
0001
0000
0010
0000
,  // measure 7
0011
0000
1000
0010
1010
0001
1000
0010
,  // measure 8
1000
0000
0001
0010
0001
0000
0000
0000
1000
0001
0100
0010
1000
0000
0001
0010
,  // measure 9
0001
0010
0011
1010
0011
0020
0031
0020
,  // measure 10
1030
0000
0020
0000
0031
0010
0001
0000
0100
0000
0001
0000
0010
0000
0001
0000
,  // measure 11
1000
0010
0001
0020
1000
0000
0100
0000
,  // measure 12
1030
0000
0100
0000
0001
0100
1000
0000
0010
0000
0100
0000
1000
0000
0001
0000
,  // measure 13
0010
0000
0100
0000
0001
0000
1000
0010
1000
0000
0020
0000
0130
0000
0020
0000
,  // measure 14
0031
0000
0020
0000
0130
0010
0100
0000
0001
0000
1000
0000
0010
0000
0001
0000
,  // measure 15
0010
0100
0010
1000
0100
0000
1001
0000
,  // measure 16
1000
0000
0100
0000
0010
0000
0001
0000
1000
0001
0100
0000
0010
0100
0001
0000
,  // measure 17
0010
0100
1000
0000
0001
0000
0100
0000
1001
0000
0000
0000
1000
0000
0000
1000
,  // measure 18
0010
0000
1000
0000
0001
0000
0000
0000
0010
0000
0100
0000
1000
0000
0000
1000
,  // measure 19
0001
0000
0100
0000
0101
0000
0000
0000
1001
0000
0000
0000
1000
0000
0000
0010
,  // measure 20
0100
0000
0001
0000
1000
0000
0000
0000
0010
0000
0000
0000
0100
0000
0000
0001
,  // measure 21
1000
0000
0100
0000
1100
0000
0000
0000
1001
0000
0000
0000
0001
0000
0000
0010
,  // measure 22
0100
0000
0010
0000
0001
0000
0000
0000
1000
0000
0000
0000
0001
0000
0000
0001
,  // measure 23
1000
0000
0010
0000
1010
0000
0000
0000
0011
0000
0000
0000
0001
0000
0000
0010
,  // measure 24
0001
0000
0000
0000
1000
0100
0010
0000
0001
0000
1000
0000
0010
0000
0001
0000
,  // measure 25
0010
0100
0010
1000
1001
0000
0110
0000
,  // measure 26
1001
0000
0000
0000
1000
0001
1000
0000
0100
0000
0001
0000
1000
0000
0010
0000
,  // measure 27
0100
1000
0001
0100
1001
0000
0101
0000
,  // measure 28
1010
0000
0000
0000
1000
0001
1000
0000
0010
0000
0100
0000
0001
0000
0010
0000
,  // measure 29
1000
0010
0100
1000
1100
0000
0110
0000
,  // measure 30
1010
0000
0000
0000
1000
0001
1000
0000
0010
0000
0100
0000
1000
0000
0100
0000
,  // measure 31
0001
1000
0010
1000
1010
0000
1001
0000
,  // measure 32
0011
0000
0000
0000
0001
0010
0100
0000
0010
0000
1000
0000
0010
0000
0001
0000
,  // measure 33
1000
0000
0001
0000
0100
0000
0001
0000
1000
0010
0100
0001
0010
0100
1000
0001
,  // measure 34
1000
0000
0000
0000
0001
0100
1000
0000
0000
0000
1000
0100
0001
0000
0000
0000
,  // measure 35
0001
0100
0001
0100
0002
0000
0000
0000
1003
0001
0100
0010
1000
0100
0010
0001
,  // measure 36
1000
0000
0000
0000
0010
0100
1000
0000
0000
0000
1000
0100
0010
0000
0000
0000
,  // measure 37
1000
0010
1000
0010
2000
0000
0000
0000
3010
1000
0001
0100
0010
1000
0100
0010
,  // measure 38
0001
0000
0000
0000
1000
0010
0001
0000
0000
0000
0001
0010
1000
0000
0000
0000
,  // measure 39
0010
0100
0010
0100
0020
0000
0000
0000
1030
0010
0100
0001
0010
0100
1000
0001
,  // measure 40
1000
0000
0000
0000
0001
0010
1000
0000
0000
0000
1000
0010
0001
0000
0000
0000
,  // measure 41
0010
0100
0010
0100
0020
0000
0000
0000
0031
0000
0010
0000
1000
0000
0001
0000
,  // measure 42
0100
0010
0001
1000
0010
0100
1000
0100
,  // measure 43
0010
0100
0001
0020
1000
0000
0100
0000
,  // measure 44
0031
0000
0000
0000
0010
0001
0010
0000
0000
0000
0001
1000
0001
0000
0000
0000
,  // measure 45
0010
0001
0010
0200
0001
0000
1000
0000
,  // measure 46
0310
0000
0100
0000
1000
0100
1000
0000
0001
0000
0100
0001
0100
0000
0001
0000
,  // measure 47
0010
0100
0010
0200
1000
0000
0301
0100
,  // measure 48
1000
0000
0001
0000
1000
0100
1000
0000
0001
0000
0010
0100
0010
0000
1000
0000
,  // measure 49
0010
0000
0001
0000
1000
0000
0001
0000
0100
0000
1000
0100
0010
0000
0100
0000
,  // measure 50
0001
0000
1000
0000
0001
0100
0001
0000
1000
0010
1000
0010
1000
0001
1000
0001
,  // measure 51
1000
0010
1000
0010
2000
0000
0000
0000
3002
1003
0100
0010
0001
0200
1300
0100
,  // measure 52
0010
0100
0001
1000
0000
0000
0000
0000
1001
0000
0000
0000
1000
0000
0000
0001
,  // measure 53
0100
0000
0001
0000
1000
0100
1000
0000
0100
0000
0001
0000
1000
0000
0010
0000
,  // measure 54
0100
0000
1000
0000
0001
0000
0100
0000
0010
0000
0001
0000
0010
0000
1000
0001
,  // measure 55
1000
0001
0010
0000
0100
0010
0001
1000
,  // measure 56
0001
0100
0001
0020
1000
0000
0100
0000
,  // measure 57
0031
0000
0001
0010
0100
0000
0010
0100
,  // measure 58
1000
0000
0001
0000
1000
0000
0000
0000
1001
0000
0000
0000
0001
0000
0000
0001
,  // measure 59
1000
0010
1000
0100
0000
0100
0001
0100
,  // measure 60
1000
0100
0010
0002
0010
0000
0100
0000
,  // measure 61
1003
0000
1000
0100
0000
0100
0001
0100
,  // measure 62
0010
0000
0100
0000
1000
0000
0001
0000
1000
0000
0000
0000
0100
0000
0000
0010
,  // measure 63
0100
0000
0000
0000
1000
0001
1000
0000
0000
0000
0010
0000
0100
0000
0010
0000
,  // measure 64
0001
0000
0010
0000
0100
0000
0010
0000
1000
0000
0000
0000
0001
0000
0000
0100
,  // measure 65
0001
0000
0000
0000
0010
0100
0010
0000
0000
0000
0100
0000
1000
0000
0001
0000
,  // measure 66
0010
1000
0010
0100
1000
0000
0100
0000
,  // measure 67
0001
0000
0001
0100
0000
0100
2000
0000
0000
3002
0000
0000
,  // measure 68
0200
0000
0000
0303
;
