#VERSION:0.83;
#TITLE:Thank You;
#SUBTITLE:;
#ARTIST:Dido;
#TITLETRANSLIT:;
#SUBTITLETRANSLIT:;
#ARTISTTRANSLIT:;
#GENRE:Trip Hop;
#ORIGIN:;
#CREDIT:;
#BANNER:Thank You-bn.png;
#BACKGROUND:Thank You-bg.png;
#PREVIEWVID:;
#JACKET:Thank You-jacket.png;
#CDIMAGE:;
#DISCIMAGE:;
#LYRICSPATH:;
#CDTITLE:cdtitle.png;
#MUSIC:thank you.ogg;
#OFFSET:-0.022000;
#SAMPLESTART:11.984999;
#SAMPLELENGTH:24.007000;
#SELECTABLE:YES;
#BPMS:0.000=79.978;
#STOPS:;
#DELAYS:;
#WARPS:;
#TIMESIGNATURES:0.000=4=4;
#TICKCOUNTS:0.000=4;
#COMBOS:0.000=1;
#SPEEDS:0.000=1.000=0.000=0;
#SCROLLS:0.000=1.000;
#FAKES:;
#LABELS:0.000=Song Start;
#BGCHANGES:0.000=Thank You.avi=1.000=1=0=0=StretchNoLoop==CrossFade==,
99999=-nosongbg-=1.000=0=0=0 // don't automatically add -songbackground-
;
#KEYSOUNDS:;
#ATTACKS:
;

//---------------dance-single - ----------------
#NOTEDATA:;
#CHARTNAME:X-Scale 4;
#STEPSTYPE:dance-single;
#DESCRIPTION:;
#CHARTSTYLE:;
#DIFFICULTY:Easy;
#METER:2;
#RADARVALUES:0.214797,0.211014,0.017086,0.076888,0.000000,176.000000,174.000000,2.000000,9.000000,0.000000,0.000000,0.000000,0.000000,0.000000,0.214797,0.211014,0.017086,0.076888,0.000000,176.000000,174.000000,2.000000,9.000000,0.000000,0.000000,0.000000,0.000000,0.000000;
#CREDIT:iamthek3n;
#NOTES:
0000
0000
0000
0000
,
0000
0000
0000
0000
,
1000
0000
0010
1000
0001
0000
0100
0000
,
0001
0000
0010
0100
1000
0000
0001
0000
,
2000
0001
3100
1000
,
0002
0000
0100
0000
1003
0000
0001
1000
,
0020
0100
1030
0001
,
2000
0000
0100
0000
3001
0000
1000
0100
,
0020
0001
0130
1000
,
0020
0000
0100
0000
1030
0010
1000
0000
,
0002
0010
1003
0100
,
0010
0000
0001
0100
0001
0000
1000
0010
,
1000
0000
0100
0010
0001
0000
1000
0000
,
0001
0000
0100
0001
1000
0000
0010
0000
,
0100
0000
0001
0000
1000
0000
0100
1000
,
0001
0000
0100
0000
0001
0000
0010
0100
,
1000
0000
0001
0000
0100
0000
0001
0010
,
0100
0000
1000
0000
0001
0000
1000
0010
,
0100
0000
0001
0000
1000
0000
0100
1000
,
0001
0000
0100
0000
0001
0000
0010
0100
,
2000
0000
3001
0100
,
0001
0010
0100
1000
,
1001
0000
0001
0000
0100
0010
1000
0000
,
0100
0000
0010
0000
0001
1000
0010
0000
,
1000
0000
0001
0000
0010
0100
1000
0000
,
0001
0000
1000
0000
0010
1000
0100
0000
,
0010
0000
0001
0000
0010
0100
1000
0000
,
0001
0000
0100
0000
0001
0010
0100
0000
,
1000
0000
0001
0000
0100
0000
0010
1000
,
0100
0000
1000
0000
0001
0000
0100
0001
,
1001
0000
1000
0000
0001
0010
0100
0000
,
1000
0000
0010
0000
1000
0001
0100
0000
,
0001
0000
0010
0000
0100
0010
0001
0000
,
0010
0000
0100
0000
1000
0001
0100
0000
,
0010
0000
1000
0000
0001
1000
0100
0000
,
0010
0000
0001
0000
0100
0001
1000
0000
,
0010
0000
0100
0000
0001
0010
0100
0000
,
2000
0010
0001
0010
,
3001
0000
0000
0000
;

//---------------dance-single - ----------------
#NOTEDATA:;
#CHARTNAME:X-Scale 7;
#STEPSTYPE:dance-single;
#DESCRIPTION:;
#CHARTSTYLE:;
#DIFFICULTY:Medium;
#METER:5;
#RADARVALUES:0.334400,0.357100,0.085431,0.392981,0.277650,274.000000,264.000000,10.000000,46.000000,0.000000,0.000000,0.000000,0.000000,0.000000,0.334400,0.357100,0.085431,0.392981,0.277650,274.000000,264.000000,10.000000,46.000000,0.000000,0.000000,0.000000,0.000000,0.000000;
#CREDIT:iamthek3n;
#NOTES:
0000
0000
0000
0000
,
0000
0000
0000
0000
,
0001
0000
0000
0100
0010
0000
1000
0000
0001
0010
0100
0000
0001
0000
0100
0000
,
1000
0000
0000
0100
0010
0000
0100
0000
1000
0001
0100
0000
0010
0000
1000
0000
,
1001
0000
0000
0100
0001
0000
0010
0000
0100
0000
1000
0000
0001
0000
0010
0000
,
0001
0000
0000
0100
0000
0100
0000
0010
1000
0000
0100
0000
0001
0000
0100
0010
,
0001
0000
0000
0100
0010
0000
0100
0000
0001
0000
0010
0000
1000
0000
0010
0000
,
0001
0000
0000
1000
0000
1000
0000
0100
0010
0000
0100
0000
1000
0000
0010
0100
,
1000
0000
0000
0100
0010
0000
1000
0000
0001
0000
1000
0000
0100
0000
0010
0001
,
0010
0000
0000
0100
0000
0100
0000
0000
1000
0000
0001
0000
0100
0000
0010
0100
,
1000
0000
0000
0100
0010
0000
1000
0200
0000
0000
0010
0000
0320
0000
1030
0010
,
0001
0100
1000
0100
0001
0010
1000
0010
,
0001
0000
0000
1000
0100
0000
1000
0000
0001
0010
0100
0000
1100
0000
1000
0000
,
0001
0000
0000
0100
0010
0000
1000
0000
0100
0010
0001
0000
0101
0000
0100
0010
,
0100
0000
0000
0001
1000
0000
0000
0010
0000
0010
0100
0000
0110
0000
0010
0000
,
1000
0000
0100
0010
0000
0010
0000
0001
0010
0000
0001
0000
1000
0000
0010
0000
,
1010
0000
0000
0001
1000
0000
0000
0010
0000
0010
1000
0000
1001
0000
0100
0000
,
0001
0000
0000
1000
0000
1000
0000
0010
1000
0000
0100
0000
0010
0000
0001
1000
,
0001
0000
0000
0010
0100
0000
0000
1000
0000
1000
0001
0000
0101
0000
0100
0000
,
0001
0000
0000
0010
0000
0010
0000
0100
0000
0100
1000
0000
0010
0000
0001
0010
,
2000
0000
0010
0000
3002
0000
0203
0320
,
2030
0000
0100
0100
3200
0000
0010
0010
,
0310
0000
0000
0000
0101
0000
0000
0000
0001
0000
0020
0000
0000
0230
0000
0000
,
2300
0000
0001
0000
3100
0010
0001
1000
,
0001
0000
1001
0000
1000
0200
0000
0310
,
0002
0000
0000
0000
1000
0000
0000
0000
0013
0000
0200
0000
0000
0320
0000
0000
,
0031
0000
1001
0000
0001
2000
0010
0000
,
3020
0000
0000
0000
0001
0000
0000
0000
0130
0000
0020
0000
0000
2030
0000
0000
,
3100
0020
0000
0032
0000
2003
0000
3001
,
0200
0000
0000
0000
0310
0000
0200
0000
0000
0302
0000
0000
2003
0000
0000
0000
,
3010
0000
0000
1000
0001
0000
0010
0000
0000
0100
0010
0000
0001
0000
1000
0000
,
0001
0000
0000
0010
0100
0000
0100
0000
2000
0000
0000
3002
0000
0000
0203
0000
,
0301
0000
0000
0010
0100
0000
1000
0000
0020
0000
0000
2030
0000
0000
3002
0000
,
0023
0000
0000
0000
0130
0000
0010
0000
0002
0000
0000
2003
0000
0000
3020
0000
,
1030
0000
0000
0100
0010
0000
0001
0000
0200
0000
0000
0302
0000
0000
2003
0000
,
3001
0000
0000
0010
0100
0000
1000
0000
0200
0000
0000
0320
0000
0000
0032
0000
,
1003
0000
0000
0010
0100
0000
0001
0000
2000
0000
0000
3020
0000
0000
2030
0000
,
3200
0000
0010
0000
1300
0100
0001
0100
,
1000
0000
0000
0000
;

//---------------dance-single - an attempt at doing a tasteful overchart----------------
#NOTEDATA:;
#CHARTNAME:X-Scale 12;
#STEPSTYPE:dance-single;
#DESCRIPTION:an attempt at doing a tasteful overchart;
#CHARTSTYLE:;
#DIFFICULTY:Challenge;
#METER:8;
#RADARVALUES:0.455223,0.422027,0.128146,0.350266,0.606558,373.000000,358.000000,15.000000,41.000000,0.000000,0.000000,0.000000,0.000000,0.000000,0.455223,0.422027,0.128146,0.350266,0.606558,373.000000,358.000000,15.000000,41.000000,0.000000,0.000000,0.000000,0.000000,0.000000;
#CREDIT:k3n -SUMMER MODE-;
#NOTES:
// measure 0
0000
0000
0000
0000
,  // measure 1
0000
0000
0000
0000
,  // measure 2
1010
0000
1000
0001
1000
0000
0100
0010
0000
0010
0001
0000
1001
0000
0010
0000
,  // measure 3
1000
0000
0001
0010
0100
0000
0010
0001
0000
0001
1000
0000
1010
0000
0001
0000
,  // measure 4
1000
0000
0000
0001
0010
0000
0000
0100
0000
0100
1000
0100
0000
0100
0010
0100
,  // measure 5
1000
0000
0000
1000
0100
1000
0000
0001
0000
0001
0100
0000
1001
0000
0001
0010
,  // measure 6
0100
0000
0000
1000
0100
1000
0000
0010
0000
0010
0100
0010
0000
0010
1000
0010
,  // measure 7
0100
0000
0000
0001
0100
0001
0000
1000
0000
0001
0100
0000
1001
0000
0010
0001
,  // measure 8
1000
0000
0000
0001
0100
0001
0000
0010
0000
0010
0100
0000
1000
0001
0010
0001
,  // measure 9
1000
0000
0000
0100
0010
0001
0000
1000
0000
1000
0100
0000
0110
0000
0010
0001
,  // measure 10
0010
0000
0000
0100
1000
0001
0000
0100
0000
0100
0010
0000
1001
0000
0001
1000
,  // measure 11
0001
0000
0100
0010
1000
0001
0000
0010
0000
0010
0100
1000
0000
1000
0010
1000
,  // measure 12
0001
0000
0100
0001
1000
0000
0001
1000
0000
0100
1000
0000
1100
0000
1000
0100
,  // measure 13
0010
0000
0000
0010
0001
0000
0001
1000
0000
0100
1000
0000
1100
0000
1000
0010
,  // measure 14
1020
0000
0001
0000
1030
0010
0000
0100
0000
0001
0000
1000
0000
0010
0000
0000
,  // measure 15
1000
0000
0100
0010
0001
0000
1000
0010
0000
0010
0001
0000
1000
0001
0100
0000
,  // measure 16
1002
0000
0010
0000
1003
0001
0000
0100
0000
1000
0000
0010
0000
0001
0000
0000
,  // measure 17
1001
0000
1000
0100
1000
0000
0001
0100
0000
0100
1000
0000
1000
0010
1000
0001
,  // measure 18
0200
0000
0010
0000
0301
0000
1000
0100
0000
0100
0001
0000
1000
0000
0001
0010
,  // measure 19
0100
0000
0000
0100
1000
0100
0000
0010
0000
0010
0001
0000
1000
0000
0010
1000
,  // measure 20
0002
0000
0100
0000
1000
0000
0010
0000
2003
0000
0100
0000
3002
0000
1003
0100
,  // measure 21
0010
0000
0001
0020
0100
0000
0031
0010
0100
0000
1000
0000
0100
0000
0010
0000
,  // measure 22
1001
0000
0010
0000
1000
0100
1000
0000
0001
0100
0010
2000
0000
3200
0000
0300
,  // measure 23
2100
0000
0000
3002
0100
0000
1000
0000
0013
0000
0100
1000
0001
0010
0001
1000
,  // measure 24
0100
0000
0020
0000
0001
0000
0032
0000
1000
0000
2003
0000
0010
0000
3010
1000
,  // measure 25
0001
0000
1000
0000
0001
0000
0000
0010
0000
0010
0100
0000
1000
0000
0001
0000
,  // measure 26
1000
0100
1000
0000
0000
0010
1000
0200
0000
0320
0000
0000
1000
0000
0000
0000
,  // measure 27
0031
0000
0010
0000
1000
0000
0100
0010
0000
0100
0001
0000
1000
0010
0100
0001
,  // measure 28
0010
0000
0200
0000
0010
0000
0320
0000
0001
0000
0032
0000
1000
0000
1003
0001
,  // measure 29
0020
0000
0100
0000
0031
0000
0020
0000
0000
0230
0000
0000
2300
0000
3001
0100
,  // measure 30
0001
0000
0010
0000
1000
0010
0002
0000
0000
0103
0001
2000
0000
3200
0000
0300
,  // measure 31
2100
0000
0000
3002
0100
0000
1000
0000
0013
0000
0001
0010
1000
0010
0100
0010
,  // measure 32
0001
0000
0020
0000
0100
0000
0230
0000
1000
0000
2300
0000
0001
0000
3001
1000
,  // measure 33
0010
0000
1000
0100
0001
0000
0100
0010
0002
0000
0000
0023
0000
0000
0230
0000
,  // measure 34
1300
0001
1000
0000
0100
1000
0001
0200
0000
0302
0000
0000
0013
0100
0000
0010
,  // measure 35
0001
1000
0000
0200
1000
0000
0010
0000
2300
0000
0000
3002
0000
0000
0203
0000
,  // measure 36
0310
0100
0001
0000
1000
0000
0001
0100
0000
0010
1000
0000
0001
0000
1000
0100
,  // measure 37
0020
0000
1000
0000
0100
0000
0031
0010
0000
0010
0100
1000
0001
0100
1000
0100
,  // measure 38
0001
0000
0000
0000
;

//---------------dance-single - ----------------
#NOTEDATA:;
#CHARTNAME:X-Scale 1;
#STEPSTYPE:dance-single;
#DESCRIPTION:;
#CHARTSTYLE:;
#DIFFICULTY:Beginner;
#METER:1;
#RADARVALUES:0.070785,0.080625,0.000000,0.000000,0.000000,58.000000,58.000000,0.000000,0.000000,0.000000,0.000000,0.000000,0.000000,0.000000,0.070785,0.080625,0.000000,0.000000,0.000000,58.000000,58.000000,0.000000,0.000000,0.000000,0.000000,0.000000,0.000000,0.000000;
#CREDIT:iamthek3n;
#NOTES:
0000
0000
0000
0000
,
0000
0000
0000
0000
,
0001
0000
0000
0000
,
1000
0000
0000
0000
,
0001
0000
0000
0000
,
0100
0000
0000
0000
,
0001
0000
0000
0000
,
1000
0000
0000
0000
,
0100
0000
0000
0000
,
0010
0000
0000
0000
,
0100
0000
0000
0000
,
1000
0000
0000
0000
,
0001
0000
0000
0000
,
0010
0000
0000
0000
,
0001
0000
1000
0000
,
0001
0000
0010
0000
,
0001
0000
1000
0000
,
0100
0000
1000
0000
,
0010
0000
1000
0000
,
0001
0000
0100
0000
,
0001
0000
0000
0000
,
1000
0000
0000
0000
,
0000
0001
0000
0100
,
0000
0001
0000
1000
,
0000
0010
0000
1000
,
0000
0001
0000
0010
,
0000
0001
0000
1000
,
0000
0100
0000
1000
,
0000
0010
0000
1000
,
0000
0100
0000
0010
,
0000
0001
0000
0100
,
0000
0001
0000
1000
,
0000
0001
0000
0010
,
0000
0001
0000
1000
,
0000
0100
0000
0010
,
0000
0001
0000
1000
,
0000
0001
0000
0010
,
0000
0100
0000
1000
;

//---------------dance-single - ----------------
#NOTEDATA:;
#CHARTNAME:X-Scale 10;
#STEPSTYPE:dance-single;
#DESCRIPTION:;
#CHARTSTYLE:;
#DIFFICULTY:Hard;
#METER:7;
#RADARVALUES:0.369793,0.357100,0.093974,0.239206,0.290464,303.000000,292.000000,11.000000,28.000000,0.000000,0.000000,0.000000,0.000000,0.000000,0.369793,0.357100,0.093974,0.239206,0.290464,303.000000,292.000000,11.000000,28.000000,0.000000,0.000000,0.000000,0.000000,0.000000;
#CREDIT:iamthek3n;
#NOTES:
0000
0000
0000
0000
,
0000
0000
0000
0000
,
0001
0000
0000
0000
1001
0000
1000
0000
0010
0100
0010
0000
0110
0000
0000
0000
,
0001
0000
0000
0000
1001
0000
0010
0000
0001
0100
0001
0000
0101
0000
0000
0000
,
2001
0000
0000
0000
3100
0000
1000
0000
0001
0000
0000
0010
0000
0010
0000
0002
,
1000
0000
0000
0100
0003
0100
0000
0010
0100
0000
0001
0000
1000
0000
0100
0010
,
0002
0000
0000
0000
0013
0000
0000
0100
0000
1000
0000
0001
0000
0100
0000
0010
,
0000
2000
0000
0010
0000
3010
0000
1000
0100
0000
0001
0000
0100
0000
0010
0100
,
2000
0000
0000
0000
3010
0000
0000
0100
0000
0001
0000
1000
0000
0010
0100
1000
,
0000
0100
0000
0002
0000
0000
0103
0010
1000
0000
0010
1000
0000
0001
0000
0020
,
0000
0000
0100
0000
0130
0000
0010
0000
0001
0000
0001
0000
0100
0000
0001
0010
,
0100
0100
1000
1000
0001
0001
0100
0100
,
0101
0000
0000
0001
1000
0000
0010
0000
1000
0100
0010
0000
0011
0000
0001
0000
,
1000
0000
0000
0010
0100
0000
0001
0000
0010
0100
1000
0000
1010
0000
0010
0000
,
2000
0000
0000
0000
3010
0000
1000
0000
0001
0000
1000
0000
0010
0000
0100
0010
,
0100
0000
0001
0000
0010
0000
0100
1000
0100
0000
0001
0000
0100
0000
0010
0000
,
0002
0000
0000
0000
1003
0000
0001
0000
0100
0000
0010
0000
1000
0000
0100
0010
,
0100
0000
1000
0000
0001
0000
0100
0010
0100
0000
0001
0000
0010
0000
0100
1000
,
0200
0000
0000
0000
0301
0000
0100
0000
1000
0000
0010
0000
1000
0000
0001
0100
,
0001
0000
1000
0000
0010
0000
0100
0001
0100
0000
0010
0000
0001
0000
0010
1000
,
0002
0000
0100
0000
2003
0000
3020
0030
,
0100
0100
0001
0001
0010
0010
0100
0100
,
2100
0000
0000
3002
0100
0000
0000
0000
0010
0000
0000
0000
1003
0000
0001
0000
,
0100
0000
0000
0020
0100
0000
0000
0000
1030
0000
0010
0000
0001
0000
0010
0000
,
1000
0200
0010
0320
0001
0032
1000
0103
,
0201
0000
1000
0000
0301
0100
0010
1000
,
0200
0000
0000
0320
0001
0000
0000
0000
1000
0000
0000
0000
0031
0000
0010
0000
,
0100
0000
0000
0020
0100
0000
0000
0000
0031
0000
0100
0000
0010
0000
1000
0000
,
0001
0200
0001
0302
0100
0203
0010
0301
,
2001
0000
0000
0000
0100
0000
0000
0000
3001
0000
1000
0000
0010
0000
0100
0010
,
0001
0000
0010
0000
1000
0000
0100
1000
0000
1000
0001
0000
0100
0000
0001
0000
,
0010
0000
0100
0000
1000
0000
0001
0100
0000
0100
1000
0000
0100
0000
0001
0000
,
1000
0000
0010
0000
1000
0000
0001
0010
0000
0010
0100
0000
0010
0000
0001
0000
,
1000
0000
0010
0000
1000
0000
0001
0100
0000
0100
0010
0000
0100
0000
1000
0100
,
0001
0000
0010
0000
0100
0000
1000
0001
0000
0001
0100
0000
0010
0000
0001
0000
,
0010
0000
1000
0000
0100
0000
1000
0010
0000
0010
0100
0000
0001
0000
0100
0000
,
1000
0000
0100
0000
0001
0000
1000
0100
0000
0100
0010
0000
0001
0000
1000
0000
,
0002
0000
0000
0000
0013
0000
0000
0100
0000
0100
1000
0001
0010
1000
0010
0100
,
1000
0000
0000
0000
;
