#VERSION:0.83;
#TITLE:Talking to Yourself;
#SUBTITLE:;
#ARTIST:Carly Rae Jepsen;
#TITLETRANSLIT:;
#SUBTITLETRANSLIT:;
#ARTISTTRANSLIT:;
#GENRE:Synthpop;
#ORIGIN:;
#CREDIT:;
#BANNER:Talking to Yourself-bn.png;
#BACKGROUND:Talking to Yourself-bg.png;
#PREVIEWVID:;
#JACKET:Talking to Yourself-jacket.png;
#CDIMAGE:;
#DISCIMAGE:;
#LYRICSPATH:;
#CDTITLE:cdtitle.png;
#MUSIC:Talking to Yourself.ogg;
#OFFSET:-0.003000;
#SAMPLESTART:34.358002;
#SAMPLELENGTH:14.274000;
#SELECTABLE:YES;
#BPMS:0.000=124.000;
#STOPS:;
#DELAYS:;
#WARPS:;
#TIMESIGNATURES:0.000=4=4;
#TICKCOUNTS:0.000=4;
#COMBOS:0.000=1;
#SPEEDS:0.000=1.000=0.000=0;
#SCROLLS:0.000=1.000;
#FAKES:;
#LABELS:0.000=Song Start;
#BGCHANGES:0.000=Talking to Yourself.avi=1.000=1=0=0=StretchNoLoop==CrossFade==,
99999=-nosongbg-=1.000=0=0=0 // don't automatically add -songbackground-
;
#KEYSOUNDS:;
#ATTACKS:
;

//---------------dance-single - ----------------
#NOTEDATA:;
#CHARTNAME:X-Scale 2;
#STEPSTYPE:dance-single;
#DESCRIPTION:;
#CHARTSTYLE:;
#DIFFICULTY:Beginner;
#METER:1;
#RADARVALUES:0.103747,0.151589,0.017499,0.000000,0.000000,83.000000,81.000000,2.000000,0.000000,0.000000,0.000000,0.000000,0.000000,0.000000,0.103747,0.151589,0.017499,0.000000,0.000000,83.000000,81.000000,2.000000,0.000000,0.000000,0.000000,0.000000,0.000000,0.000000;
#CREDIT:iamthek3n;
#NOTES:
0000
0000
0000
0000
,
0000
0000
0000
0000
,
1000
0000
0000
0000
,
0000
0000
0000
0000
,
0001
0000
0000
0000
,
0000
0000
0000
0000
,
1000
0000
0000
0000
,
0000
0000
0000
0000
,
0001
0000
0000
0000
,
0000
0000
0000
0000
,
0000
0010
0000
0100
,
0000
0010
0000
0100
,
0000
1000
0000
0001
,
0000
1000
0000
0001
,
0000
0100
0000
0010
,
0000
0100
0000
0010
,
0000
1000
0000
0001
,
0000
1000
0000
0000
,
1001
0000
0001
0000
,
1000
0000
0001
0000
,
0100
0000
0001
0000
,
1000
0000
0100
0000
,
0010
0000
0100
0000
,
1000
0000
0001
0000
,
0100
0000
0001
0000
,
1000
0000
0001
0000
,
0000
0100
0000
0100
,
0000
0001
0000
0001
,
0000
1000
0000
1000
,
0000
0010
0000
0010
,
0000
1000
0000
1000
,
0000
0001
0000
0001
,
0000
0010
0000
0010
,
0000
0100
0000
0100
,
0000
0000
0000
0000
,
0000
0000
0000
0000
,
0000
0000
0000
0000
,
0000
0000
0000
0000
,
0000
0000
0000
0000
,
0000
0000
0000
0000
,
0000
0000
0000
0000
,
0000
0000
0000
0000
,
0001
0000
0000
0000
,
1000
0000
0000
0000
,
1001
0000
1000
0000
,
0001
0000
1000
0000
,
0010
0000
1000
0000
,
0001
0000
0010
0000
,
0100
0000
0010
0000
,
0001
0000
0010
0000
,
0000
0100
0000
0100
,
0000
1000
0000
1000
,
0000
0001
0000
0001
,
0000
0100
0000
0100
,
0000
0010
0000
0010
,
0000
1000
0000
1000
,
0000
0001
0000
0001
,
0000
0010
0000
0010
;

//---------------dance-single - ----------------
#NOTEDATA:;
#CHARTNAME:X-Scale 6;
#STEPSTYPE:dance-single;
#DESCRIPTION:;
#CHARTSTYLE:;
#DIFFICULTY:Easy;
#METER:4;
#RADARVALUES:0.261242,0.354474,0.078748,0.061248,0.000000,209.000000,200.000000,9.000000,7.000000,0.000000,0.000000,0.000000,0.000000,0.000000,0.261242,0.354474,0.078748,0.061248,0.000000,209.000000,200.000000,9.000000,7.000000,0.000000,0.000000,0.000000,0.000000,0.000000;
#CREDIT:iamthek3n;
#NOTES:
0000
0000
0000
0000
,
0000
0000
0000
0000
,
0000
0001
0000
1000
,
0000
0001
0000
1000
,
0000
0100
0000
0010
,
0000
0100
0000
0010
,
0000
0001
0000
0100
,
0000
0001
0000
0100
,
0000
0000
0010
0000
0000
0000
1000
0001
,
0000
0001
0000
1000
0000
1000
0000
0000
,
0001
0000
0100
0002
0000
0000
1003
0000
,
0000
0001
0010
0000
0100
1000
0000
1000
,
0001
0000
0100
0020
0000
0000
1030
0000
,
0000
0001
0010
0000
0100
1000
0000
1000
,
0001
0000
1000
0200
0000
0000
0310
0000
,
0000
0100
1000
0000
0001
0010
0000
0010
,
0100
0000
0010
0002
0000
0000
1003
0000
,
0200
0000
0300
0000
,
1001
0000
1000
0001
1000
0000
0100
0000
,
0010
0000
0001
0010
0001
0000
0100
0000
,
0010
0000
1000
0010
1000
0000
0100
0000
,
0010
0000
0001
0010
0001
0000
1000
0000
,
0001
0000
0100
0001
0100
0000
0010
0000
,
1000
0000
0010
0100
0010
0000
1000
0000
,
0100
0000
0010
0100
0010
0000
0001
0000
,
1000
0000
0010
1000
0020
0000
0100
0000
,
1030
1010
0001
0011
,
1000
0000
0001
0020
0000
0130
0010
0001
,
1000
0000
0001
0000
1000
0000
0001
0100
,
0001
0000
0010
0000
0100
1000
0100
1000
,
0000
1100
1000
0001
,
1000
0010
1000
0001
,
0010
0100
1000
0001
,
1000
0010
0100
0001
,
1000
0000
0000
0000
,
0000
0000
0000
0000
,
0001
0000
0000
0000
,
0000
0000
0000
0000
,
0010
0000
0000
0000
,
0000
0000
0000
0000
,
0100
0000
0000
0000
,
0000
0000
0000
0000
,
1000
0000
0000
0000
,
0000
0000
0000
0000
,
1001
0100
1000
0001
,
0100
0000
0001
0010
0100
0000
1000
0000
,
0001
0000
0100
0001
1000
0000
0100
0000
,
0010
0000
0100
0010
0001
0000
1000
0000
,
0001
0100
0001
1000
,
0001
0000
0010
0100
0000
0010
0001
1000
,
0000
1001
0100
1100
,
1000
0100
0010
0001
0000
0100
0001
1000
,
0001
0010
0100
0010
,
0001
0000
1000
0000
0001
0100
0001
0100
,
0000
1001
0100
1100
,
1000
0001
0100
0001
0000
0010
0100
1000
,
0001
0100
0010
0100
,
0001
0000
1000
0000
0001
1000
0001
1000
;

//---------------dance-single - ----------------
#NOTEDATA:;
#CHARTNAME:X-Scale 8;
#STEPSTYPE:dance-single;
#DESCRIPTION:;
#CHARTSTYLE:;
#DIFFICULTY:Medium;
#METER:6;
#RADARVALUES:0.356240,0.405113,0.104997,0.481236,0.034999,285.000000,273.000000,12.000000,55.000000,0.000000,0.000000,0.000000,0.000000,0.000000,0.356240,0.405113,0.104997,0.481236,0.034999,285.000000,273.000000,12.000000,55.000000,0.000000,0.000000,0.000000,0.000000,0.000000;
#CREDIT:iamthek3n;
#NOTES:
0000
0000
0000
0000
,
0000
0000
0000
0000
,
0011
0000
0000
1000
0000
0000
0001
0000
,
0000
0010
0100
0000
1000
0001
1000
0000
,
0100
0000
0000
0010
0000
0000
0001
0000
,
0000
1000
0001
0000
0010
0100
0010
0100
,
1000
0000
0000
0001
0100
0000
0010
1000
,
0001
0010
0010
0000
0100
1000
0001
1000
,
0100
0000
0010
0001
0000
1000
0001
0200
,
0300
2000
3000
0020
0030
0002
0003
2000
,
3001
0000
1000
0001
0100
0002
0000
0003
,
1000
0000
0001
0100
0001
2000
0000
3000
,
0100
0000
0000
0000
0010
0000
0100
0000
1000
0000
0002
0000
0003
0010
0002
0000
,
1003
0001
1000
0000
0010
0100
0100
0001
,
1000
0000
0100
1000
0001
2000
0000
3000
,
0100
0000
0000
0000
0010
0000
0001
0000
1000
0000
0002
0000
0003
0010
0002
0000
,
1003
0000
0001
0100
0001
0100
0001
0000
,
2000
0100
3000
0000
,
1001
0000
0100
0000
1000
0100
0010
0002
,
0000
0103
0001
1000
0020
0000
0130
0000
,
0002
0000
0013
0200
0300
0010
0001
2000
,
0000
3010
0100
0001
0020
0000
0130
0000
,
1000
0000
0001
0100
0001
0000
1000
0000
,
0100
0000
0010
0100
1000
0000
0001
1000
,
0020
0032
0203
2300
,
3002
0000
1003
0000
0001
0100
0001
0100
,
0000
0000
1001
0000
1000
0100
1100
0000
,
0001
0010
0100
2000
0000
3010
1000
0001
,
0020
2030
3200
0302
,
2003
0000
3001
0000
1000
0010
1000
0010
,
0000
0000
1001
0000
0100
1000
0001
0000
,
0010
0000
0100
0000
0010
0100
1000
0000
,
0010
1000
0010
1000
0000
0000
0001
0010
0001
0010
0000
0000
,
0100
0010
0001
1000
0002
0100
0100
0000
,
1003
0000
0000
0001
0000
0000
1000
0000
,
0000
0000
0000
0000
,
0001
0000
0000
0100
0000
0000
0001
0000
,
0000
0000
0000
0000
,
0100
0000
0000
0010
0000
0000
0100
0000
,
0000
0000
0000
0000
,
0010
0000
0000
1000
0000
0000
0010
0000
,
0000
0000
0000
0000
0000
0000
1000
0100
,
0001
0100
0010
0001
0000
0010
0100
1000
,
0000
0000
0010
0000
0000
1001
0000
0000
0100
0000
0000
0110
0000
0000
0000
0000
,
2001
0000
3010
0200
0300
0001
0100
0020
,
0000
0031
0010
1000
0200
0000
0301
0100
,
0010
0001
1000
0002
0003
1000
0100
0020
,
0000
1030
0010
0001
0200
0300
0001
1000
,
0200
0302
0023
2030
,
3002
0000
1003
0000
0001
0100
0001
0100
,
0000
0000
1001
0000
0100
1000
1100
0000
,
1000
0100
0010
0002
0000
1003
0100
1000
,
0020
0032
0203
2300
,
3002
0000
1003
0000
0001
0010
0001
0010
,
0000
0000
1001
0000
0100
0001
0101
0000
,
1000
0001
0100
0020
0000
0031
0010
1000
,
0200
0302
0023
2030
,
3002
0000
1003
0000
0100
0010
0100
0010
;

//---------------dance-single - ----------------
#NOTEDATA:;
#CHARTNAME:X-Scale 11;
#STEPSTYPE:dance-single;
#DESCRIPTION:;
#CHARTSTYLE:;
#DIFFICULTY:Hard;
#METER:8;
#RADARVALUES:0.473736,0.608982,0.227493,0.297491,0.131246,379.000000,353.000000,26.000000,34.000000,0.000000,0.000000,0.000000,0.000000,0.000000,0.473736,0.608982,0.227493,0.297491,0.131246,379.000000,353.000000,26.000000,34.000000,0.000000,0.000000,0.000000,0.000000,0.000000;
#CREDIT:iamthek3n;
#NOTES:
// measure 0
0000
0000
0000
0000
,  // measure 1
0000
0000
0000
0000
,  // measure 2
2000
0000
3001
0200
0000
0300
0101
0000
,  // measure 3
1000
0001
1000
0000
0010
0100
0010
0000
,  // measure 4
2000
0000
3001
0020
0000
0130
0010
0001
,  // measure 5
0000
1000
0001
0000
1000
0100
0100
0010
,  // measure 6
0002
0000
1003
0010
0001
1000
0100
0002
,  // measure 7
0000
0013
0100
1000
0010
0001
0010
1000
,  // measure 8
0002
0000
1003
0010
0000
1000
0001
0100
,  // measure 9
0010
0100
0100
0001
0010
0100
0100
1000
,  // measure 10
1001
0000
1000
0100
0000
0000
1000
0000
0001
0000
0100
0000
0010
0000
0000
0000
,  // measure 11
1000
0000
0001
0010
0000
0000
0100
0000
0010
0000
0001
0000
1000
0000
0000
0000
,  // measure 12
0001
0000
0100
0010
0000
0000
1000
0000
0001
0000
0010
0000
0000
0010
0100
0000
,  // measure 13
1000
0010
0001
0010
1000
0100
0100
0010
,  // measure 14
0001
0000
1000
0001
0000
0000
0100
0000
0010
0000
1000
0000
0100
0000
0000
0000
,  // measure 15
0010
0000
0100
0010
0000
0000
0001
0000
0100
0000
0010
0000
0000
0010
1000
0000
,  // measure 16
0001
0000
1000
0010
1000
0000
1010
0000
,  // measure 17
1000
0001
0100
0001
0000
1000
1000
0000
,  // measure 18
1100
0100
1000
0002
0003
0100
0001
0020
,  // measure 19
0000
1030
0010
0001
2000
3000
0001
0010
,  // measure 20
0011
0000
0010
0100
1000
0001
0100
0020
,  // measure 21
0000
0031
0010
1000
0002
0100
0103
0001
,  // measure 22
0001
1000
0010
0200
0300
0001
0010
0200
,  // measure 23
0000
0301
0100
1000
0002
0003
1000
0100
,  // measure 24
1100
0101
0011
1010
,  // measure 25
1100
0100
1000
0020
0000
0031
0010
2000
,  // measure 26
3000
0000
0000
0000
1001
0000
1000
0000
0010
1000
0001
0000
1000
0000
0100
0000
,  // measure 27
0001
0000
0100
0000
1000
0000
0100
1000
0001
0000
1000
0000
0010
0000
0100
0000
,  // measure 28
0110
0000
0101
1000
0001
0000
1100
0001
,  // measure 29
1000
0100
0010
0002
0000
1003
1000
0001
,  // measure 30
0001
0000
1001
0200
0000
1300
0002
0000
,  // measure 31
0013
0200
0000
2300
3000
1000
0002
0000
,  // measure 32
1003
0100
0010
0001
0100
0010
1000
0001
0010
0100
1000
0001
,  // measure 33
0100
0001
0100
0001
1000
0100
1000
0100
2000
0000
0010
0000
0010
0000
0020
0000
,  // measure 34
0030
0000
3000
0000
,  // measure 35
0000
0000
0000
0000
0000
0000
0001
0010
,  // measure 36
1000
0001
0100
2000
0000
0000
0000
0000
,  // measure 37
3000
0000
0000
0000
,  // measure 38
0000
0000
0000
0000
,  // measure 39
0000
0000
0010
0001
1000
0010
0001
0010
,  // measure 40
1000
0001
0200
0000
0020
0000
0300
0000
,  // measure 41
0030
0000
0000
0000
,  // measure 42
0001
1000
0000
0010
1000
0001
0000
1000
,  // measure 43
0100
0000
1100
0000
0000
0110
0000
0000
0011
0000
0000
1010
0000
0000
0000
0000
,  // measure 44
1001
0000
0001
0100
1000
0001
0010
2000
,  // measure 45
0000
3001
0100
0010
0200
0001
0301
0100
,  // measure 46
0100
0000
0001
0010
1000
0010
0100
2000
,  // measure 47
0000
3100
0001
0100
1000
0001
0100
0001
,  // measure 48
0101
0110
1001
1100
,  // measure 49
1000
0010
0100
0020
0000
0031
0010
2000
,  // measure 50
3000
0000
0000
0000
1001
0000
1000
0000
0100
0010
0001
0000
0100
0000
0001
0000
,  // measure 51
0010
0000
0100
0000
1000
0000
0010
1000
0001
0000
0100
0000
0001
0000
0010
0000
,  // measure 52
0100
0000
0001
0000
0100
0000
1000
0100
0010
0000
0001
0000
1000
0000
0001
0000
,  // measure 53
0100
0000
0010
0000
1000
0000
0010
0100
0001
0000
1000
0000
0001
0000
1000
0000
,  // measure 54
0000
0000
0000
0000
1100
0000
0100
0000
1000
0001
0100
0000
0001
0000
0010
0000
,  // measure 55
0100
0000
0001
0000
0100
0000
1000
0100
0010
0000
1000
0000
0010
0000
0001
0000
,  // measure 56
1000
0000
0001
0000
0100
0000
0010
0100
0001
0000
1000
0000
0100
0000
0010
0000
,  // measure 57
0100
1000
0001
0200
0000
0301
0001
1000
,  // measure 58
1000
0000
0000
0000
;
