#VERSION:0.83;
#TITLE:Talk talk featuring troye sivan;
#SUBTITLE:;
#ARTIST:Charli XCX;
#TITLETRANSLIT:;
#SUBTITLETRANSLIT:;
#ARTISTTRANSLIT:;
#GENRE:Balearic House;
#ORIGIN:;
#CREDIT:;
#BANNER:Talk talk featuring troye sivan-bn.png;
#BACKGROUND:Talk talk featuring troye sivan-bg.png;
#PREVIEWVID:;
#JACKET:Talk talk featuring troye sivan-jacket.png;
#CDIMAGE:;
#DISCIMAGE:;
#LYRICSPATH:;
#CDTITLE:cdtitle.png;
#MUSIC:Talk talk featuring troye sivan.ogg;
#OFFSET:-0.005000;
#SAMPLESTART:67.389999;
#SAMPLELENGTH:14.769000;
#SELECTABLE:YES;
#BPMS:0.000=130.000;
#STOPS:;
#DELAYS:;
#WARPS:;
#TIMESIGNATURES:0.000=4=4;
#TICKCOUNTS:0.000=4;
#COMBOS:0.000=1;
#SPEEDS:0.000=1.000=0.000=0;
#SCROLLS:0.000=1.000;
#FAKES:;
#LABELS:0.000=Song Start;
#BGCHANGES:0.000=Talk talk featuring troye sivan.avi=1.000=1=0=0=StretchNoLoop==CrossFade==,
99999=-nosongbg-=1.000=0=0=0 // don't automatically add -songbackground-
;
#KEYSOUNDS:;
#ATTACKS:
;

//---------------dance-single - ----------------
#NOTEDATA:;
#CHARTNAME:X-Scale 2;
#STEPSTYPE:dance-single;
#DESCRIPTION:;
#CHARTSTYLE:;
#DIFFICULTY:Beginner;
#METER:2;
#RADARVALUES:0.114610,0.161791,0.017828,0.000000,0.000000,90.000000,88.000000,2.000000,0.000000,0.000000,0.000000,0.000000,0.000000,0.000000,0.114610,0.161791,0.017828,0.000000,0.000000,90.000000,88.000000,2.000000,0.000000,0.000000,0.000000,0.000000,0.000000,0.000000;
#CREDIT:k3n is brat;
#NOTES:
// measure 0
0000
0000
0000
0000
,  // measure 1
0000
0000
0000
0000
,  // measure 2
0000
0000
0000
0000
,  // measure 3
0000
0000
0000
0000
,  // measure 4
0000
0000
1000
0000
,  // measure 5
0000
0000
0000
0000
,  // measure 6
0000
0000
0001
0000
,  // measure 7
0000
0000
0000
0000
,  // measure 8
0000
0000
1000
0000
,  // measure 9
0000
0000
0000
0000
,  // measure 10
0000
0000
0001
0000
,  // measure 11
0000
0000
0000
0000
,  // measure 12
0000
0000
1000
0000
,  // measure 13
0100
0000
1000
0000
,  // measure 14
0001
0000
1000
0000
,  // measure 15
0100
0000
1000
0000
,  // measure 16
0001
0000
0100
0000
,  // measure 17
0001
0000
1000
0000
,  // measure 18
0001
0000
0100
0000
,  // measure 19
0001
0000
1000
0000
,  // measure 20
0001
0000
0010
0000
,  // measure 21
0000
0000
0100
0000
,  // measure 22
0000
0000
0010
0000
,  // measure 23
0000
0000
0100
0000
,  // measure 24
0000
0000
1000
0000
,  // measure 25
0001
0000
0100
0000
,  // measure 26
0001
0000
1000
0000
,  // measure 27
0001
0000
1000
0000
,  // measure 28
0000
0000
0100
0000
,  // measure 29
0000
0000
0000
0000
,  // measure 30
0000
0000
1001
0000
,  // measure 31
0001
0000
0100
0000
,  // measure 32
0001
0000
1000
0000
,  // measure 33
0001
0000
0010
0000
,  // measure 34
0100
0000
1000
0000
,  // measure 35
0001
0000
1000
0000
,  // measure 36
0000
0000
0001
0000
,  // measure 37
1000
0000
0100
0000
,  // measure 38
1000
0000
0001
0000
,  // measure 39
0100
0000
0001
0000
,  // measure 40
1000
0000
0001
0000
,  // measure 41
0010
0000
0100
0000
,  // measure 42
0010
0000
0001
0000
,  // measure 43
1000
0000
0000
0000
,  // measure 44
0000
0000
0001
0000
,  // measure 45
1000
0000
0001
0000
,  // measure 46
0100
0000
0001
0000
,  // measure 47
1000
0000
0100
0000
,  // measure 48
1000
0000
0001
0000
,  // measure 49
0100
0000
0001
0000
,  // measure 50
1000
0000
0100
0000
,  // measure 51
0010
0000
0000
0000
,  // measure 52
0000
0000
1001
0000
,  // measure 53
0100
0000
1000
0000
,  // measure 54
0001
0000
1000
0000
,  // measure 55
0010
0000
1000
0000
,  // measure 56
0001
0000
0010
0000
,  // measure 57
0100
0000
0010
0000
,  // measure 58
0001
0000
1000
0000
,  // measure 59
0100
0000
1000
0000
,  // measure 60
0001
0000
1000
0000
;

//---------------dance-single - ----------------
#NOTEDATA:;
#CHARTNAME:X-Scale 6;
#STEPSTYPE:dance-single;
#DESCRIPTION:;
#CHARTSTYLE:;
#DIFFICULTY:Easy;
#METER:4;
#RADARVALUES:0.296712,0.323581,0.053485,0.124797,0.000000,233.000000,227.000000,6.000000,14.000000,0.000000,0.000000,0.000000,0.000000,0.000000,0.296712,0.323581,0.053485,0.124797,0.000000,233.000000,227.000000,6.000000,14.000000,0.000000,0.000000,0.000000,0.000000,0.000000;
#CREDIT:k3n is brat;
#NOTES:
// measure 0
0000
0000
0000
0000
,  // measure 1
0000
0000
0000
0000
,  // measure 2
0000
0000
0000
0000
,  // measure 3
0000
0000
0000
0000
,  // measure 4
0000
0000
0000
0000
0002
0000
0000
2003
,  // measure 5
0000
0100
0000
0001
,  // measure 6
0000
0000
3010
0000
2000
0000
0000
3200
,  // measure 7
0010
0000
1000
0000
,  // measure 8
0310
0000
0100
0000
2000
0000
0000
3002
,  // measure 9
0000
0100
0000
1000
,  // measure 10
0000
0000
0013
0000
0200
0000
0000
2300
,  // measure 11
0100
0000
3001
1000
,  // measure 12
0100
0010
0001
0000
0011
0000
1000
0000
,  // measure 13
0001
0000
0010
0000
0100
1000
0100
0000
,  // measure 14
0010
0001
0010
0000
0100
0000
1000
0000
,  // measure 15
0001
0000
1000
0000
0001
0100
0001
0000
,  // measure 16
1000
0010
1000
0000
0010
0000
0100
0000
,  // measure 17
0001
0000
1000
0000
0100
0010
0100
0000
,  // measure 18
1000
0100
1000
0000
0001
0000
0100
0000
,  // measure 19
0001
0010
0001
0000
1000
0010
1000
0000
,  // measure 20
0001
0100
0010
0000
,  // measure 21
0000
1000
0000
0000
,  // measure 22
0001
0000
1000
0000
,  // measure 23
0010
0000
1000
0000
,  // measure 24
0001
0000
1000
0100
,  // measure 25
0010
0001
0100
0010
,  // measure 26
1000
0001
0100
0010
,  // measure 27
1000
0100
0010
0000
,  // measure 28
0000
0000
1001
0000
,  // measure 29
0000
0000
0100
0000
,  // measure 30
0000
0000
1100
1000
,  // measure 31
0010
1000
0001
0000
0010
0000
0100
0000
,  // measure 32
0010
0100
1000
0000
0001
0000
0100
0000
,  // measure 33
0001
1000
0100
0000
1000
0000
0001
0000
,  // measure 34
1000
0001
0100
0000
0001
0000
0100
0000
,  // measure 35
0010
0100
0001
0000
1000
0000
0000
0001
,  // measure 36
0000
1000
1001
0100
,  // measure 37
1000
0010
1000
0000
0001
0000
0001
0000
,  // measure 38
0010
0100
0010
0000
0001
0000
1000
0000
,  // measure 39
0010
1000
0010
0000
0100
0000
0001
0000
,  // measure 40
1000
0001
1000
0000
0002
0000
0103
0000
,  // measure 41
0001
0010
0100
0000
2000
0000
3100
0000
,  // measure 42
1000
0001
0020
0000
0230
0000
1300
0000
,  // measure 43
0001
1000
0001
1000
0000
0000
0000
0000
,  // measure 44
0000
0000
0000
0000
1001
0000
1000
0100
,  // measure 45
0010
0000
0001
0000
1000
0000
0001
0100
,  // measure 46
0010
0100
0001
1000
,  // measure 47
0100
0010
0001
0000
0010
0000
0100
0000
,  // measure 48
0010
0000
0001
1000
0001
0000
0100
0000
,  // measure 49
0010
1000
0001
0000
1000
0000
0100
0000
,  // measure 50
0010
0000
0100
0010
0001
0000
1000
0000
,  // measure 51
0001
0100
0001
0100
0000
0000
0000
0000
,  // measure 52
0000
0000
2100
0001
,  // measure 53
3010
1000
0001
0000
0010
0000
0100
0000
,  // measure 54
0010
0100
1000
0000
0001
0000
0100
0000
,  // measure 55
0001
0000
1000
0100
0010
0000
0010
0000
,  // measure 56
0001
0000
0001
0010
0200
0000
1300
0000
,  // measure 57
0100
0000
0010
0100
1000
0000
0001
0000
,  // measure 58
0100
0000
0010
0100
0001
0000
0010
0000
,  // measure 59
0100
0000
1000
0100
0010
0000
0001
0000
,  // measure 60
1000
0000
0010
1000
0010
0000
0000
0000
;

//---------------dance-single - ----------------
#NOTEDATA:;
#CHARTNAME:X-Scale 10;
#STEPSTYPE:dance-single;
#DESCRIPTION:;
#CHARTSTYLE:;
#DIFFICULTY:Medium;
#METER:7;
#RADARVALUES:0.427876,0.539302,0.187196,0.196110,0.164911,336.000000,315.000000,21.000000,22.000000,0.000000,0.000000,0.000000,0.000000,0.000000,0.427876,0.539302,0.187196,0.196110,0.164911,336.000000,315.000000,21.000000,22.000000,0.000000,0.000000,0.000000,0.000000,0.000000;
#CREDIT:k3n is brat;
#NOTES:
// measure 0
0000
0000
0000
0000
,  // measure 1
0000
0000
0000
0000
,  // measure 2
0000
0000
0000
0000
,  // measure 3
0000
0000
0000
0000
,  // measure 4
0000
0000
0000
0000
0001
0000
0010
0001
,  // measure 5
1000
0010
0100
0010
,  // measure 6
1000
0000
0010
0000
0100
0000
0001
0010
,  // measure 7
0100
1000
0001
1000
,  // measure 8
0100
0000
0010
0000
0100
0000
1000
0100
,  // measure 9
0010
0001
0100
1000
,  // measure 10
0100
0000
0001
0000
1000
0000
0010
0100
,  // measure 11
0001
0000
1000
0000
0001
0010
0100
0001
,  // measure 12
0100
0000
1000
0000
0001
0000
0000
0000
0101
0000
0000
0001
2000
0000
0000
0000
,  // measure 13
3100
0010
0001
0000
1000
0100
1000
0000
,  // measure 14
0001
0000
0100
0000
0002
0000
0000
0000
0013
0000
0000
0100
0000
0100
1000
0000
,  // measure 15
0001
0000
1000
0000
0001
0010
1000
0000
,  // measure 16
0001
0100
2000
0000
3001
0020
0100
0000
,  // measure 17
0031
0010
0100
0000
1000
0001
0100
0000
,  // measure 18
0010
0000
0100
0000
0002
0000
0000
0000
1003
0000
0000
0001
0000
0001
0100
0000
,  // measure 19
0020
0000
0000
0130
0002
0000
0000
1003
0200
0000
0000
0000
0310
0000
0000
0000
,  // measure 20
0100
0010
0001
0000
1000
0100
0001
0100
,  // measure 21
2000
0000
3001
0010
1000
0001
0100
0010
,  // measure 22
0000
0001
0000
0000
1000
0000
0001
0000
0100
0000
0000
1000
0000
0000
0001
0000
,  // measure 23
0000
1000
0000
0000
0100
0000
0001
0000
1000
0000
0000
0010
0000
0000
0001
0000
,  // measure 24
0000
0010
0000
0000
1000
0000
0001
0000
0100
0000
0000
0000
0001
0000
0000
0000
,  // measure 25
1000
0001
0100
0010
,  // measure 26
0100
0000
0001
0000
1000
0100
0010
0001
,  // measure 27
0100
0010
1000
0001
0010
0100
0000
0000
,  // measure 28
0000
0000
1001
0000
,  // measure 29
0000
0000
0110
0000
,  // measure 30
0000
0000
0000
0000
1010
0010
1000
0001
,  // measure 31
1000
0000
0010
0000
0100
0000
0001
0000
1001
0000
0000
0100
0000
0000
1100
0000
,  // measure 32
0000
0001
0000
0000
0101
0000
0001
1000
0100
0000
0000
0000
1100
0000
0001
0000
,  // measure 33
1000
0000
0000
0100
0000
0000
0010
0000
0100
0000
1000
0000
0001
0000
0100
0000
,  // measure 34
0010
0000
0000
1000
0000
0000
0001
0000
0010
0000
1000
0000
0010
0000
0100
0000
,  // measure 35
1000
0000
0000
0001
0000
0000
0010
0000
0100
0000
0000
1100
0000
0000
1000
0000
,  // measure 36
0000
1001
0000
0000
0001
0000
0100
0001
0100
0000
0010
0000
1000
0000
0001
0000
,  // measure 37
0020
0030
0020
0030
0200
0300
0200
0300
,  // measure 38
1000
0100
0001
0100
1000
0000
0001
1000
,  // measure 39
0020
0030
0020
0030
0200
0300
0200
0300
,  // measure 40
0001
0100
1000
0100
0002
0000
0103
0001
,  // measure 41
2000
3000
2000
3000
0002
0003
0002
0003
,  // measure 42
1000
0000
0010
0000
0001
0000
0010
0000
1000
0000
0000
0000
0100
0000
0010
0100
,  // measure 43
0000
0100
1000
0001
0000
0000
0000
0000
,  // measure 44
0000
0000
0000
0000
1001
0000
0000
0000
0110
0000
0000
0000
0100
0000
0001
1000
,  // measure 45
0000
0000
0100
0000
0010
0000
0100
0000
1000
0000
0000
0000
1001
0000
0001
1000
,  // measure 46
0000
0000
0010
0000
0100
0000
0010
0000
0100
0000
0000
0000
0101
0000
0001
0100
,  // measure 47
0000
0000
0001
0000
1000
0000
0010
0000
1010
0000
0000
1000
0000
0000
1001
0000
,  // measure 48
0001
0100
0000
0000
0001
0000
0010
0100
0010
0000
0000
0000
0001
0000
1000
0100
,  // measure 49
0000
0000
0100
0000
1000
0000
0100
0000
0010
0000
0000
0000
0101
0000
0001
1000
,  // measure 50
0000
0000
0100
0000
0010
0000
0100
0000
0010
0000
0000
0000
0001
0000
0010
0100
,  // measure 51
0000
0001
0100
1000
0000
0000
0000
0000
,  // measure 52
0000
0000
0000
0000
1001
0000
0001
0010
,  // measure 53
0100
0000
1000
0000
0001
0000
1000
0010
,  // measure 54
0100
0000
0001
0000
1000
0000
0010
1000
,  // measure 55
0001
1000
1100
1001
,  // measure 56
0101
0000
0000
0000
0001
0000
0100
0000
0001
0000
1000
0000
0000
0100
0000
0000
,  // measure 57
0001
0000
0000
0000
0100
0000
0010
0001
0000
0000
1000
0000
0000
0001
0000
0000
,  // measure 58
0100
0000
0000
0000
0001
0000
0010
0100
0000
0000
1000
0000
0000
0010
0000
0000
,  // measure 59
0100
0000
0000
0000
0001
0000
0100
0010
0000
0000
1000
0000
0100
0000
0001
0000
,  // measure 60
1000
0010
0100
1000
0001
0000
0000
0000
;

//---------------dance-single - ----------------
#NOTEDATA:;
#CHARTNAME:X-Scale 12;
#STEPSTYPE:dance-single;
#DESCRIPTION:;
#CHARTSTYLE:;
#DIFFICULTY:Hard;
#METER:8;
#RADARVALUES:0.514470,0.566267,0.222852,0.169368,0.325364,404.000000,379.000000,25.000000,19.000000,0.000000,0.000000,0.000000,0.000000,0.000000,0.514470,0.566267,0.222852,0.169368,0.325364,404.000000,379.000000,25.000000,19.000000,0.000000,0.000000,0.000000,0.000000,0.000000;
#CREDIT:k3n is brat;
#NOTES:
// measure 0
0000
0000
0000
0000
,  // measure 1
0000
0000
0000
0000
,  // measure 2
0000
0000
0000
0000
,  // measure 3
0000
0000
0000
0000
,  // measure 4
0000
0000
0000
0000
1000
0000
0100
0020
,  // measure 5
0001
1000
0001
0100
,  // measure 6
0032
0000
0023
0000
0130
0000
1000
0020
,  // measure 7
0100
1000
0001
1000
,  // measure 8
0230
0000
0302
0000
0013
0000
0100
2000
,  // measure 9
0001
0010
0001
0100
,  // measure 10
3002
0000
0203
0000
0301
0000
1000
0100
,  // measure 11
0010
0000
0000
0000
0100
0000
0000
0000
0100
0000
1000
0000
0001
0100
0001
0000
,  // measure 12
0200
0000
0320
0000
2030
0000
3000
0000
0101
0000
0000
0100
0000
0100
0010
0000
,  // measure 13
1000
0000
0001
0000
0010
0000
0000
0000
0010
0000
0100
1000
0000
0001
0000
0000
,  // measure 14
1000
0000
0100
0000
0001
0000
0100
0000
1000
0000
0000
0001
0000
0001
1000
0000
,  // measure 15
0100
0000
0010
0000
0001
0000
0000
0000
0100
0000
0100
0001
0000
1000
0000
0000
,  // measure 16
0001
0000
0100
0000
1000
0000
0100
0000
0001
0000
0000
0100
0000
0100
0001
0000
,  // measure 17
0010
0000
0100
0000
1000
0000
0000
0000
0001
0000
1000
0100
0000
0010
0000
0000
,  // measure 18
1000
0000
0010
0000
0001
0000
1000
0000
0001
0000
0000
0010
0000
0010
0100
0000
,  // measure 19
1000
0000
0001
0000
0100
0000
0000
0000
0001
0000
1000
0010
0000
0100
0000
0000
,  // measure 20
0001
0000
0100
0000
1000
0000
0100
0000
0001
0000
0000
0001
0000
0000
0001
0000
,  // measure 21
0000
0001
0000
0000
1000
0000
0100
0000
1000
0000
0000
1000
0000
0000
1000
0000
,  // measure 22
0000
1000
0000
0000
0100
0000
0010
0000
0100
0000
0000
0100
0000
0000
0100
0000
,  // measure 23
0000
0100
0000
0000
1000
0000
0001
0000
1000
0000
0000
1000
0000
0000
1000
0000
,  // measure 24
0000
1000
0000
0000
1000
0000
0100
0000
0010
0000
1000
0000
0010
0000
0001
0000
,  // measure 25
0200
0000
0301
0100
0010
0001
0010
1000
,  // measure 26
0002
0000
1003
0100
0010
1000
0001
0100
,  // measure 27
0010
0000
0001
0000
0100
0000
0010
0000
1000
0001
1000
0001
0000
0000
0000
0000
,  // measure 28
0000
0000
2002
3003
,  // measure 29
0000
0000
2200
3300
,  // measure 30
0000
0000
0000
0000
0000
0000
0000
0000
0101
0000
0001
0000
1000
0000
0001
0010
,  // measure 31
0000
0000
0010
0000
0100
0000
1000
0000
1001
0000
0000
0100
0000
0000
0101
0000
,  // measure 32
1000
0001
0000
0000
1000
0000
0001
0010
0200
0000
0000
0000
0301
0000
0100
1000
,  // measure 33
0000
0000
0001
0000
1000
0000
0100
0010
0100
0000
1000
0000
0001
0000
0100
0001
,  // measure 34
0000
0000
1000
0000
0010
0000
0100
0010
0100
0000
0001
0000
0100
0000
0001
1000
,  // measure 35
0000
0000
1000
0000
0100
0000
0010
0000
0011
0000
0000
1000
0000
0000
1010
0000
,  // measure 36
0000
0001
0000
0000
0011
0000
0010
0100
1000
0000
0001
0000
1000
0000
0100
0010
,  // measure 37
0000
0000
0001
0000
0011
0000
0000
0000
0001
0000
0000
0000
1001
0000
0000
0100
,  // measure 38
1000
0000
1000
0000
1000
0000
1000
0000
1000
0000
0100
0000
0001
0000
0100
0010
,  // measure 39
0000
0000
0010
0000
0001
0000
1000
0000
1100
0000
0000
1000
0001
0000
1001
0000
,  // measure 40
0000
0001
0010
0000
0010
0000
0010
0000
0010
0000
0001
0000
1000
0000
0010
0100
,  // measure 41
0000
0000
0010
0000
0110
0000
0000
0000
1000
0000
0000
0000
1001
0000
0000
0100
,  // measure 42
0001
0000
0001
0000
0001
0000
0001
0000
0001
0000
0100
0000
0010
0000
1000
0010
,  // measure 43
0000
0100
0010
1000
0000
0000
0000
0000
,  // measure 44
0000
0000
0000
0000
1100
0000
0000
0000
0011
0000
0010
0000
0001
0000
1000
0001
,  // measure 45
0100
0000
0001
0000
0010
0000
0100
0010
0001
0000
0100
0000
1000
0000
0100
0000
,  // measure 46
0001
0000
0001
0000
0001
0000
0001
0000
1001
0000
1000
0000
0001
0000
1000
0010
,  // measure 47
0100
0000
0010
0000
0001
0000
0010
0100
0010
0000
0000
0110
0000
0000
1000
0000
,  // measure 48
0000
1001
0000
0000
0001
0000
0100
0001
1000
0000
0001
0000
0100
0000
0010
0100
,  // measure 49
0001
0000
1000
0000
0100
0000
0001
0100
1000
0000
0010
0000
0100
0000
0010
0000
,  // measure 50
1000
0000
1000
0000
1000
0000
1000
0000
1100
0000
0100
0000
0001
0000
0100
0010
,  // measure 51
0001
1000
0001
0010
0000
0000
0000
0000
,  // measure 52
0000
0000
0000
0000
0001
1000
0001
1000
0001
0000
0000
0000
0110
0000
0010
0000
,  // measure 53
1000
0000
0000
0000
0100
0000
0000
0010
0100
0000
0010
0000
0001
0000
0000
0000
,  // measure 54
1000
0000
0001
0000
0100
0000
0000
0001
0100
0000
0000
0000
0001
0000
0010
0000
,  // measure 55
0100
0000
1000
0001
1001
0000
0110
0000
,  // measure 56
1001
0000
0000
0000
0001
0000
0001
0000
0001
0000
0100
0000
0000
0100
0000
0100
,  // measure 57
0010
0000
1000
0000
0001
0000
0100
0001
0000
0000
1000
0100
0000
0100
0000
0010
,  // measure 58
0001
0000
1000
0000
0001
0000
0010
0100
0000
1000
0001
0000
0000
0001
0000
0001
,  // measure 59
0010
0000
1000
0000
0010
0000
0100
1000
0000
0001
1000
0000
0001
0000
0100
0000
,  // measure 60
1000
0100
0010
0100
0001
0000
0000
0000
;

//---------------dance-single - Original StepFest ESP Chart----------------
#NOTEDATA:;
#CHARTNAME:X-Scale 12 (OG SF ESP);
#STEPSTYPE:dance-single;
#DESCRIPTION:Original StepFest ESP Chart;
#CHARTSTYLE:;
#DIFFICULTY:Edit;
#METER:8;
#RADARVALUES:0.525931,0.539302,0.205024,0.151539,0.374392,413.000000,390.000000,23.000000,17.000000,0.000000,0.000000,0.000000,0.000000,0.000000,0.525931,0.539302,0.205024,0.151539,0.374392,413.000000,390.000000,23.000000,17.000000,0.000000,0.000000,0.000000,0.000000,0.000000;
#CREDIT:k3n is brat;
#NOTES:
// measure 0
0000
0000
0000
0000
,  // measure 1
0000
0000
0000
0000
,  // measure 2
0000
0000
0000
0000
,  // measure 3
0000
0000
0000
0000
,  // measure 4
0000
0000
1000
0010
,  // measure 5
0100
0000
0000
0000
0001
0000
0000
0000
1000
0000
0000
0000
0001
0000
0000
1000
,  // measure 6
0001
0000
0000
0000
0100
0000
0000
0000
0010
0000
0000
0000
0000
0000
0000
1000
0000
0000
0002
0000
0000
0000
0000
0000
0010
0000
0000
0000
0000
0000
0000
0000
0000
0000
0000
0000
2003
0000
0000
0000
0000
0000
0000
0000
0000
0000
0000
0000
,  // measure 7
3001
0100
1000
0100
,  // measure 8
0001
0000
0010
0000
1000
0000
0001
0000
0000
0200
0000
0000
0300
0000
0000
2000
0000
0000
0010
0000
0000
0000
0000
0000
,  // measure 9
3002
0000
0000
0000
1003
0000
0000
0000
0100
0000
0000
0000
1000
0000
0000
0100
,  // measure 10
0010
0000
1000
0010
0001
0100
0001
0000
2000
0000
0000
0000
,  // measure 11
3002
0000
0000
0000
0013
0000
0000
0000
0100
0000
1000
0000
0001
0100
0001
0000
,  // measure 12
0200
0000
0320
0000
2030
0000
3000
0000
0101
0000
0000
0100
0000
0100
0010
0000
,  // measure 13
1000
0000
0001
0000
0010
0000
0000
0000
0010
0000
0100
1000
0000
0001
0000
0000
,  // measure 14
1000
0000
0100
0000
0001
0000
0100
0000
1000
0000
0000
0001
0000
0001
1000
0000
,  // measure 15
0100
0000
0010
0000
0001
0000
0000
0000
0100
0000
0100
0001
0000
1000
0000
0000
,  // measure 16
0001
0000
0100
0000
1000
0000
0100
0000
0001
0000
0000
0100
0000
0100
0001
0000
,  // measure 17
0010
0000
0100
0000
1000
0000
0000
0000
0001
0000
1000
0100
0000
0010
0000
0000
,  // measure 18
1000
0000
0010
0000
0001
0000
1000
0000
0001
0000
0000
0010
0000
0010
0100
0000
,  // measure 19
1000
0000
0001
0000
0100
0000
0000
0000
0001
0000
1000
0010
0000
0100
0000
0000
,  // measure 20
0001
0000
0100
0000
1000
0000
0100
0000
0001
0000
0000
0001
0000
0000
0001
0000
,  // measure 21
0000
0001
0000
0000
1000
0000
0100
0000
1000
0000
0000
1000
0000
0000
1000
0000
,  // measure 22
0000
1000
0000
0000
0100
0000
0010
0000
0100
0000
0000
0100
0000
0000
0100
0000
,  // measure 23
0000
0100
0000
0000
1000
0000
0001
0000
1000
0000
0000
1000
0000
0000
1000
0000
,  // measure 24
0000
1000
0000
0000
1000
0000
0100
0000
0010
0000
1000
0000
0010
0000
0001
0000
,  // measure 25
0200
0000
0301
0100
0010
0001
0010
1000
,  // measure 26
0002
0000
1003
0100
0010
1000
0001
0100
,  // measure 27
0010
0000
0001
0000
0100
0000
0010
0000
1000
0001
1000
0001
0000
0000
0000
0000
,  // measure 28
0000
0000
2002
3003
,  // measure 29
0000
0000
2200
3300
,  // measure 30
0000
0000
0000
0000
0000
0000
0000
0000
0101
0000
0001
0000
1000
0000
0001
0010
,  // measure 31
0000
0000
0010
0000
0100
0000
1000
0000
1001
0000
0000
0100
0000
0000
0101
0000
,  // measure 32
1000
0001
0000
0000
1000
0000
0001
0010
0200
0000
0000
0000
0301
0000
0100
1000
,  // measure 33
0000
0000
0001
0000
1000
0000
0100
0010
0100
0000
1000
0000
0001
0000
0100
0001
,  // measure 34
0000
0000
1000
0000
0010
0000
0100
0010
0100
0000
0001
0000
0100
0000
0001
1000
,  // measure 35
0000
0000
1000
0000
0100
0000
0010
0000
0011
0000
0000
1000
0000
0000
1010
0000
,  // measure 36
0000
0001
0000
0000
0011
0000
0010
0100
1000
0000
0001
0000
1000
0000
0100
0010
,  // measure 37
0000
0000
0001
0000
0011
0000
0000
0000
0001
0000
0000
0000
1001
0000
0000
0100
,  // measure 38
1000
0000
1000
0000
1000
0000
1000
0000
1000
0000
0100
0000
0001
0000
0100
0010
,  // measure 39
0000
0000
0010
0000
0001
0000
1000
0000
1100
0000
0000
1000
0001
0000
1001
0000
,  // measure 40
0000
0001
0010
0000
0010
0000
0010
0000
0010
0000
0001
0000
1000
0000
0010
0100
,  // measure 41
0000
0000
0010
0000
0110
0000
0000
0000
1000
0000
0000
0000
1001
0000
0000
0100
,  // measure 42
0001
0000
0001
0000
0001
0000
0001
0000
0001
0000
0100
0000
0010
0000
1000
0010
,  // measure 43
0000
0100
0010
1000
0000
0000
0000
0000
,  // measure 44
0000
0000
0000
0000
1100
0000
0000
0000
0011
0000
0010
0000
0001
0000
1000
0001
,  // measure 45
0100
0000
0001
0000
0010
0000
0100
0010
0001
0000
0100
0000
1000
0000
0100
0000
,  // measure 46
0001
0000
0001
0000
1000
0000
1000
0000
0100
0000
1000
0000
0001
0000
1000
0010
,  // measure 47
0100
0000
0010
0000
0001
0000
0010
0100
0010
0000
0000
0110
0000
0000
1000
0000
,  // measure 48
0000
1001
0000
0000
0001
0000
0100
0001
1000
0000
0001
0000
0100
0000
0010
0100
,  // measure 49
0001
0000
1000
0000
0100
0000
0001
0100
1000
0000
0010
0000
0100
0000
0010
0000
,  // measure 50
1000
0000
1000
0000
0001
0000
0001
0000
1000
0000
0100
0000
0001
0000
0100
0010
,  // measure 51
0001
1000
0001
0010
0000
0000
0000
0000
,  // measure 52
0000
0000
0000
0000
0001
1000
0001
1000
0001
0000
0000
0000
0110
0000
0010
0000
,  // measure 53
1000
0000
0001
0000
0100
0000
0000
0010
0100
0000
0001
0000
1000
0000
0100
0000
,  // measure 54
0001
0000
0100
0000
1000
0000
0000
0001
0100
0000
0001
0000
1000
0000
0001
0000
,  // measure 55
0100
0001
1000
0001
1001
0000
0110
0000
,  // measure 56
1001
0000
0000
0000
0001
0000
0001
0000
0001
0000
0100
0000
0000
0100
0000
0100
,  // measure 57
0010
0000
1000
0000
0001
0000
0100
0001
0000
0000
1000
0100
0000
0100
0000
0010
,  // measure 58
0001
0000
1000
0000
0001
0000
0010
0100
0000
1000
0001
0000
0000
0001
0000
0001
,  // measure 59
0010
0000
1000
0000
0010
0000
0100
1000
0000
0001
1000
0000
0100
0000
0010
0000
,  // measure 60
1000
0001
0100
0010
0001
0000
0000
0000
;
