#TITLE:Take Me Away (Into the Night);
#SUBTITLE:;
#ARTIST:Cuebrick & Melody Mane;
#TITLETRANSLIT:;
#SUBTITLETRANSLIT:;
#ARTISTTRANSLIT:;
#GENRE:Commercial House;
#CREDIT:;
#BANNER:Take Me Away (Into the Night)-bn.png;
#BACKGROUND:Take Me Away (Into the Night)-bg.png;
#LYRICSPATH:;
#CDTITLE:cdtitle.png;
#MUSIC:Take Me Away (Into the Night).ogg;
#OFFSET:-0.006000;
#SAMPLESTART:66.468002;
#SAMPLELENGTH:14.769000;
#SELECTABLE:YES;
#BPMS:0.000000=130.000000
;
#STOPS:
;
#BGCHANGES:;
#KEYSOUNDS:;
#ATTACKS:;

//---------------dance-single - ----------------
#NOTES:
     dance-single:
     X-Scale 12:
     Hard:
     8:
     0.493929,0.584268,0.040087,0.340739,0.265576,345.000000,341.000000,4.000000,34.000000,0.000000,0.000000,0.493929,0.584268,0.040087,0.340739,0.265576,345.000000,341.000000,4.000000,34.000000,0.000000,0.000000:
// measure 0
0000
0000
0000
0000
,  // measure 1
0000
0000
0000
0000
,  // measure 2
0000
0000
0000
0000
,  // measure 3
0000
0000
0000
0000
,  // measure 4
1100
1000
0001
0100
0000
0100
0002
0000
,  // measure 5
1003
0100
0010
0001
0000
0001
0200
0000
,  // measure 6
0310
0100
0001
0010
0000
0010
0200
0000
,  // measure 7
1300
0000
0001
0000
1000
0000
0010
0000
0000
0000
0010
0100
0000
0000
0100
0001
,  // measure 8
0100
0000
0010
0000
1000
0000
0100
0010
0100
0000
1000
0000
0001
0000
0100
0001
,  // measure 9
0100
0000
0010
0000
1000
0000
0100
1000
0100
0000
0010
0000
0001
0000
0100
0001
,  // measure 10
0100
0000
0010
0000
1000
0000
0100
1000
0100
0000
0010
0000
0001
0000
0100
0001
,  // measure 11
0100
0000
0000
0000
0001
0100
0001
0000
1000
0100
0010
0100
2000
0000
0000
0000
,  // measure 12
3100
0000
0000
0000
1000
0002
0000
0023
,  // measure 13
0100
0000
0000
0230
0000
0000
0000
0300
,  // measure 14
1000
0000
0001
0100
0010
2000
0000
3200
,  // measure 15
0000
0302
0000
0023
0000
2030
0000
3002
,  // measure 16
0100
0000
1003
0001
0100
0010
0000
2000
,  // measure 17
0100
0000
3001
0001
0000
0100
0000
0010
,  // measure 18
0100
0000
0001
0010
0100
2000
0000
3020
,  // measure 19
0000
0032
0000
0203
0000
0000
1300
0100
,  // measure 20
1000
0001
0100
0002
0000
1000
0000
1000
,  // measure 21
0003
0001
0000
0001
0000
0010
0000
0010
,  // measure 22
0100
1000
0001
0200
0000
2300
0000
3020
,  // measure 23
0000
0032
0000
0203
0000
0001
0000
0301
,  // measure 24
0010
1000
0010
0200
0000
1000
0000
1300
,  // measure 25
0000
0001
0000
0001
0000
0100
0000
0100
,  // measure 26
0020
0000
1030
0200
0000
2300
0000
3001
,  // measure 27
1001
0000
0000
0000
1000
0100
1000
0000
0001
0100
0010
0100
0002
0000
0000
0000
,  // measure 28
1003
0000
0010
0000
1000
0000
0100
0000
0000
1000
0000
0000
0100
0000
0100
0000
,  // measure 29
0010
0000
0000
0001
0000
0000
0100
0000
0000
0010
0000
0000
0100
0000
0010
0000
,  // measure 30
0001
0000
1000
0000
0100
0000
0010
0000
0000
1000
0000
0000
0001
0000
0001
0000
,  // measure 31
0010
0000
0000
1000
0000
0000
0001
0000
0000
0010
0000
0000
1000
0000
1000
0000
,  // measure 32
0001
0000
0100
0000
0010
0000
0001
0000
0000
0010
0000
0000
1000
0000
1000
0000
,  // measure 33
0100
0000
0000
0001
0000
0000
0100
0000
0000
1000
0000
0000
0001
0000
0010
0000
,  // measure 34
0100
1000
0010
0100
0001
1000
0100
0010
,  // measure 35
1001
0000
0000
0000
0001
1000
0000
0000
0100
0000
0100
0010
0002
0000
0000
0000
,  // measure 36
1003
0000
0001
0000
0100
0000
0001
0000
1000
0000
0010
0000
0100
0000
0000
0100
,  // measure 37
0001
0000
1000
0000
0100
0000
0001
0000
0100
0000
0010
0000
0001
0000
0000
0001
,  // measure 38
1000
0000
0100
0000
0001
0000
1000
0000
0010
0000
0100
0000
1000
0000
0000
1000
,  // measure 39
0001
0000
0100
0000
1000
0000
0100
0000
0001
0000
1000
0000
0100
0000
0000
1000
,  // measure 40
0001
0000
0100
0000
0001
0000
0010
0000
0100
0000
1000
0000
0001
0000
0000
0100
,  // measure 41
0001
0000
1000
0000
0010
0000
0001
0000
0010
0000
1000
0000
0100
0000
0000
0010
,  // measure 42
0100
0000
1000
0000
0001
0000
0100
0000
1000
0000
0100
0000
0010
0000
0000
0100
,  // measure 43
0002
0000
1000
0000
0000
0000
1003
0000
0001
0010
0001
0000
2001
0000
0000
0000
,  // measure 44
3100
1000
0001
0100
0001
0000
0100
0000
1000
0000
0100
0000
0010
0100
0000
0001
,  // measure 45
0010
0000
1000
0000
0010
0000
0100
0000
0010
0000
0001
0000
1000
0100
0000
1000
,  // measure 46
0001
0000
0100
0000
1000
0000
0100
0000
0010
0000
0100
0000
0001
1000
0000
0010
,  // measure 47
1000
0000
0010
0000
0100
0000
1000
0000
0100
0000
0001
0000
0100
0010
0000
1000
,  // measure 48
0001
0000
1000
0010
1000
0000
0100
0000
0001
0000
0100
0000
1000
0001
0000
0010
,  // measure 49
0100
0000
1000
0100
1000
0000
0001
0000
0100
0000
0010
0000
0100
0001
0000
1000
,  // measure 50
0010
0000
0100
0010
0100
0000
0001
0000
0010
0000
0001
0000
1000
0010
0000
0100
,  // measure 51
0001
0000
1000
0000
0001
0010
0100
0000
0001
0000
0100
0000
1000
0000
0020
0000
,  // measure 52
0200
0000
0000
0000
,  // measure 53
0330
0000
0000
0000
;

//---------------dance-single - ----------------
#NOTES:
     dance-single:
     X-Scale 10:
     Medium:
     7:
     0.410892,0.504595,0.040087,0.290631,0.105228,287.000000,283.000000,4.000000,29.000000,0.000000,0.000000,0.410892,0.504595,0.040087,0.290631,0.105228,287.000000,283.000000,4.000000,29.000000,0.000000,0.000000:
0000
0000
0000
0000
,
0000
0000
0000
0000
,
0000
0000
0000
0000
,
0000
0000
0000
0000
,
0001
0100
0000
0010
0000
0100
0000
0010
,
1000
0100
0000
0010
0000
0100
0000
0010
,
0001
1000
0000
0010
0000
1000
0000
0010
,
0100
0001
0000
0010
0000
0001
0000
0010
,
0100
1000
0001
0100
0010
0100
0001
1000
,
0100
0001
0100
0010
0001
1000
0010
0100
,
0001
0010
0100
0010
0001
0010
0100
0010
,
0001
0000
1001
0000
1000
0010
0100
0010
,
0002
0000
0000
0000
0013
2000
0000
3002
,
0000
0000
0000
2003
0000
0000
0000
3000
,
0000
0000
0000
0001
1000
0020
0000
0230
,
0000
2300
0000
3002
0000
0023
0000
0230
,
0000
0000
0300
0001
1000
0002
0000
0203
,
0000
0020
0330
0002
0000
2000
3003
0000
,
1000
0000
0001
0000
0100
0002
0000
2003
,
0000
3020
0000
0230
0000
0000
0000
0300
,
0101
0000
0001
1000
0000
0010
0000
1000
,
0100
0010
0000
0001
0000
0100
0000
0001
,
0010
1000
0010
0001
0000
1000
0000
0010
,
1000
0001
0000
0100
0000
1000
0000
0100
,
0001
0010
0100
1000
0000
0010
0000
1000
,
0100
0010
0000
0001
0000
1000
0000
0001
,
0100
0010
0100
0001
0000
1000
0000
0010
,
1000
0000
1001
0000
0001
0100
0010
1000
,
0100
0000
0010
0000
0100
0000
0010
0000
0000
0001
0000
0000
0001
0000
1000
0000
,
0001
0000
0000
0010
0000
0000
1000
0000
0000
0010
0000
0000
0001
0000
1000
0000
,
0010
0000
1000
0000
0100
0000
0010
0000
0000
0010
0000
0000
0010
0000
0001
0000
,
1000
0000
0000
0010
0000
0000
0001
0000
0000
0010
0000
0000
1000
0000
0001
0000
,
1000
0000
0010
0000
0100
0000
0001
0000
0000
0001
0000
0000
0001
0000
0010
0000
,
0100
0000
0000
1000
0000
0000
0010
0000
0000
0001
0000
0000
0010
0000
1000
0000
,
0010
0200
0000
0302
0000
2003
0000
3200
,
0010
0000
1300
0000
0001
0010
0100
2000
,
0010
0001
0010
0001
,
3010
0000
1000
0000
0001
0000
0100
0000
0001
0000
0010
0000
0100
0000
0000
0100
,
1000
0000
0001
0000
0100
0000
0001
0000
1000
0000
0100
0000
0010
0000
0000
0010
,
0001
0100
1000
0100
0001
1000
0010
0200
,
1000
0010
1000
0010
,
0301
0000
0100
0000
0010
0000
0100
0000
1000
0000
0100
0000
0001
0000
0000
0001
,
0010
0000
0001
0000
1000
0000
0100
0000
1000
0000
0001
0000
0100
0000
0000
0100
,
0002
0000
0000
0000
1003
0001
0100
0020
,
0000
0000
0001
0100
1000
0000
0100
0000
,
1030
0000
0010
0000
0100
0000
0001
0000
0010
0000
0100
0000
1000
0100
0000
0100
,
0010
0000
0001
0000
1000
0000
0001
0000
0100
0000
0010
0000
1000
0100
0000
0100
,
0010
0001
1000
0001
0100
0010
1000
0020
,
0001
0000
0001
0100
1000
0000
0100
0000
,
1030
0000
0001
0000
0100
0000
1000
0000
0100
0000
0001
0000
0010
0100
0000
0100
,
1000
0000
0001
0000
0100
0000
1000
0000
0100
0000
0001
0000
1000
0010
0000
0010
,
0100
0000
1001
0000
0001
0100
0010
2000
,
0000
0000
0000
0000
,
3000
0000
0000
0000
;

//---------------dance-single - ----------------
#NOTES:
     dance-single:
     X-Scale 6:
     Easy:
     4:
     0.296357,0.312679,0.040087,0.270587,0.000000,207.000000,203.000000,4.000000,27.000000,0.000000,0.000000,0.296357,0.312679,0.040087,0.270587,0.000000,207.000000,203.000000,4.000000,27.000000,0.000000,0.000000:
0000
0000
0000
0000
,
0000
0000
0000
0000
,
0000
0000
0000
0000
,
0000
0000
0000
0000
,
1000
0100
0010
0001
,
0100
0010
1000
0001
,
0010
0100
1000
0010
,
0100
0001
1000
0100
,
0010
0000
0001
0010
0001
0000
1000
0000
,
0010
0000
0100
0010
0100
0000
0001
0000
,
1000
0000
0100
0010
0001
0000
1000
0000
,
0001
0000
0010
0100
1000
0000
1001
0000
,
0001
0000
0000
0000
,
1000
0000
0000
0000
,
0010
1000
0000
0000
,
0100
0000
0000
0000
,
0010
0001
0000
0000
,
1000
0001
0000
1000
0000
0001
0000
1000
,
0010
0000
0100
0001
0000
0100
0000
0001
,
0010
0100
0000
1000
0000
0100
0000
1000
,
0002
0000
0203
0001
0000
0001
0000
0001
,
0302
0100
0000
1000
0000
0010
0000
1000
,
2003
0000
3200
0010
0000
0010
0000
0010
,
0320
0001
0000
0100
0000
0001
0000
0100
,
0230
0000
2300
0001
0000
0001
0000
0001
,
3002
1000
0000
0010
0000
1000
0000
0100
,
0203
0000
0320
1000
0000
1000
0000
1000
,
2030
0010
0001
0010
,
3001
1000
0001
0200
0000
0320
0000
0000
,
1030
0000
0000
0001
0000
0000
1000
0010
,
1000
0002
0000
0023
0000
0230
0000
2300
,
0100
0000
3000
1000
0000
0000
0001
0010
,
0001
1000
0100
0020
0000
0000
0031
0010
,
0001
0000
0000
1000
0000
0000
0001
0100
,
0001
0020
0000
0230
0000
2300
0000
3002
,
0000
0003
0100
0000
0001
0000
1001
0000
,
1000
0001
0100
0001
,
1000
0100
0010
0100
,
1000
0001
0100
0010
,
0100
0001
0010
0100
,
1000
0010
0100
0001
,
1000
0001
0010
0100
,
0010
0001
1000
0010
,
2000
0001
0000
0001
3000
0000
0000
0000
,
0000
0000
1001
0000
1000
0010
1000
0000
,
0001
0000
0010
0000
0100
0010
0100
0000
,
1000
0000
0001
0000
0100
0010
0100
0000
,
0001
0000
0010
0000
0100
1000
0001
0100
,
0001
0000
1000
0000
0010
1000
0010
0000
,
0100
0000
0001
0000
0010
0100
0010
0000
,
0001
0000
1000
0000
0100
0010
0100
0000
,
2000
0001
0000
0001
3000
0000
2002
0000
,
3003
0000
0000
0000
;

//---------------dance-single - ----------------
#NOTES:
     dance-single:
     X-Scale 2:
     Beginner:
     1:
     0.103081,0.130283,0.000000,0.000000,0.000000,72.000000,72.000000,0.000000,0.000000,0.000000,0.000000,0.103081,0.130283,0.000000,0.000000,0.000000,72.000000,72.000000,0.000000,0.000000,0.000000,0.000000:
0000
0000
0000
0000
,
0000
0000
0000
0000
,
0000
0000
0000
0000
,
0000
0000
0000
0000
,
0001
0000
0100
0000
,
0001
0000
1000
0000
,
0001
0000
0100
0000
,
0001
0000
1000
0000
,
0100
0000
1000
0000
,
0001
0000
1000
0000
,
0010
0000
1000
0000
,
0001
0000
1000
0000
,
0010
0000
0000
0000
,
1000
0000
0000
0000
,
0001
0000
0000
0000
,
0100
0000
0000
0000
,
0001
0000
0000
0000
,
0010
0000
0000
0000
,
0100
0000
0000
0000
,
0010
0000
0000
0000
,
0001
0000
0000
0000
,
1000
0000
0000
0000
,
0100
0000
0000
0000
,
0010
0000
0000
0000
,
0001
0000
0000
0000
,
1000
0000
0000
0000
,
0010
0000
0000
0000
,
0100
0000
0000
0000
,
0001
0000
0000
0000
,
1000
0000
0000
0000
,
0010
0000
0000
0000
,
1000
0000
0000
0000
,
0001
0000
0000
0000
,
0010
0000
0000
0000
,
0100
0000
0000
0000
,
0010
0000
0000
0000
,
0001
0000
1000
0000
,
0001
0000
0100
0000
,
0001
0000
1000
0000
,
0001
0000
0010
0000
,
0100
0000
0010
0000
,
0001
0000
0010
0000
,
0100
0000
1000
0000
,
0001
0000
0000
0000
,
1000
0000
0001
0000
,
0100
0000
0001
0000
,
1000
0000
0010
0000
,
0100
0000
0001
0000
,
0010
0000
0100
0000
,
1000
0000
0001
0000
,
1000
0000
0001
0000
,
0010
0000
0100
0000
,
1000
0000
0000
0000
;
