#VERSION:0.83;
#TITLE:Take It Off;
#SUBTITLE:;
#ARTIST:Sergey Lazarev;
#TITLETRANSLIT:;
#SUBTITLETRANSLIT:;
#ARTISTTRANSLIT:;
#GENRE:Electropop;
#ORIGIN:;
#CREDIT:;
#BANNER:tio-bn.png;
#BACKGROUND:tio-bg.png;
#PREVIEWVID:;
#JACKET:tio-jacket.png;
#CDIMAGE:;
#DISCIMAGE:;
#LYRICSPATH:;
#CDTITLE:cdtitle.png;
#MUSIC:take it off.ogg;
#OFFSET:0.000000;
#SAMPLESTART:45.020000;
#SAMPLELENGTH:30.000000;
#SELECTABLE:YES;
#BPMS:0.000=64.000,
16.000=128.000,
48.000=64.000,
64.000=128.000,
128.000=64.000,
162.000=128.000;
#STOPS:;
#DELAYS:;
#WARPS:;
#TIMESIGNATURES:0.000=4=4;
#TICKCOUNTS:0.000=4;
#COMBOS:0.000=1;
#SPEEDS:0.000=1.000=0.000=0;
#SCROLLS:0.000=1.000;
#FAKES:;
#LABELS:0.000=Song Start;
#BGCHANGES:0.000=take it off.mp4=1.000=1=0=1===CrossFade==,
99999=-nosongbg-=1.000=0=0=0 // don't automatically add -songbackground-
;
#KEYSOUNDS:;
#ATTACKS:
;

//---------------dance-single - ----------------
#NOTEDATA:;
#CHARTNAME:;
#STEPSTYPE:dance-single;
#DESCRIPTION:;
#CHARTSTYLE:;
#DIFFICULTY:Hard;
#METER:8;
#RADARVALUES:0.466730,0.604558,0.057067,0.156935,0.399472,458.000000,450.000000,8.000000,22.000000,0.000000,0.000000,2.000000,0.000000,0.000000,0.466730,0.604558,0.057067,0.156935,0.399472,458.000000,450.000000,8.000000,22.000000,0.000000,0.000000,2.000000,0.000000,0.000000;
#CREDIT:;
#NOTES:
// measure 0
0000
0000
0000
0000
,  // measure 1
0000
0000
0000
0000
,  // measure 2
2000
0000
0000
0000
3200
0000
0000
0000
0320
0000
0000
0000
0032
0000
0000
0000
0013
0000
0000
0001
0010
0000
0001
0000
0010
0000
0000
0000
0100
0000
0000
0000
,  // measure 3
1000
0000
0000
0100
1000
0000
0100
0000
1000
0000
0000
0000
0001
0000
0000
0000
1000
0000
0000
0010
1000
0000
0001
0000
0002
0000
0000
0000
1003
0000
0000
0000
,  // measure 4
1001
0000
0000
1000
0001
0000
0100
0000
0010
0000
0100
0000
0010
0000
1000
0001
,  // measure 5
2000
0000
0010
0000
3020
0000
0100
0000
0230
0000
0001
0000
0301
0000
0001
0100
,  // measure 6
0010
0000
0000
0010
1000
0000
0001
0000
1000
0000
0001
0000
1000
0000
0001
0000
,  // measure 7
0100
0000
0000
0000
0100
0010
0100
0000
0001
0000
1000
0000
0001
0000
0000
0010
,  // measure 8
0001
0000
0000
0001
0100
0010
0100
0000
0001
0000
0010
0000
0100
0000
1000
0000
,  // measure 9
0002
0000
0100
0000
0203
0000
0010
0000
0320
0000
1000
0000
1030
0000
1000
0010
,  // measure 10
0100
0000
0000
0100
0001
0000
0100
0000
0001
0000
0100
0000
0001
0000
0100
0000
,  // measure 11
0010
0000
0000
1000
0001
0100
0001
0000
0100
0000
0000
0100
0010
0000
1000
0000
,  // measure 12
2010
0000
0010
0000
0010
0000
3001
0100
0000
0010
0000
0100
0001
0000
1000
0100
,  // measure 13
1000
0000
0001
0000
0010
0000
0100
0010
0000
0100
0000
1000
0100
0000
1000
0010
,  // measure 14
1000
0001
1000
0001
1000
0010
1000
0010
1000
0100
1000
0100
1000
0100
0010
0001
,  // measure 15
0400
0000
0001
0001
0000
0000
0001
0001
0302
0000
0100
0100
0000
0000
0100
0003
,  // measure 16
0101
0000
0000
0001
1000
0000
0010
0000
1000
0000
0000
1000
0001
0000
0100
0000
,  // measure 17
0001
0000
0000
0001
0010
0000
0001
0000
1000
0000
0000
0010
0000
0000
0100
0000
,  // measure 18
0001
0000
0000
0100
0000
0000
0010
0000
1000
0000
0000
0100
0000
0000
0010
0000
,  // measure 19
0001
0000
0000
0001
1000
0000
0010
0000
1000
0000
0100
0000
1000
0000
0100
0000
,  // measure 20
1100
0000
0000
1000
0010
0000
1000
0000
0001
0000
0000
0100
0001
0000
0010
0000
,  // measure 21
0100
0000
0000
1000
0010
0000
0100
0000
0001
0000
0000
1000
0000
0000
0010
0000
,  // measure 22
0100
0000
0000
0010
0000
0000
1000
0000
0001
0000
0000
0010
0000
0000
0100
0000
,  // measure 23
1000
0000
0000
1000
0001
0000
0200
0000
0001
0000
0000
0000
0301
0000
0100
0000
,  // measure 24
0001
0000
1000
0010
1000
0000
0001
0010
,  // measure 25
1000
0000
1000
0010
0001
0000
0001
0010
,  // measure 26
0100
0000
0010
0100
1000
0000
1000
0010
,  // measure 27
0001
0000
0001
0010
1000
0000
1000
0100
,  // measure 28
1000
0000
0001
0010
0001
0000
0010
0100
,  // measure 29
0001
0000
0001
0100
0010
0000
0010
0100
,  // measure 30
1000
0000
0100
0010
0100
0000
0100
0010
,  // measure 31
1000
0000
1000
0010
0100
0000
1000
0000
,  // measure 32
1001
0000
0001
0010
0001
0000
0001
0000
1000
0010
1000
0100
0010
0001
0100
0001
,  // measure 33
1000
0000
0001
1000
0001
0010
0100
1000
2000
0000
0000
3020
0000
0000
0130
0100
,  // measure 34
0010
0000
1000
0000
0001
0100
0001
1000
0001
0000
1000
0100
1000
0010
1000
0002
,  // measure 35
0000
0000
0100
0000
0000
0000
1000
2003
0000
0000
0000
3010
0000
1000
0100
0020
,  // measure 36
0000
0000
0001
0000
0031
0010
0001
0010
0011
0000
0001
0000
1000
0000
0001
0000
,  // measure 37
1000
0000
0000
0100
1000
0000
0010
0000
1000
0000
0000
0000
0001
0000
0000
0000
0100
0000
0000
0010
0100
0000
0010
0000
1000
0000
0000
0000
0001
0000
0000
0000
,  // measure 38
1000
0000
0000
0001
0100
0000
0001
0000
0010
0000
0000
0000
0100
0000
0000
0000
0110
0000
0100
0000
0010
0000
0100
0000
1000
0000
0100
0000
0010
0000
0100
0000
,  // measure 39
1000
0001
0010
0001
1000
0001
0010
0001
0400
0000
0001
0000
0000
0000
0001
0000
,  // measure 40
0302
0000
0100
0000
1000
0000
1000
0003
1001
0000
0000
0001
0100
0000
0010
0000
,  // measure 41
0100
0000
0001
0000
1000
0000
0010
0000
1000
0000
0000
1000
0001
0000
0100
0000
,  // measure 42
0001
0000
0000
1000
0000
0000
0100
0000
1000
0000
0000
0001
0000
0000
0010
0000
,  // measure 43
0001
0000
0000
0100
0000
0000
0100
0000
0010
0000
0000
1000
0000
0000
0001
0000
,  // measure 44
1000
0000
0000
0000
1000
0000
0010
0100
0010
0000
0000
0010
1000
0000
0001
0000
,  // measure 45
0100
0000
0000
0100
0001
0000
1000
0000
0010
0000
0000
1000
0001
0000
0100
0000
,  // measure 46
0001
0000
0000
1000
0000
0000
0100
0000
0010
0000
0000
0010
0000
0000
0001
0000
,  // measure 47
0100
0000
0000
0010
0000
0000
1000
0000
0010
0000
0000
1000
0100
0000
2000
0000
,  // measure 48
0001
0000
0000
0000
3001
0000
1000
0000
0001
0000
0000
0001
0100
0000
0010
0000
,  // measure 49
0100
0000
0000
0100
0010
0000
1000
0000
0010
0000
0000
0100
0001
0000
1000
0000
,  // measure 50
0001
0000
0000
0000
0010
0000
0100
0000
1000
0000
0000
1000
0010
0000
0100
0000
,  // measure 51
0001
0000
0000
0001
1000
0000
0010
0000
1000
0000
0000
0010
0100
0000
0001
0000
,  // measure 52
0100
0000
0000
0000
0001
0000
0010
0000
0100
0000
0000
0100
1000
0000
0100
0000
,  // measure 53
0010
0000
0000
0010
0001
0000
0010
0000
0001
0000
0000
1000
0001
0000
0010
0000
,  // measure 54
0100
0000
0000
0000
1000
0000
0001
0000
0100
0000
0000
0100
0001
0000
1000
0000
,  // measure 55
0010
0000
0000
0010
0100
0000
0010
0000
1000
0000
1000
0000
0001
0000
0200
0000
,  // measure 56
0000
0000
0310
0100
0010
0000
0000
0000
;

//---------------dance-single - ----------------
#NOTEDATA:;
#CHARTNAME:;
#STEPSTYPE:dance-single;
#DESCRIPTION:;
#CHARTSTYLE:;
#DIFFICULTY:Medium;
#METER:7;
#RADARVALUES:0.345462,0.443343,0.057067,0.171202,0.181902,339.000000,331.000000,8.000000,24.000000,0.000000,0.000000,0.000000,0.000000,0.000000,0.345462,0.443343,0.057067,0.171202,0.181902,339.000000,331.000000,8.000000,24.000000,0.000000,0.000000,0.000000,0.000000,0.000000;
#CREDIT:;
#NOTES:
0000
0000
0000
0000
,
0000
0000
0000
0000
,
0002
0000
2003
0000
3200
0000
0320
0000
0031
0000
0010
0001
0010
0000
0100
0000
,
1000
0000
1000
0100
1000
0000
0010
0000
0100
0000
0001
0010
0002
0000
0003
0000
,
0101
0000
0001
0010
0100
0010
0100
0000
,
1000
0000
0100
0000
0010
0000
0001
0100
,
0001
0000
0001
1000
0010
0100
0010
0100
,
0001
0000
0200
0000
0301
0000
0001
0010
,
1000
0000
1000
0010
0001
0010
0001
0000
,
0001
0000
0010
0000
0100
0000
1000
0010
,
1000
0000
1000
0100
0010
0100
0010
0200
,
0000
0000
0320
0000
0130
0000
1000
0001
,
2001
0000
0010
0000
0010
0000
3001
1000
0000
0010
0000
0100
0001
0000
0001
0000
,
0000
0000
0001
0000
0010
0000
0100
0010
0000
0100
0000
1000
0100
0000
0000
0000
,
1100
0000
1000
0000
0100
0000
1000
0000
0001
0000
0010
0000
0001
1000
0001
1000
,
0000
0000
1000
0001
0000
0000
0100
0001
0000
0000
0001
0100
0000
0000
0100
0000
,
0110
0000
0000
0010
0000
0000
0010
0000
1000
0000
0000
0001
0000
0000
0100
0000
,
0001
0000
0000
0000
0010
0000
0001
0000
1000
0000
0000
1000
0000
0000
0001
0000
,
1000
0000
0000
1000
0000
0000
0010
0000
1000
0000
0000
0100
0000
0000
0010
0000
,
0001
0000
1000
0010
0200
0000
0302
0000
,
1003
0000
0000
1000
0000
0000
1000
0000
0001
0000
0000
0100
0000
0000
0010
0000
,
0100
0000
0000
0000
0010
0000
0100
0000
0001
0000
0000
1000
0000
0000
0010
0000
,
0100
0000
0000
0010
0000
0000
1000
0000
0001
0000
0000
0010
0000
0000
0100
0000
,
1000
0000
0001
0200
0000
0000
0301
0100
,
0001
0000
0000
0010
0000
0010
0000
0000
,
0001
0000
0000
0000
1000
0000
0000
0000
0001
0000
0000
0100
0000
0000
0010
0000
,
0100
0000
0010
0100
0001
0000
0001
1000
,
0001
0000
0001
0010
0100
0000
1000
0100
,
1000
0000
0000
0001
0000
0001
0000
0000
,
0001
0000
0000
0000
0010
0000
0000
0000
0100
0000
0000
0010
0000
0000
0100
0000
,
1000
0000
0100
0010
0100
0000
0100
0010
,
0001
0000
0001
1000
0010
0000
0010
0000
,
1010
0000
2000
0000
0000
0000
3001
0000
1000
0010
1000
0000
0001
0000
0001
1000
,
0001
0000
0010
0000
0100
0000
1000
0002
0000
0000
0000
2003
0000
0000
3000
0000
,
1000
0000
0002
0000
0000
0000
0103
0000
0001
0000
1000
0000
0010
0000
1000
0002
,
0000
0000
0100
0000
0000
0000
1000
2003
0000
0000
0000
3001
0000
0001
0100
0002
,
0000
0000
1003
0100
1100
0001
1000
0001
,
1000
0000
1000
0010
1000
0000
0001
0000
0100
0000
0100
0010
0100
0000
0001
0000
,
1000
0000
0001
0010
0100
0000
0010
0000
0110
0000
1000
0000
0001
0000
1000
0000
,
0001
0000
0010
0000
0100
0000
0010
0000
0002
0000
0000
0000
0100
0003
0001
0000
,
2000
0000
0000
0000
0000
0000
3010
0000
1010
0000
0000
1000
0000
0000
0010
0000
,
0100
0000
0000
0001
0000
0000
1000
0000
0001
0000
0000
0000
0100
0000
0010
0000
,
1000
0000
0000
0001
0000
0000
0100
0000
0001
0000
0000
0001
0000
0000
1000
0000
,
0001
0000
0000
0010
0000
0000
0100
0000
1000
0000
0000
0100
0000
0000
0010
0000
,
0001
0000
0000
0000
0002
0000
0000
0000
0010
0000
0003
1000
0000
0000
0001
0000
,
1000
0000
0000
0010
0000
0000
1000
0000
0100
0000
0000
0000
1000
0000
0010
0000
,
1000
0000
0000
1000
0000
0000
0100
0000
0010
0000
0000
0010
0000
0000
0001
0000
,
0100
0000
0000
0010
0000
0000
1000
0000
0010
0000
0000
0000
0100
0000
0002
0000
,
0000
0000
1003
0001
1000
0000
0000
0100
,
0000
0100
0000
0000
0001
0000
1000
0000
,
0010
0000
0000
0100
0000
0000
0001
0000
1000
0000
0000
0000
0010
0000
0100
0000
,
0001
0000
0001
0010
0001
0000
0100
0001
,
0100
0000
0001
0010
0100
0000
0000
1000
,
0000
1000
0000
0000
1000
0000
0100
0000
,
0010
0000
0000
0100
0000
0000
1000
0000
0001
0000
0000
0000
0001
0000
1000
0000
,
0001
0000
0100
0010
0100
0001
1000
0020
,
0000
0000
0030
0100
0100
0000
0000
0000
;

//---------------dance-single - ----------------
#NOTEDATA:;
#CHARTNAME:;
#STEPSTYPE:dance-single;
#DESCRIPTION:;
#CHARTSTYLE:;
#DIFFICULTY:Easy;
#METER:4;
#RADARVALUES:0.219098,0.321004,0.064201,0.085601,0.010700,215.000000,206.000000,9.000000,12.000000,0.000000,0.000000,0.000000,0.000000,0.000000,0.219098,0.321004,0.064201,0.085601,0.010700,215.000000,206.000000,9.000000,12.000000,0.000000,0.000000,0.000000,0.000000,0.000000;
#CREDIT:;
#NOTES:
0000
0000
0000
0000
,
0000
0000
0000
0000
,
0100
0000
0010
0000
0100
0010
1000
1000
,
1000
0100
0010
0010
0010
0001
0002
0003
,
0011
0001
0100
0010
,
1000
0000
0001
0000
1000
0000
0001
0100
,
0001
0000
0000
0000
0010
0100
0010
0100
,
0010
0100
0001
0000
,
0101
1000
0001
0010
,
0100
0000
0010
0000
0100
0000
0010
1000
,
0010
0000
0100
0010
0100
0010
0100
0000
,
0001
0000
0100
0000
,
0102
0000
0100
0000
0100
0000
0003
1000
0000
0010
0000
0010
1000
0000
0001
0000
,
0000
0010
0010
0010
0001
0000
1000
0000
,
1001
0000
0001
0000
0100
0000
0001
0010
,
0100
0010
0000
0010
0000
0010
0000
0000
,
0110
0000
1000
0000
,
0001
0000
1000
0000
,
0001
0000
0000
0000
0010
0000
0000
0100
,
0010
0100
2000
3200
,
1300
0000
0001
0000
,
0100
0000
0001
0000
,
1000
0000
0000
0000
0001
0000
0000
0100
,
0010
0000
0000
0200
0000
0000
0301
0100
,
0001
0000
0000
0010
0000
0010
0000
0000
,
0001
1000
0001
1000
,
0010
0000
0000
0100
0000
0100
0000
0000
,
1000
0001
1000
0001
,
0100
0000
0000
0010
0000
0010
0000
0000
,
0001
1000
0001
1000
,
0010
0000
0000
0100
0000
0100
0000
0000
,
0001
1000
0001
1000
,
1001
0002
0000
0003
0001
0000
0010
0000
,
0100
0010
0001
1000
,
1000
2000
0000
3000
1000
0000
0001
0000
,
0100
0010
0100
0001
,
0010
0100
0110
0010
,
0100
0000
0001
1000
0001
0000
0100
0001
,
0100
0000
0010
1000
1010
0000
1000
0000
,
0001
0000
0100
0001
0100
0000
0010
0100
,
0002
0000
0000
0013
0011
0000
0000
0000
,
0100
0000
0001
0000
,
1000
0000
0001
0000
,
0100
0000
0000
0001
1000
0000
0000
0000
,
2000
3020
1030
0000
,
0100
0000
1000
0000
,
0001
0000
0010
0000
,
0100
0000
0000
0010
0001
0000
0000
0200
,
0000
0000
0301
1000
0001
0000
0000
0100
,
0000
0100
0000
0000
0001
0000
1000
0000
,
0001
0000
1000
0000
0010
0000
0000
0100
,
0000
0100
0000
0000
1000
0000
0001
0000
,
1000
0000
0001
0000
0100
0000
0000
0010
,
0000
0010
0000
0000
0001
0000
1000
0000
,
0001
0000
1000
0000
0010
0000
0000
0100
,
0000
0100
0000
0000
0000
0001
1000
0002
,
0000
0003
0000
0000
;

//---------------dance-single - ----------------
#NOTEDATA:;
#CHARTNAME:;
#STEPSTYPE:dance-single;
#DESCRIPTION:;
#CHARTSTYLE:;
#DIFFICULTY:Beginner;
#METER:1;
#RADARVALUES:0.165088,0.220691,0.028534,0.199736,0.021400,162.000000,158.000000,4.000000,28.000000,0.000000,0.000000,0.000000,0.000000,0.000000,0.165088,0.220691,0.028534,0.199736,0.021400,162.000000,158.000000,4.000000,28.000000,0.000000,0.000000,0.000000,0.000000,0.000000;
#CREDIT:;
#NOTES:
0000
0000
0000
0000
,
0000
0000
0000
0000
,
1000
0001
1000
0010
,
0100
0000
0010
0000
0100
0000
0200
0300
,
0110
0000
0010
1000
,
0010
0000
0100
0000
,
0001
0000
1000
0010
,
1000
0000
0001
0000
,
1001
0000
0001
1000
,
0001
0000
0100
0000
,
0010
0000
0010
0100
,
0001
0000
1000
0000
,
0200
0000
0000
2300
,
3100
1000
0001
1000
,
0100
0010
0001
1000
,
0020
0000
0000
0200
0000
0300
0000
0200
0000
0300
0000
0200
0000
0300
0000
0000
,
0130
0000
1000
0000
,
0001
0000
0010
0000
,
0100
0000
1000
0000
,
0100
0000
0020
0032
,
0013
0000
0001
0000
,
0100
0000
0001
0000
,
0010
0000
0100
0000
,
1000
0000
0000
0200
0000
0000
0000
0000
,
1300
0000
0000
0010
0000
0010
0000
0000
,
2000
0000
3001
1000
,
0001
0000
0000
0100
0000
0100
0000
0000
,
0002
0000
1003
0001
,
1000
0000
0000
0010
0000
0010
0000
0000
,
2000
0000
3010
1000
,
0010
0000
0000
0100
0000
0100
0000
0000
,
0002
0000
0103
0001
,
0100
0020
0000
0030
0100
0000
0010
0000
,
0100
0000
0000
0000
0001
0000
0000
0002
0000
0000
0003
2000
0000
0000
3000
0000
,
0010
0200
0000
0300
0010
0000
1000
0000
,
0001
0000
0000
0000
0100
0000
0000
0000
0010
0000
0000
0000
0001
0000
0000
0020
,
0000
0130
0110
0010
,
0100
0001
0010
0100
,
1000
0100
1100
1000
,
0001
0000
0100
0000
0020
0000
0000
0100
,
0230
0000
0000
0010
0310
0000
0000
0000
,
0100
0000
0001
0000
,
1000
0000
0010
0000
,
0100
0000
1000
0000
,
0200
0320
0130
0000
,
0001
0000
1000
0000
,
0010
0000
1000
0000
,
0100
0000
0000
0000
0010
0000
0000
0200
,
0000
0000
0000
0000
1300
0000
0000
0010
,
0000
0010
0000
0000
2000
0000
0000
0000
,
3001
0000
1000
0000
0001
0000
0000
0100
,
0000
0100
0000
0000
0002
0000
0000
0000
,
1003
0000
0001
0000
1000
0000
0000
0010
,
0000
0010
0000
0000
2000
0000
0000
0000
,
3001
0000
1000
0000
0001
0000
0000
0100
,
0000
0100
0000
0000
0002
0000
0000
0000
,
0013
0001
0000
0000
;

//---------------dance-single - ----------------
#NOTEDATA:;
#CHARTNAME:;
#STEPSTYPE:dance-single;
#DESCRIPTION:;
#CHARTSTYLE:;
#DIFFICULTY:Challenge;
#METER:9;
#RADARVALUES:0.496283,0.604558,0.049934,0.142669,0.499340,487.000000,480.000000,7.000000,20.000000,0.000000,0.000000,2.000000,0.000000,0.000000,0.496283,0.604558,0.049934,0.142669,0.499340,487.000000,480.000000,7.000000,20.000000,0.000000,0.000000,2.000000,0.000000,0.000000;
#CREDIT:;
#NOTES:
0000
0000
0000
0000
,
0000
0000
0000
0000
,
1000
0000
0100
0000
0010
0000
0001
0000
1000
0000
0001
0000
0010
0000
0100
0000
1000
0000
0000
1000
0010
0000
1000
0000
0100
0000
0000
0000
0100
0000
0000
0000
,
1000
0000
0000
0100
0010
0000
0100
0000
1000
0000
0000
0000
0001
0000
0000
0000
1000
0000
0000
0010
1000
0000
0001
0000
0020
0000
0000
0030
0010
0000
0000
0000
,
0110
0000
0000
1000
0001
0000
0100
0000
0100
0000
0100
0000
0100
0000
0001
1000
,
0002
0000
0013
0000
0002
0000
0103
0000
0002
0000
1003
0000
0002
0000
0003
0100
,
0010
0000
0000
0010
1000
0000
0001
0000
1000
0000
0001
0000
1000
0000
0001
0000
,
0100
0000
0000
0000
0100
0010
0100
0000
0001
0000
0000
1000
0001
0000
1000
0010
,
1000
0000
0000
0010
0100
0010
0100
0000
0010
0000
0010
0000
0010
0000
1000
0001
,
2000
0000
3100
0000
2000
0000
3010
0000
2000
0000
3001
0000
2000
0000
3000
0010
,
0100
0000
0000
0100
0001
0000
0100
0000
0001
0000
0001
0100
0010
0000
0100
0000
,
0010
0000
0000
0001
1000
0001
1000
0000
0100
0000
0010
0100
0010
0000
0001
0000
,
1000
0001
1000
0001
1000
0010
1000
0010
0000
0010
0000
0010
0100
0000
0001
1000
,
0001
0100
0001
0100
0001
1000
0001
1000
0000
1000
0000
1000
0001
0000
1000
0001
,
1000
0100
0010
0001
0010
0001
0010
0100
1000
0100
0010
1000
0010
0001
0010
0100
,
0400
0000
1000
0001
0000
0000
1000
0010
0320
0000
0100
0100
0000
0000
0100
0030
,
0110
0000
0000
0001
0010
0000
0001
0000
1000
0000
0000
0010
0100
0000
0100
0000
,
0001
0000
0000
0001
0010
0000
0001
0000
1000
0000
0000
1000
0000
0000
0001
0000
,
0100
0000
0000
0100
0000
0000
0001
0000
0010
0000
0000
0010
0000
0000
0001
0000
,
0100
0000
0000
0001
1000
0000
0010
0000
1000
0000
1000
0001
0100
0000
0010
0000
,
1001
0000
0000
0100
0010
0000
1000
0000
0001
0000
0000
0001
0100
0000
0010
0000
,
1000
0000
0000
1000
0010
0000
0100
0000
0001
0000
0000
0001
0000
0000
1000
0000
,
0010
0000
0000
0010
0000
0000
1000
0000
0100
0000
0000
0100
0000
0000
1000
0000
,
0010
0000
0000
1000
0001
0000
0200
0000
0001
0000
0000
0000
0301
0000
0100
0000
,
1000
0000
0010
0001
0010
0000
0100
1000
,
0100
0000
0000
0010
0001
0000
0010
0000
0010
0000
0000
0000
0001
0000
0010
0000
,
0001
0000
0100
0010
0100
0000
0010
1000
,
0010
0000
0000
0010
0100
0000
0010
0000
1000
0000
0000
0000
1000
0000
0100
0000
,
0001
0000
0010
0100
0001
0000
0010
0100
,
1000
0000
0000
1000
0001
0000
0100
0000
0001
0000
0000
0000
0010
0000
0100
0000
,
1000
0000
0100
0100
0100
0000
0010
0010
,
0010
0000
0000
0010
0001
0000
0100
0000
0200
0000
0300
0000
0020
0000
0030
0000
,
1001
0000
0001
0010
0001
0100
1000
0100
0001
0100
0010
0100
0001
0010
0100
1000
,
0001
0000
0001
1000
0001
0010
0100
1000
2000
0000
0000
3020
0000
0000
0130
0010
,
1000
0000
0010
0000
1000
0010
0001
0010
1000
0000
1000
0100
1000
0010
1000
0002
,
0000
0000
0100
0000
0010
0000
0100
2003
0000
0000
0000
3010
0000
1000
0100
0020
,
0000
0000
0001
0000
0031
0010
0001
0100
0011
0010
0001
0010
0100
0010
0001
0010
,
0100
0000
0000
0100
1000
0000
0010
0000
1000
0000
0000
0000
0001
0000
0000
0000
0001
0000
0000
0010
1000
0000
0010
0000
0001
0000
0000
0000
1000
0000
0000
0000
,
0010
0000
0000
0010
0100
0000
0010
0000
1000
0000
0000
0000
0001
0000
0000
0000
0110
0000
0100
0000
0010
0000
0001
0000
0010
0000
1000
0000
0010
0000
0001
0000
,
0010
0100
0010
0001
0010
1000
0010
0100
0040
0000
0000
0000
1000
0000
0100
0000
,
1030
0000
0000
0001
1000
0000
0010
0000
1000
0000
0000
0000
0001
0000
0000
0000
1010
0000
0000
0000
0000
0000
0001
0000
0010
0000
0000
0000
0010
0000
0000
0000
,
0001
0000
0000
1000
0010
0000
0100
0000
0001
0000
0000
0010
0001
0000
0100
0000
,
0010
0000
0000
1000
0000
0000
0100
0000
1000
0000
0000
0001
0000
0000
0010
0000
,
0001
0000
0000
0100
0000
0000
0001
0000
1000
0000
0000
0100
0000
0000
0010
0000
,
0100
0000
0010
0000
0100
0000
0010
0100
1000
0000
0000
0100
1000
0000
0001
0000
,
1000
0000
0000
1000
0001
0000
0100
0000
0010
0000
0000
0100
0001
0000
0010
0000
,
0001
0000
0000
1000
0000
0000
1000
0100
1000
0000
0000
0010
0000
0000
0100
0000
,
0001
0000
0000
0010
0000
0000
0001
0000
0010
0000
0000
0100
0010
0000
0002
0000
,
1000
0000
0000
0000
1003
0000
0001
0000
1000
0000
0000
0001
0010
0000
0001
0000
,
0100
0000
0000
0100
0010
0000
0001
0000
0010
0000
0000
0100
0001
0000
1000
0000
,
0001
0000
0000
0000
0010
0000
0010
0000
1000
0000
0000
0010
0100
0000
0100
0000
,
0010
0000
0000
0001
0010
0000
0001
0000
1000
0000
0000
0010
0100
0000
0100
0000
,
0001
0000
0000
0000
0001
0000
0010
0000
0100
0000
0000
0010
0001
0000
1000
0000
,
0001
0000
0000
0100
0001
0000
0010
0000
0001
0000
0000
1000
0001
0000
1000
0000
,
0100
0000
0000
0000
1000
0000
0100
0000
0010
0000
0000
0100
1000
0000
0010
0000
,
0010
0000
0000
0100
0010
0000
0100
0000
0001
0000
1000
0000
0001
0000
2000
0000
,
0001
0010
3001
1000
0010
0000
0000
0000
;
