#TITLE:Take Care;
#SUBTITLE:;
#ARTIST:Drake ft. Rihanna;
#TITLETRANSLIT:;
#SUBTITLETRANSLIT:;
#ARTISTTRANSLIT:;
#GENRE:Hip-Hop;
#CREDIT:;
#BANNER:take care-bn.png;
#BACKGROUND:take care-bg.png;
#LYRICSPATH:;
#CDTITLE:cdtitle.png;
#MUSIC:take care.ogg;
#OFFSET:0.000000;
#SAMPLESTART:15.738000;
#SAMPLELENGTH:11.500000;
#SELECTABLE:YES;
#BPMS:0.000000=122.000000
,30.000000=61.000000
,31.000000=122.000000
,59.000000=61.000000
,77.000000=122.000000
,173.000000=61.000000
,189.000000=122.000000
,221.000000=61.000000
;
#STOPS:
;
#BGCHANGES:61.000=take care.avi=1.000=1=0=1===CrossFade==,
236.000=take care-bg.png=1.000=1=0=1===CrossFade==,
99999=-nosongbg-=1.000=0=0=0 // don't automatically add -songbackground-
;
#KEYSOUNDS:;
#ATTACKS:;

//---------------dance-single - ----------------
#NOTES:
     dance-single:
     :
     Hard:
     8:
     0.395153,0.477147,0.091035,0.112043,0.395653,395.000000,382.000000,13.000000,16.000000,0.000000,0.000000,0.395153,0.477147,0.091035,0.112043,0.395653,395.000000,382.000000,13.000000,16.000000,0.000000,0.000000:
// measure 0
0000
0000
0000
0000
,  // measure 1
0000
0000
0000
0000
,  // measure 2
0000
0000
0000
0000
,  // measure 3
0000
0000
0000
0000
,  // measure 4
1100
0000
0000
0000
0000
0000
0010
0000
0100
0000
0000
0010
0000
0000
1000
0000
,  // measure 5
0010
0100
0001
0010
,  // measure 6
1000
0000
0100
0000
0010
0000
0100
0000
0001
0000
0000
0100
0000
0000
0010
0000
,  // measure 7
0100
0000
0000
0000
1000
0000
0000
1000
0001
0000
0000
0000
1001
0000
0100
0000
,  // measure 8
0000
0000
0001
0000
0010
0000
0000
1000
0000
0000
0100
0000
0010
0000
0000
0000
,  // measure 9
0100
0000
0010
0000
0001
0100
1000
0000
,  // measure 10
0100
0000
0001
0000
0100
0000
0000
0010
0000
0000
0001
0000
0100
0000
0000
0000
,  // measure 11
0010
0100
0010
1000
,  // measure 12
0100
0000
1000
0000
0010
0000
0000
0100
0000
0000
0010
0000
1000
0000
0000
0000
,  // measure 13
0001
1000
0001
1001
,  // measure 14
0100
0000
0001
0000
0010
0000
0000
0100
0000
0000
0010
0000
0110
0000
0100
0000
,  // measure 15
0010
0000
0000
0000
0001
0000
0000
0000
1001
0000
0000
0000
0000
0000
1000
0000
0100
0000
0000
1000
0000
0000
0200
0000
0000
0000
0000
0000
0000
0000
0000
0000
,  // measure 16
0000
0000
0000
0000
0000
0000
0300
0000
1000
0000
0000
0000
0000
0000
0001
0000
1000
0000
0000
0010
0000
0000
2000
0000
0000
0000
0000
0000
0000
0000
0000
0000
,  // measure 17
0000
0000
0000
0000
0000
0000
3000
0000
0100
0000
0000
0000
0000
0000
1000
0000
0010
0000
0000
0001
0000
0000
0020
0000
0200
0000
0000
0000
0000
0000
0300
0000
,  // measure 18
2000
0000
0000
0000
0000
0000
3030
0000
0100
0000
0000
0000
0000
0000
0010
0000
0100
0000
0000
0001
0000
0000
0002
0000
2000
0000
0000
0000
0000
0000
0000
0000
,  // measure 19
3000
0000
1000
0003
1001
0000
0000
0100
0000
0000
1000
0000
0010
0000
0000
0001
,  // measure 20
0000
0000
0100
0000
1000
0000
0000
1000
0000
0000
0100
0000
0010
0000
0000
0010
,  // measure 21
0000
0000
0100
0000
0010
0000
0000
0001
0000
0000
0100
0000
0010
0000
0000
0010
,  // measure 22
0000
0000
1000
0000
0001
0000
0000
0010
0000
0000
0100
0000
0001
0000
0000
0100
,  // measure 23
0000
0000
0010
0000
0001
0000
0000
1000
0000
0000
1000
0000
0010
0000
0000
0001
,  // measure 24
0000
0000
0010
0000
0100
0000
0000
0100
0000
0000
0001
0000
1000
0000
0000
0001
,  // measure 25
0000
0000
0100
0000
0010
0000
0000
0100
0000
0000
1000
0000
0100
0000
0000
0010
,  // measure 26
0000
0000
0100
0000
0002
0000
0000
1000
0000
0000
0000
0000
0103
0000
0010
0000
,  // measure 27
0100
0000
0000
0000
0110
0000
0000
0100
0000
0100
0010
0000
0100
0000
0001
0000
,  // measure 28
0000
0000
0010
0000
0100
0000
0010
0100
0000
0010
0001
0000
0010
0000
0000
0100
,  // measure 29
0000
0100
1000
0000
0100
0000
0000
1000
0000
0001
0100
0000
0010
0000
0000
0100
,  // measure 30
0000
0010
1000
0000
0100
0000
0000
1000
0000
0001
0010
0001
0010
0000
0000
0001
,  // measure 31
0000
0100
0010
0000
0100
0000
0000
0010
0000
0000
0100
0000
0001
0000
0010
0001
,  // measure 32
0010
0100
1000
0000
0100
0000
0000
1000
0010
0000
1000
0000
0001
0000
0010
0100
,  // measure 33
0010
0001
0010
0000
0001
0000
0000
0100
0000
0000
0010
0000
1000
0000
0000
0010
,  // measure 34
0000
0000
0100
0000
0010
0000
0000
0001
0000
0000
0010
0000
1000
0000
0000
0100
,  // measure 35
1000
0100
1000
0000
1010
0000
0100
0001
0000
0100
0010
0000
0100
0000
0010
1000
,  // measure 36
0000
0010
0100
0000
0001
0000
0100
0001
0000
0001
1000
0000
0100
0000
0010
0000
,  // measure 37
0100
0000
0000
0000
0110
0000
0010
1000
0000
0010
0100
0000
0001
0000
1000
0001
,  // measure 38
0000
0100
0001
0000
0010
0000
0001
1000
0000
0001
0100
0000
0010
0000
1000
0000
,  // measure 39
0001
0000
0000
0000
1001
0000
0100
1000
0000
0100
1000
0000
0001
0000
0010
0001
,  // measure 40
0000
0010
0001
0000
0100
0000
0010
1000
0000
0010
0100
0000
0001
0000
1000
0001
,  // measure 41
0000
0100
0010
0100
0010
0000
0100
0001
0000
0100
0010
0000
0010
0000
1000
0010
,  // measure 42
0000
1000
0001
0000
0100
0000
0010
1000
0000
0010
0100
0000
0001
0000
0010
0000
,  // measure 43
0000
0002
0000
0000
1000
0000
0103
0000
0001
0000
0010
0000
0100
0000
0010
0000
,  // measure 44
0001
0000
0000
0010
0001
0000
0100
0000
0010
0000
0000
0000
1000
0000
0000
0000
0010
0000
0000
0000
0100
0000
0000
0000
0001
0000
0000
0000
0100
0000
0000
0000
,  // measure 45
0010
0000
0000
0100
0010
0000
1000
0000
0100
0000
0000
0000
0001
0000
0000
0000
0100
0000
0000
0000
1000
0000
0000
0000
0100
0000
0000
0000
0010
0000
0000
0000
,  // measure 46
0100
0000
0000
0010
0100
0000
1000
0000
0001
0000
0000
0000
0100
0000
0000
0000
1000
0000
0000
0000
0100
0000
0000
0000
0001
0000
0000
0000
0100
0000
0000
0000
,  // measure 47
0010
0000
0010
0000
0110
0000
0000
0000
0001
0000
1000
0000
0010
0000
0000
0010
,  // measure 48
0000
0100
0001
0000
0001
0000
0010
0000
,  // measure 49
0100
0000
0010
0000
0001
0000
0000
0000
1000
0000
0001
0000
0010
0000
0000
0100
,  // measure 50
0000
0000
0010
0000
0001
0000
0000
0000
1000
0000
0000
0000
0001
0000
0000
0001
,  // measure 51
1000
0000
0001
0000
0100
0000
0000
0000
0010
0000
0001
0000
0010
0000
0000
0100
,  // measure 52
0000
0000
0001
0000
0100
0000
0000
0000
0010
0000
0000
0000
0100
0000
0000
0100
,  // measure 53
0010
0000
0100
0000
0110
0000
0000
0000
1000
0000
0010
0000
1000
0000
0000
0100
,  // measure 54
0000
0000
0010
0000
0100
0000
0000
0000
1000
0000
0010
0000
1000
0000
0000
1000
,  // measure 55
0001
0000
0000
0000
0100
0000
0000
0000
0101
0000
0000
0000
0000
0000
0001
0000
0010
0000
0000
0100
0000
0000
0020
0000
0000
0000
0000
0000
0000
0000
0000
0000
,  // measure 56
0000
0000
0000
0000
0000
0000
0030
0000
0001
0000
0000
0000
0000
0000
0100
0000
0001
0000
0000
0010
0000
0000
0002
0000
0000
0000
0000
0000
0000
0000
0000
0000
,  // measure 57
0000
0000
0000
0000
0000
0000
0003
0000
0010
0000
0000
0000
0000
0000
0001
0000
1000
0000
0000
0100
0000
0000
2000
0000
0002
0000
0000
0000
0000
0000
0003
0000
,  // measure 58
0020
0000
0000
0000
0000
0000
3030
0000
1000
0000
0000
0000
0000
0000
0100
0000
0001
0000
0000
0100
0000
0000
2000
0000
0020
0000
0000
0000
0000
0000
0000
0000
,  // measure 59
0000
3030
0000
0000
;

//---------------dance-single - ----------------
#NOTES:
     dance-single:
     :
     Medium:
     5:
     0.295114,0.414910,0.077030,0.084032,0.255599,295.000000,284.000000,11.000000,12.000000,0.000000,0.000000,0.295114,0.414910,0.077030,0.084032,0.255599,295.000000,284.000000,11.000000,12.000000,0.000000,0.000000:
// measure 0
0000
0000
0000
0000
,  // measure 1
0000
0000
0000
0000
,  // measure 2
0000
0000
0000
0000
,  // measure 3
0000
0000
0000
0000
,  // measure 4
1001
0000
0000
0000
0000
0000
0000
0000
0010
0000
0000
0100
0000
0000
0010
0000
,  // measure 5
1000
0000
0100
0000
,  // measure 6
0010
0000
0000
0000
0000
0000
0000
0000
0001
0000
0000
0010
0000
0000
0001
0000
,  // measure 7
0100
0000
0000
0101
,  // measure 8
0000
0000
0000
0000
0010
0000
0000
0010
0000
0000
0010
0000
0100
0000
0000
0000
,  // measure 9
0000
0000
0010
0000
1000
0001
1000
0000
,  // measure 10
0000
0000
0000
0000
0100
0000
0000
0100
0000
0000
0100
0000
0010
0000
0000
0000
,  // measure 11
1000
0100
0010
0001
,  // measure 12
0000
0000
0000
0000
0010
0000
0000
0010
0000
0000
0010
0000
0001
0000
0000
0000
,  // measure 13
1000
0001
1000
1001
,  // measure 14
0000
0000
0000
0000
0100
0000
0000
0100
0000
0000
0100
0000
0010
0000
0000
0000
,  // measure 15
0010
0000
0000
0000
0000
0000
0000
0000
0110
0000
0000
0000
0000
0000
0000
0000
0100
0000
0000
0010
0000
0000
0200
0000
0000
0000
0000
0000
0000
0000
0000
0000
,  // measure 16
0000
0000
0000
0000
0000
0000
0300
0000
0010
0000
0000
0000
0000
0000
0100
0000
0010
0000
0000
1000
0000
0000
2000
0000
0000
0000
0000
0000
0000
0000
0000
0000
,  // measure 17
0000
0000
0000
0000
0000
0000
3000
0000
0100
0000
0000
0000
0000
0000
0000
0000
0010
0000
0000
0100
0000
0000
0020
0000
0000
0000
0000
0000
0000
0000
0000
0000
,  // measure 18
0002
0000
0000
0000
0000
0000
0033
0000
0001
0000
0000
0000
0000
0000
0010
0000
0100
0000
0000
0010
0000
0000
0200
0000
0000
0000
0000
0000
0000
0000
0000
0000
,  // measure 19
0000
0000
0310
0000
0110
0000
0000
0000
0000
0000
1000
0000
0010
0000
0000
1000
,  // measure 20
0000
0000
0100
0000
0010
0000
0000
0100
0000
0000
0010
0000
0001
0000
0000
0010
,  // measure 21
0000
0000
0100
0000
0010
0000
0000
0000
0000
0000
0010
0000
0100
0000
0000
1000
,  // measure 22
0000
0000
0001
0000
1000
0000
0000
0010
0000
0000
0100
0000
0001
0000
0000
0100
,  // measure 23
0000
0000
0010
0000
1000
0000
0000
0000
0000
0000
1000
0000
0010
0000
0000
1000
,  // measure 24
0000
0000
0001
0000
0100
0000
0000
0010
0000
0000
0010
0000
0100
0000
0000
0001
,  // measure 25
0000
0000
0100
0000
0010
0000
0000
0000
0000
0000
1000
0000
0100
0000
0000
0010
,  // measure 26
0000
0100
2000
0000
0000
0000
3000
0000
,  // measure 27
0100
0000
0000
0000
1100
0000
0000
0000
0000
0000
0100
0000
1000
0000
0000
0100
,  // measure 28
0000
0000
0010
0000
0100
0000
0010
0000
0000
0000
0001
0000
0100
0000
0000
0001
,  // measure 29
0000
0000
0000
0000
0010
0000
0000
0000
0000
0000
1000
0000
0010
0000
0000
0100
,  // measure 30
0000
0000
1000
0000
0100
0000
1000
0000
0000
0000
0001
0000
0100
0000
0000
0001
,  // measure 31
0000
0000
0000
0000
0100
0000
0000
0000
0000
0000
0100
0000
0010
0000
0000
0010
,  // measure 32
0000
0000
1000
0000
0100
0000
0000
1000
0000
0000
0010
0000
0100
0000
0000
0001
,  // measure 33
0000
0000
0010
0000
0001
0000
0000
0000
0000
0000
1000
0000
0100
0000
0000
0001
,  // measure 34
0000
0000
0100
0000
1000
0000
0000
0001
0000
0000
0010
0000
0001
0000
0000
0000
,  // measure 35
0001
0000
0000
0000
1001
0000
0000
0000
0000
0000
1000
0000
0001
0000
0000
0010
,  // measure 36
0000
0000
0001
0000
1000
0000
0000
0100
0000
0000
0001
0000
0100
0000
0010
0000
,  // measure 37
0100
0000
0000
0000
0010
0000
0000
0000
0000
0000
0010
0000
1000
0000
0000
0010
,  // measure 38
0000
0000
0001
0000
0010
0000
0000
1000
0000
0000
0100
0000
0010
0000
0001
0000
,  // measure 39
0010
0000
0000
0000
0011
0000
0000
0000
0000
0000
1000
0000
0001
0000
0000
0001
,  // measure 40
0000
0000
0001
0000
0100
0000
0000
0010
0000
0000
0100
0000
1000
0000
0000
0100
,  // measure 41
0000
0000
0010
0000
0100
0000
0000
0000
0000
0000
0001
0000
1000
0000
0000
0010
,  // measure 42
0000
0000
1000
0000
0100
0000
0000
1000
0000
0000
0010
0000
0100
0000
0010
0000
,  // measure 43
0000
2000
0000
0000
0000
0000
3000
0100
1000
0100
0000
1000
0001
0000
1000
0000
,  // measure 44
0010
0000
0100
0000
0010
0000
0000
0001
0010
0001
0000
0100
1000
0000
0100
0000
,  // measure 45
1000
0000
0010
0000
0100
0000
0000
0100
0010
0100
0000
0001
0010
0000
0001
0000
,  // measure 46
0100
0000
0010
0000
1000
0000
0000
0010
1000
0010
0000
0100
0001
0000
0100
0000
,  // measure 47
0010
0000
0100
0000
0101
0000
0000
0000
0010
0000
0100
0000
1000
0000
0000
0010
,  // measure 48
0000
0100
0001
0000
1000
0000
0010
0000
,  // measure 49
0100
0000
0010
0000
1000
0000
0000
0000
0100
0000
0001
0000
0100
0000
0000
1000
,  // measure 50
0000
0100
1000
0000
0001
0000
1000
0000
,  // measure 51
0001
0000
0000
0000
0010
0000
0000
0000
0100
0000
0010
0000
0100
0000
0000
1000
,  // measure 52
0000
0010
0100
0000
0010
0000
0100
0000
,  // measure 53
0010
0000
0000
0000
0110
0000
0000
0000
1000
0000
0010
0000
1000
0000
0000
0100
,  // measure 54
0000
0000
1000
0000
0001
0000
0000
0000
1000
0000
0010
0000
0100
0000
0000
0100
,  // measure 55
0000
0000
0100
0000
0000
0000
0000
0000
0101
0000
0000
0000
0000
0000
0000
0000
0010
0000
0000
0100
0000
0000
0020
0000
0000
0000
0000
0000
0000
0000
0000
0000
,  // measure 56
0000
0000
0000
0000
0000
0000
0030
0000
1000
0000
0000
0000
0000
0000
0010
0000
1000
0000
0000
0010
0000
0000
2000
0000
0000
0000
0000
0000
0000
0000
0000
0000
,  // measure 57
0000
0000
0000
0000
0000
0000
3000
0000
0010
0000
0000
0000
0000
0000
0000
0000
0010
0000
0000
0100
0000
0000
0002
0000
0000
0000
0000
0000
0000
0000
0000
0000
,  // measure 58
0200
0000
0000
0000
0000
0000
0300
0000
0103
0000
0000
0000
0000
0000
0100
0000
0001
0000
0000
0010
0000
0000
0001
0000
2000
0000
0000
0000
0000
0000
0000
0000
,  // measure 59
0000
3000
0000
0000
;

//---------------dance-single - ----------------
#NOTES:
     dance-single:
     :
     Easy:
     3:
     0.150058,0.248946,0.070027,0.070027,0.028011,150.000000,140.000000,10.000000,10.000000,0.000000,0.000000,0.150058,0.248946,0.070027,0.070027,0.028011,150.000000,140.000000,10.000000,10.000000,0.000000,0.000000:
// measure 0
0000
0000
0000
0000
,  // measure 1
0000
0000
0000
0000
,  // measure 2
0000
0000
0000
0000
,  // measure 3
0000
0000
0000
0000
,  // measure 4
1001
0000
0100
0000
,  // measure 5
0010
0000
1000
0000
,  // measure 6
0001
0000
0100
0000
,  // measure 7
0010
0000
0000
0110
,  // measure 8
0000
0010
0000
1000
,  // measure 9
0000
0010
0000
0100
,  // measure 10
0000
0001
0000
0001
,  // measure 11
0010
0100
1000
0010
,  // measure 12
0000
0100
0000
0001
,  // measure 13
0001
1000
1000
1001
,  // measure 14
0000
0010
0000
0001
,  // measure 15
0000
0000
0000
0000
0101
0000
0000
0000
0100
0000
0000
0200
0000
0000
0000
0000
,  // measure 16
0000
0000
0000
0300
0010
0000
0000
0000
1000
0000
0000
2000
0000
0000
0000
0000
,  // measure 17
0000
0000
0000
3000
0010
0000
0000
0000
0100
0000
0000
0020
0000
0000
0000
0000
,  // measure 18
0000
0000
0000
0030
0100
0000
0000
0000
0001
0000
0000
0002
0000
0000
0000
0000
,  // measure 19
0000
0000
0000
0003
1001
0000
0000
0000
0000
0000
0000
0000
0001
0000
0000
0000
,  // measure 20
0000
0100
0000
1000
,  // measure 21
0000
0100
0000
0001
,  // measure 22
0000
1000
0000
0010
,  // measure 23
0000
1000
0000
0100
,  // measure 24
0000
0001
0000
0100
,  // measure 25
0000
1000
0000
0100
,  // measure 26
0000
0020
0000
0030
,  // measure 27
0000
1001
0000
0001
,  // measure 28
0000
0100
0000
1000
,  // measure 29
0000
0100
0000
0010
,  // measure 30
0000
0100
0000
0001
,  // measure 31
0000
0010
0000
0001
,  // measure 32
0000
1000
0000
0001
,  // measure 33
0000
0100
0000
0010
,  // measure 34
0000
0100
0000
0001
,  // measure 35
0010
0011
0000
1000
,  // measure 36
0000
0001
0000
0010
,  // measure 37
0000
0100
0000
1000
,  // measure 38
0000
0010
0000
0100
,  // measure 39
0000
0001
0000
1000
,  // measure 40
0000
0010
0000
0100
,  // measure 41
0000
0001
0000
0010
,  // measure 42
0000
0000
0100
0000
0000
0000
0010
0001
,  // measure 43
0000
2000
0000
0000
0001
0000
3000
0000
0001
0000
0000
0000
0100
0000
0000
0000
,  // measure 44
0010
0100
0010
0000
1000
0000
0001
0000
,  // measure 45
0100
0010
0100
0000
0010
0000
1000
0000
,  // measure 46
0100
0010
0001
0000
0010
0000
0100
0000
,  // measure 47
1000
1000
1100
0000
0000
0000
1000
0000
,  // measure 48
0000
0001
0000
0010
,  // measure 49
0000
0001
0000
1000
,  // measure 50
0000
1000
0100
0010
,  // measure 51
0001
0100
0000
0010
,  // measure 52
0000
1000
1000
0001
,  // measure 53
0001
1001
0000
1000
,  // measure 54
0000
0010
0000
0100
,  // measure 55
0000
0000
0000
0000
0110
0000
0000
0000
0010
0000
0000
0020
0000
0000
0000
0000
,  // measure 56
0000
0000
0000
0030
1000
0000
0000
0000
0001
0000
0000
0002
0000
0000
0000
0000
,  // measure 57
0000
0000
0000
0003
0010
0000
0000
0000
0010
0000
0000
0200
0000
0000
0000
0000
,  // measure 58
0000
0000
0000
0300
1000
0000
0000
0000
0100
0000
0000
0000
0020
0000
0000
0000
,  // measure 59
0000
0030
0000
0000
;
