#TITLE:Taco Bell;
#SUBTITLE:;
#ARTIST:That Kid;
#TITLETRANSLIT:;
#SUBTITLETRANSLIT:;
#ARTISTTRANSLIT:;
#GENRE:Hyper Europop;
#CREDIT:;
#BANNER:Taco Bell-bn.png;
#BACKGROUND:Taco Bell-bg.png;
#LYRICSPATH:;
#CDTITLE:cdtitle.png;
#MUSIC:Taco Bell.ogg;
#OFFSET:-0.209000;
#SAMPLESTART:30.809999;
#SAMPLELENGTH:13.241000;
#SELECTABLE:YES;
#BPMS:0.000000=145.000000
;
#STOPS:
;
#BGCHANGES:;
#KEYSOUNDS:;
#ATTACKS:;

//---------------dance-single - includes rolls so not for boomers----------------
#NOTES:
     dance-single:
     Original Heavy Chart:
     Edit:
     9:
     0.589173,0.675999,0.221299,0.321889,0.201181,410.000000,388.000000,22.000000,32.000000,0.000000,0.000000,0.589173,0.675999,0.221299,0.321889,0.201181,410.000000,388.000000,22.000000,32.000000,0.000000,0.000000:
// measure 0
0000
0000
0000
0000
,  // measure 1
0000
0000
0000
0000
,  // measure 2
0000
0000
0000
0000
1000
0010
1000
0010
,  // measure 3
0100
0001
0100
0001
0010
0100
0010
0100
,  // measure 4
1000
0100
1000
0100
0010
0001
0010
0001
,  // measure 5
1000
0001
1000
0001
0100
0010
0100
0010
,  // measure 6
1000
0000
0000
0000
0000
0000
0001
0000
0000
0000
0000
0000
1000
0000
0000
0000
0000
0000
0001
0000
1000
0000
0001
0000
1000
0000
0000
0000
0000
0000
0000
0000
0000
0100
0000
0000
0000
0000
0000
0000
0000
0000
1000
0000
0000
0000
0000
0000
,  // measure 7
0000
0000
0110
0010
0001
0000
1001
1000
,  // measure 8
0010
1000
0010
0000
0000
0000
0100
0000
0101
0000
0000
0001
0000
0000
1000
0000
,  // measure 9
0000
0100
0010
0001
0202
0000
0000
0000
,  // measure 10
0000
0000
0000
0000
0000
0000
0303
0000
1001
0000
0000
1000
0100
0000
1000
0000
,  // measure 11
0001
0100
1000
0100
0010
0100
0001
1000
,  // measure 12
0020
0000
2030
0000
3100
0010
1000
0010
,  // measure 13
0001
1000
0010
1000
0001
0010
0100
1000
,  // measure 14
0020
0000
0000
0000
2030
0000
0004
0000
3003
0000
0000
0010
0001
0000
0100
0000
,  // measure 15
0010
0001
0010
1000
0001
0100
0010
1000
,  // measure 16
0200
0000
0000
0000
0320
0000
0000
0000
0031
0000
0000
0010
0000
0000
0100
0000
,  // measure 17
2000
0000
3002
0000
0003
0000
0100
0001
,  // measure 18
0010
0000
1000
0000
0010
0000
0100
0000
1100
0000
0000
1000
0100
0000
1000
0000
,  // measure 19
0000
0000
0001
0000
0100
0000
0004
0000
1003
0000
0000
0010
1000
0000
0001
0000
,  // measure 20
0100
0001
0100
0001
0100
0000
0010
0000
0001
0000
0010
0000
1000
0000
0010
0000
,  // measure 21
0000
0000
1000
0000
0001
0000
0400
0000
0301
0000
0000
0010
0100
0000
0010
0000
,  // measure 22
0001
1000
0010
2000
0001
3000
1001
1000
,  // measure 23
0000
0000
0001
0000
0100
0000
0004
0000
1003
0000
0000
0100
1000
0000
0001
0000
,  // measure 24
0000
0010
0100
1000
1100
0100
0001
0100
,  // measure 25
0010
0000
0001
0000
1000
0000
0400
0000
1300
0000
0000
1000
0001
0000
0100
0000
,  // measure 26
0001
0000
0101
0000
0000
1100
0000
0000
1001
0000
2000
0000
0000
0000
3001
0000
,  // measure 27
0010
0200
0000
4300
3100
0001
0100
0010
,  // measure 28
0001
2000
0000
3004
1003
0010
0002
0000
,  // measure 29
0023
0000
0130
0040
1030
0001
0010
0100
,  // measure 30
1000
0010
0100
0010
1000
0002
0000
0103
,  // measure 31
0001
2000
0000
3400
0310
0100
1000
0001
,  // measure 32
1000
0020
0000
0031
0010
1000
0002
0000
,  // measure 33
0023
0000
0030
0400
0310
0100
1000
0001
,  // measure 34
0100
0000
0020
0000
0000
0000
0030
0000
0101
0000
0000
0001
0100
0000
0001
0000
,  // measure 35
1000
0100
0010
0000
0001
0010
0001
1000
,  // measure 36
0100
0000
1000
0000
0001
0100
0000
0000
0001
0000
0000
1000
0100
0000
1000
0000
,  // measure 37
0002
0000
0023
0030
0100
0010
0001
0100
,  // measure 38
0010
0100
0000
0004
1003
0001
0100
0010
,  // measure 39
2000
0000
3002
0003
0100
0001
0010
0100
,  // measure 40
2000
0000
3020
0030
1000
0100
0010
0100
,  // measure 41
0020
0000
0031
0010
1000
0010
0100
1000
,  // measure 42
0001
0000
0100
0000
0002
0000
0000
0000
0013
0000
0000
0010
0000
0000
0010
0000
,  // measure 43
0000
0000
0010
0000
0000
0000
0010
0000
0100
0000
0000
0100
0000
0000
0100
0000
,  // measure 44
1000
0100
1000
0100
0000
0000
0100
0000
0010
0000
0001
0000
0010
0000
0001
0000
,  // measure 45
0010
0000
0100
0000
0010
0000
0100
0000
0010
0000
0000
0010
0000
0000
0010
0000
,  // measure 46
0000
0110
0000
0010
0100
0010
0100
1000
,  // measure 47
0100
0000
1000
0000
0100
0000
0010
0000
0101
0000
0000
1001
0000
0000
1100
0000
,  // measure 48
0000
0000
0100
0000
1000
0000
0001
0000
0011
0000
0000
0110
0000
0000
1010
0000
,  // measure 49
1000
0000
0001
0000
1000
0000
0010
0000
1010
0000
0000
1001
0000
0000
0011
0000
,  // measure 50
0000
0000
0001
0010
0001
0010
0001
0010
0001
0000
0000
0100
0010
0000
0100
0000
,  // measure 51
0001
0000
0010
0000
0100
0000
4000
0000
3010
0000
0000
0100
0010
0000
0100
0000
,  // measure 52
0000
0000
0001
0000
1000
0010
0000
0000
1000
0000
0010
0000
0100
0000
0010
0000
,  // measure 53
0001
0000
0010
0000
0100
0000
0010
0000
1000
0000
0000
0100
0010
0000
0100
0000
,  // measure 54
1000
0000
0001
0000
0100
0000
0002
0000
0000
0000
0003
1000
0100
0000
1000
0000
,  // measure 55
0001
0000
0100
0000
0010
0000
0400
0000
0301
0000
0000
0010
0100
0000
1000
0000
,  // measure 56
0000
0001
0010
0200
0000
0301
0100
1000
,  // measure 57
0100
0000
0010
0000
0001
0000
1000
0000
0010
0000
0000
1000
0000
0000
0001
0000
,  // measure 58
0000
0000
0100
0010
0100
0010
0100
0010
0000
0000
0000
0000
0000
0000
0000
0000
;

//---------------dance-single - heating up at a Taco Bell----------------
#NOTES:
     dance-single:
     X-Scale 10:
     Medium:
     7:
     0.464153,0.440869,0.120709,0.251476,0.171004,323.000000,311.000000,12.000000,25.000000,0.000000,0.000000,0.464153,0.440869,0.120709,0.251476,0.171004,323.000000,311.000000,12.000000,25.000000,0.000000,0.000000:
// measure 0
0000
0000
0000
0000
,  // measure 1
0000
0000
0000
0000
,  // measure 2
0000
0000
0000
0000
0000
0000
0000
0000
1000
0000
0000
0100
0000
0000
0010
0000
,  // measure 3
0100
1000
0001
0000
0100
0001
1000
0020
,  // measure 4
0000
0030
0110
0000
0100
0001
1000
0010
,  // measure 5
1000
0000
0000
0000
1000
0000
0000
0000
0100
0000
0010
0000
0001
0000
0100
0002
,  // measure 6
0000
0000
0003
0000
0000
0000
0020
0000
0130
0000
0000
0100
0000
0000
0100
0000
,  // measure 7
0000
1000
0010
1000
0001
0000
0011
0010
,  // measure 8
0000
0010
0000
0000
0010
0100
0000
0000
1100
0000
0000
1000
0000
0000
0001
0000
,  // measure 9
0000
0100
0001
1000
0002
0000
0000
0000
,  // measure 10
0000
0000
0000
0000
0000
0000
0000
0000
1003
0000
0000
0100
0000
0000
1000
0000
,  // measure 11
0001
0010
1000
0010
0100
1000
0001
0000
,  // measure 12
0020
0000
0000
0000
0032
0000
0000
0000
0103
0000
0000
0100
0000
0000
0100
0000
,  // measure 13
0010
1000
0001
0010
0100
0000
1000
0100
,  // measure 14
0002
0000
0000
0000
0023
0000
0000
0000
0130
0000
0000
0100
0000
0000
0100
0000
,  // measure 15
0001
0100
0010
1000
0001
0000
0010
0100
,  // measure 16
2000
0000
0000
0000
3200
0000
0000
0000
0310
0000
0000
0001
0000
0000
0001
0000
,  // measure 17
0020
0000
0230
0000
0300
0000
1000
0001
,  // measure 18
0000
0000
0100
0000
0101
0000
0100
0001
,  // measure 19
1000
0000
0000
0000
0010
0000
0100
0000
0001
0000
0000
0010
0000
0000
0100
0000
,  // measure 20
2000
0000
0000
0000
3001
0000
0000
0000
0010
0000
0000
0001
0000
0000
1000
0000
,  // measure 21
0000
0000
0010
0000
1000
0000
0001
0000
0100
0000
0000
0010
0000
0000
1000
0000
,  // measure 22
0000
0100
0010
0002
0000
0003
0101
0000
,  // measure 23
0001
0000
0010
0000
0100
0000
0000
0000
1000
0000
0000
0010
0000
0000
1000
0000
,  // measure 24
0000
0001
0010
0200
0000
0300
1000
0000
,  // measure 25
0001
0000
0100
0000
0001
0000
0000
0000
1000
0000
0000
0100
0000
0000
1000
0000
,  // measure 26
0000
0000
0001
0000
0000
0001
0000
0000
0101
0000
0000
0000
0100
0000
0000
0000
,  // measure 27
0010
0000
0000
1000
0000
0000
0001
0000
0100
0000
0000
0000
0100
0000
0000
0000
,  // measure 28
0001
0000
0000
1000
0000
0000
0010
0000
1000
0000
0000
0000
1000
0000
0000
0000
,  // measure 29
0100
0000
0000
0010
0000
0000
0001
0000
0100
0000
0000
0000
0100
0000
0000
0000
,  // measure 30
0001
0000
0000
1000
0000
0000
0010
0000
1000
0000
0000
0000
1000
0000
0000
0000
,  // measure 31
0001
0000
0000
0100
0000
0000
0010
0000
0100
0000
0000
0000
0100
0000
0000
0000
,  // measure 32
0010
0000
0000
1000
0000
0000
0001
0000
0100
0000
0010
0000
0200
0000
0000
0000
,  // measure 33
0302
0000
0003
0000
1000
0100
0001
0100
,  // measure 34
0010
0002
0000
0003
1001
0000
1000
0000
,  // measure 35
0010
1000
0002
0000
0013
0000
0100
0000
,  // measure 36
1000
0100
0010
0100
1000
0000
0001
0010
,  // measure 37
0001
0000
0011
0000
0001
0000
1000
0010
,  // measure 38
1000
0000
0001
0000
1000
0000
0010
1000
,  // measure 39
0001
0000
1001
0000
1000
0000
0100
0010
,  // measure 40
0001
0000
0011
0000
0010
0100
0010
0100
,  // measure 41
2000
0000
3001
0000
0100
0010
1000
0001
,  // measure 42
0010
0100
2000
0000
3000
0000
0001
0100
,  // measure 43
0001
0000
0000
0000
1000
0000
0100
0000
0010
0000
0000
0100
0000
0000
1000
0000
,  // measure 44
0000
0001
0100
0001
1000
0000
0010
0100
,  // measure 45
0001
0000
0000
0000
1000
0000
0001
0000
0100
0000
0000
0010
0000
0000
0100
0000
,  // measure 46
0000
0001
0010
0200
0000
0300
1000
0100
,  // measure 47
0001
0000
0100
0000
1000
0000
0100
0000
0010
0000
0000
0001
0000
0000
1000
0000
,  // measure 48
0000
0010
1000
0002
0000
0013
1000
0010
,  // measure 49
0100
0000
1000
0000
0001
0000
0100
0000
0010
0000
0000
1000
0000
0000
0001
0000
,  // measure 50
0000
0000
0010
0000
0000
0000
0000
0000
0110
0000
0000
0010
0100
0000
1000
0000
,  // measure 51
0000
0000
0001
0000
0100
0000
0010
0000
1000
0000
0000
0100
0000
0000
1000
0000
,  // measure 52
0000
0000
0001
0000
0100
0001
0000
0000
0010
0000
0000
0100
0010
0000
0100
0000
,  // measure 53
0000
0000
1000
0000
0010
0000
1000
0000
0001
0000
0000
1000
0010
0000
0100
0000
,  // measure 54
0000
0100
0001
2000
0000
3000
1100
0100
,  // measure 55
0000
0000
1000
0000
0001
0000
0010
0000
0100
0000
0000
1000
0100
0000
1000
0000
,  // measure 56
0000
0001
1000
0200
0000
0301
0100
1000
,  // measure 57
0001
0000
0100
0000
0010
0000
1000
0000
0001
0000
0000
0010
0000
0000
0001
0000
,  // measure 58
0000
0000
1000
0000
0010
0000
1000
0010
0000
0000
0000
0000
0000
0000
0000
0000
;

//---------------dance-single - ordering something light at a Taco Bell----------------
#NOTES:
     dance-single:
     X-Scale 6:
     Easy:
     4:
     0.294586,0.349300,0.100590,0.261535,0.000000,205.000000,195.000000,10.000000,26.000000,0.000000,0.000000,0.294586,0.349300,0.100590,0.261535,0.000000,205.000000,195.000000,10.000000,26.000000,0.000000,0.000000:
0000
0000
0000
0000
,
0000
0000
0000
0000
,
0000
0000
0000
1000
,
0000
0010
0000
0100
,
0000
0001
0000
0010
,
0100
0010
0000
0001
,
0000
0000
1001
0001
,
0000
0000
1000
0100
2000
0000
3100
0010
,
0000
0010
0001
0010
0200
0000
1300
0000
,
0000
0001
1001
0000
,
0000
0000
0210
0000
,
0301
0100
0010
0100
,
0002
0023
0130
1000
,
0001
0100
0001
1000
,
0002
0023
0230
0001
,
0000
0000
1000
0300
0100
0000
0010
0000
,
0002
0000
0203
0000
0301
0000
0010
0100
,
2000
0000
3002
0000
0013
0000
0000
0010
,
0000
0000
1001
1000
,
0010
1000
0001
0010
,
0100
1000
0100
0010
,
0001
1000
0010
0100
,
0001
0000
1001
1000
,
0010
1000
0001
0100
,
0000
0000
0101
0001
,
0010
0000
0100
0000
1000
0000
0000
1000
,
0000
0001
0000
0000
1001
2000
0000
3000
,
0100
0020
0000
0030
0001
0000
1000
0010
,
0100
0002
0000
0003
0010
0000
0200
0000
,
2300
0000
3000
0000
0010
0000
1000
0100
,
0010
0002
0000
0003
0100
0002
0000
0003
,
0010
0200
0000
0300
1000
0000
0001
0100
,
0010
2000
0000
3000
0001
0000
0200
0000
,
0302
0000
0003
0000
1000
0000
0010
0100
,
0001
2000
0000
3000
1100
0000
1000
0000
,
0100
1000
0001
0100
,
0001
0000
1000
0010
1000
0000
0001
0000
,
0100
0010
0100
0001
,
1000
0100
1000
0000
0001
0000
0100
0000
,
0001
1000
0100
0010
,
0100
1000
0001
0100
,
0002
1003
0010
1000
,
0001
0010
0200
0000
1300
0000
0000
0100
,
0000
0000
0000
0000
1000
0000
0000
0001
,
0000
0000
0000
0000
0010
0000
0000
0100
,
0000
0000
0000
0000
0010
0000
0000
0001
,
0000
0000
0000
0000
1000
0000
0000
0010
,
0000
0000
0000
0000
1000
0000
0000
0001
,
0000
0000
0000
0000
0010
0000
0000
0100
,
0000
0000
0000
0000
1000
0000
0000
0001
,
0000
0000
1001
1000
,
0010
0000
1000
0001
0010
0000
0100
0000
,
0000
0100
1000
0001
,
0100
0000
0001
0010
0100
0000
1000
1000
,
0000
0001
0000
0000
0001
0000
1001
0000
,
1000
0000
0010
1000
0001
0000
0010
0100
,
0000
0000
0000
1000
0000
0000
0001
0000
,
0010
0000
0001
0000
0100
0000
0000
0010
;

//---------------dance-single - baby's first Taco Bell----------------
#NOTES:
     dance-single:
     X-Scale 3:
     Beginner:
     2:
     0.140827,0.168238,0.030177,0.000000,0.000000,98.000000,95.000000,3.000000,0.000000,0.000000,0.000000,0.140827,0.168238,0.030177,0.000000,0.000000,98.000000,95.000000,3.000000,0.000000,0.000000,0.000000:
0000
0000
0000
0000
,
0000
0000
0000
0000
,
0000
0000
0000
0001
,
0000
1000
0000
0001
,
0000
1000
0000
0001
,
0000
1000
0000
0001
,
0000
0000
0000
0010
,
0000
0100
0000
0010
,
0000
0100
0000
0010
,
0000
0100
0000
0000
,
0000
0000
1000
0000
,
0001
0000
0100
0000
,
0001
0010
0100
0000
,
1000
0000
0010
0000
,
1000
0100
1000
0000
,
0001
0000
0100
0000
,
0001
0010
0000
0001
,
0000
0100
0000
0000
,
0000
0000
1001
0000
,
1000
0000
0010
0000
,
1000
0000
0001
0000
,
0010
0000
0100
0000
,
1000
0000
0001
0000
,
1000
0000
0010
0000
,
0000
0000
1001
0000
,
0001
0000
1000
0000
,
0100
0000
1000
0000
,
0010
0000
0100
0000
,
0010
0000
1000
0000
,
0001
0000
0010
0000
,
0100
0000
0010
0000
,
0001
0000
1000
0000
,
0001
0000
0100
0000
,
0010
0000
1000
0000
,
0000
0000
0000
0001
,
0000
0100
0000
0001
,
0000
0100
0000
0010
,
0000
1000
0000
0010
,
0000
1000
0000
0100
,
0000
0010
0000
0100
,
0000
0010
0000
0001
,
0000
1000
0000
0001
,
0000
0000
1000
0000
,
0000
0000
0100
0000
,
0000
0000
0010
0000
,
0000
0000
0001
0000
,
0000
0000
0100
0000
,
0000
0000
0010
0000
,
0000
0000
1000
0000
,
0000
0000
0001
0000
,
0000
0000
1001
1000
,
0000
0010
0000
1000
,
0000
0001
0000
0010
,
0000
0100
0000
1000
,
0000
0000
0001
0001
,
0000
0100
0000
0001
;

//---------------dance-single - showing your DDR skills to randoms behind a Taco Bell----------------
#NOTES:
     dance-single:
     X-Scale 13:
     Hard:
     9:
     0.597795,0.587826,0.321889,0.452657,0.216269,416.000000,384.000000,32.000000,45.000000,0.000000,0.000000,0.597795,0.587826,0.321889,0.452657,0.216269,416.000000,384.000000,32.000000,45.000000,0.000000,0.000000:
// measure 0
0000
0000
0000
0000
,  // measure 1
0000
0000
0000
0000
,  // measure 2
0000
0000
0000
0000
1000
0010
1000
0010
,  // measure 3
0100
0001
0100
0001
0010
0100
0010
0100
,  // measure 4
1000
0100
1000
0100
0010
0001
0010
0001
,  // measure 5
1000
0001
1000
0001
0100
0010
0100
0010
,  // measure 6
1000
0000
0000
0000
0000
0000
0001
0000
0000
0000
0000
0000
1000
0000
0000
0000
0000
0000
0001
0000
1000
0000
0001
0000
1000
0000
0000
0000
0000
0000
0000
0000
0000
0100
0000
0000
0000
0000
0000
0000
0000
0000
1000
0000
0000
0000
0000
0000
,  // measure 7
0000
0000
0110
0010
0001
0000
1001
1000
,  // measure 8
0010
1000
0010
0000
0000
0000
0100
0000
0101
0000
0000
0001
0000
0000
1000
0000
,  // measure 9
0000
0100
0010
0001
0202
0000
0000
0000
,  // measure 10
0000
0000
0000
0000
0000
0000
0303
0000
1001
0000
0000
1000
0100
0000
1000
0000
,  // measure 11
0001
0100
1000
0100
0010
0100
0001
1000
,  // measure 12
0020
0000
2030
0000
3100
0010
0100
0010
,  // measure 13
0001
1000
0001
1000
0100
0001
0100
1000
,  // measure 14
0020
0000
0000
0000
2030
0000
0000
0000
3001
0000
0000
0010
0001
0000
0100
0000
,  // measure 15
0010
0001
0010
1000
0001
0100
0010
1000
,  // measure 16
0200
0000
0000
0000
0320
0000
0000
0000
0031
0000
0000
0010
0000
0000
0100
0000
,  // measure 17
2000
0000
3002
0000
0003
0000
1000
0010
,  // measure 18
0001
0000
0010
0000
0100
0000
0010
0000
1010
0000
0000
1000
0100
0000
1000
0000
,  // measure 19
0000
0000
0001
0000
0100
0000
0002
0000
1003
0000
0000
0010
1000
0000
0001
0000
,  // measure 20
0100
0001
0100
0001
0100
0000
0010
0000
0001
0000
0010
0000
1000
0000
0010
0000
,  // measure 21
0100
0000
1000
0000
0100
0000
0002
0000
1003
0000
0000
0010
0100
0000
0010
0000
,  // measure 22
1000
0100
0010
0002
1000
0003
1001
1000
,  // measure 23
0001
0000
0100
0000
0001
0000
2000
0000
3100
0000
0000
0100
1000
0000
0001
0000
,  // measure 24
0000
0010
0100
1000
1100
0100
0001
0100
,  // measure 25
0010
0000
0001
0000
1000
0000
0200
0000
1300
0000
0000
0001
1000
0000
0010
0000
,  // measure 26
0100
0000
0110
0000
0000
1100
0000
0000
1001
0000
2000
0000
0000
0000
3001
0000
,  // measure 27
0010
0200
0000
0301
0100
1000
0100
0010
,  // measure 28
0100
2000
0000
3001
1000
0010
0002
0000
,  // measure 29
0023
0000
0000
0100
0030
0000
0200
0000
0310
0000
0100
0000
0001
0000
1000
0000
,  // measure 30
0100
0010
0100
0010
0001
2000
0000
3001
,  // measure 31
0010
0200
0000
0301
0100
1000
0001
0010
,  // measure 32
0001
0200
0000
1300
0100
0010
2000
0000
,  // measure 33
3002
0000
0000
0010
0003
0000
0020
0000
0031
0000
0010
0000
1000
0000
0010
0000
,  // measure 34
0100
0000
2000
0000
0000
0000
3000
0000
1100
0000
0000
1000
0100
0000
1000
0000
,  // measure 35
0001
0100
0020
0000
0130
0000
0101
0100
,  // measure 36
0001
0000
1000
0000
0001
0100
0000
0000
0001
0000
0000
1000
0100
0000
1000
0000
,  // measure 37
0002
0000
0023
0030
0100
0010
0001
0100
,  // measure 38
0020
0000
2030
0000
3001
1000
0100
0010
,  // measure 39
0002
0000
0203
0000
1300
0100
0001
0010
,  // measure 40
0002
0000
2003
0000
3000
0100
0010
0100
,  // measure 41
0020
0000
0031
0010
1000
0010
0100
1000
,  // measure 42
0001
0000
0100
0000
0001
0000
0001
0000
0011
0000
0000
1001
0000
0000
1010
0000
,  // measure 43
0000
0000
1000
0000
0000
0000
0002
0000
0103
0000
0000
0101
0000
0000
0011
0000
,  // measure 44
0001
0010
0001
0010
0000
0000
0100
0000
0110
0000
0000
1010
0000
0000
1001
0000
,  // measure 45
0000
0000
0001
0000
0000
0000
0002
0000
0013
0000
0000
0110
0000
0000
1001
0000
,  // measure 46
0000
0110
0000
0010
0100
0001
0100
1000
,  // measure 47
0100
0000
0001
0000
0100
0000
0010
0000
0110
0000
0000
0101
0000
0000
1001
0000
,  // measure 48
0000
0000
1000
0000
0001
0000
1000
0000
1001
0000
0000
1010
0000
0000
1100
0000
,  // measure 49
0000
0000
1000
0000
0000
0000
0200
0000
0310
0000
0000
0110
0000
0000
1001
0000
,  // measure 50
0000
0000
0001
0010
0001
0010
0001
0010
0001
0000
0000
0100
0010
0000
0100
0000
,  // measure 51
0001
0000
0010
0000
0100
0000
2000
0000
3001
0000
0000
0100
0010
0000
0100
0000
,  // measure 52
0000
0000
0100
0000
1000
0010
0000
0000
1000
0000
0010
0000
0100
0000
0010
0000
,  // measure 53
0001
0000
0010
0000
0100
0000
0010
0000
1000
0000
0000
0100
0010
0000
0100
0000
,  // measure 54
1000
0000
0001
0000
0100
0000
0002
0000
0000
0000
0003
1000
0100
0000
1000
0000
,  // measure 55
0001
0000
0100
0000
0010
0000
0200
0000
0301
0000
0000
0010
0100
0000
1000
0000
,  // measure 56
0000
0001
0010
0200
0000
0301
0100
1000
,  // measure 57
0100
0000
0010
0000
0001
0000
1000
0000
0010
0000
0000
1000
0000
0000
0001
0000
,  // measure 58
0000
0000
0100
0010
0100
0010
0100
0010
0000
0000
0000
0000
0000
0000
0000
0000
;
