#VERSION:0.83;
#TITLE:TRIP333;
#SUBTITLE:;
#ARTIST:Leotrix;
#TITLETRANSLIT:;
#SUBTITLETRANSLIT:;
#ARTISTTRANSLIT:;
#GENRE:Hyper Riddim;
#ORIGIN:;
#CREDIT:;
#BANNER:TRIP333-bn.png;
#BACKGROUND:TRIP333-bg.png;
#PREVIEWVID:;
#JACKET:TRIP333-jacket.png;
#CDIMAGE:;
#DISCIMAGE:;
#LYRICSPATH:;
#CDTITLE:cdtitle.png;
#MUSIC:TRIP333.ogg;
#OFFSET:-0.002000;
#SAMPLESTART:60.001999;
#SAMPLELENGTH:12.000000;
#SELECTABLE:YES;
#DISPLAYBPM:160.000000;
#BPMS:0.000=160.000,
156.000=320.000,
161.000=160.000;
#STOPS:156.000=0.094,
156.500=0.094,
157.000=0.094,
157.500=0.094,
158.000=0.094,
158.500=0.094;
#DELAYS:;
#WARPS:;
#TIMESIGNATURES:0.000=4=4;
#TICKCOUNTS:0.000=4;
#COMBOS:0.000=1;
#SPEEDS:0.000=1.000=0.000=0;
#SCROLLS:0.000=1.000,
157.500=2.000,
157.583=0.000,
157.667=2.000,
157.750=0.000,
157.833=2.000,
157.917=0.000,
158.000=1.000,
159.000=0.950,
159.250=0.900,
159.500=0.850,
159.750=0.800,
160.000=0.750,
160.250=0.700,
160.500=0.650,
160.750=0.600,
161.000=1.000;
#FAKES:;
#LABELS:0.000=Song Start;
#BGCHANGES:;
#KEYSOUNDS:;
#ATTACKS:
;

//---------------dance-single - ----------------
#NOTEDATA:;
#CHARTNAME:X-Scale 15;
#STEPSTYPE:dance-single;
#DESCRIPTION:;
#CHARTSTYLE:;
#DIFFICULTY:Hard;
#METER:10;
#RADARVALUES:0.678179,0.780659,0.342857,0.272527,0.562637,540.000000,501.000000,39.000000,31.000000,0.000000,0.000000,7.000000,0.000000,0.000000,0.678179,0.780659,0.342857,0.272527,0.562637,540.000000,501.000000,39.000000,31.000000,0.000000,0.000000,7.000000,0.000000,0.000000;
#CREDIT:iamthek3n;
#DISPLAYBPM:160.000000;
#NOTES:
// measure 0
0000
0000
0000
0000
,  // measure 1
0000
0000
0000
0000
,  // measure 2
0000
0000
0000
0000
,  // measure 3
0000
0000
0000
0000
,  // measure 4
1000
0000
0010
2000
0001
0000
3002
0000
,  // measure 5
0010
0000
0100
0203
0001
0000
0320
0000
,  // measure 6
0001
0000
1000
2030
0100
0000
3200
0000
,  // measure 7
0010
0000
0000
0000
1000
0000
1300
0000
0100
1000
0000
0000
0001
0000
0100
0000
,  // measure 8
2000
0000
3000
0001
0010
2000
0000
3002
,  // measure 9
0000
0000
0003
0100
0010
1000
0001
0010
,  // measure 10
0200
0000
0300
1000
0001
0200
0000
0302
,  // measure 11
0000
0000
0003
0010
0001
1000
0010
0100
,  // measure 12
0002
2003
3000
0002
,  // measure 13
2003
0000
3000
0010
0100
0001
1000
0100
,  // measure 14
0020
0032
0003
0020
,  // measure 15
0032
0000
0003
1000
0010
0001
0010
1000
,  // measure 16
1010
0000
0000
0000
1000
0000
0010
1000
0001
0000
0010
0000
0100
0000
0010
0100
,  // measure 17
1000
0000
0010
0000
1000
0000
0100
1000
0001
0000
0100
0000
0010
0000
1000
0001
,  // measure 18
0010
0000
0001
0000
0100
0000
0010
0100
0001
0000
1000
0000
0100
0000
0010
0100
,  // measure 19
1000
0000
0010
0000
1000
0000
0001
0100
0001
0000
0010
0000
0100
0000
1000
0000
,  // measure 20
1100
0000
0000
0000
1001
0000
0000
1000
0001
0000
0011
0000
0001
0000
1000
0000
,  // measure 21
1001
0000
0001
0000
0101
0000
0000
0100
0010
0000
0110
0000
1000
0000
0001
0000
,  // measure 22
0011
0000
0001
0000
0101
0000
0000
0001
1000
0000
1100
0000
0010
0000
1000
0000
,  // measure 23
1010
0000
0000
0110
0000
0000
0011
0000
0010
0001
0000
0000
1000
0000
0010
0000
,  // measure 24
1002
0000
0023
0000
,  // measure 25
2030
0000
3200
0000
,  // measure 26
0302
0010
2003
0001
,  // measure 27
3020
0001
0230
1000
,  // measure 28
0301
0010
0100
1000
0000
0010
1000
0001
,  // measure 29
0000
0100
0001
1000
0000
0100
0010
0001
,  // measure 30
0000
0010
0100
1000
0000
0010
1000
0001
,  // measure 31
0020
0000
0000
0000
0000
0000
0000
0000
0130
0010
0000
0000
0001
0000
1000
0000
,  // measure 32
0001
0010
0100
1000
0100
0010
0001
0100
,  // measure 33
0010
1000
0001
0100
1000
0100
0010
0100
,  // measure 34
0001
1000
0100
0001
0100
1000
0100
0010
,  // measure 35
0001
0010
1000
0010
0100
1000
0001
0100
,  // measure 36
0010
0000
0100
0000
0001
1000
0001
0000
0100
0000
0010
0000
1000
0100
1000
0000
,  // measure 37
0100
0000
0010
0000
0001
0100
0001
0000
0010
0000
0100
0000
1000
0001
1000
0000
,  // measure 38
0100
0000
0010
0000
0001
0100
0001
0000
0010
0000
0100
0000
1000
0100
1000
0000
,  // measure 39
4000
0000
3000
0000
0000
0000
0000
0000
0000
0000
0000
0000
0000
0000
0000
0000
0000
0000
0000
0000
0000
0000
0000
0000
4000
0000
3000
0000
0000
0000
0000
0000
0000
0000
0000
0000
0000
0000
0000
0000
0000
0000
0000
0000
0000
0000
0000
0000
4000
0000
3000
0000
0000
0000
0000
0000
0000
0000
0000
0000
0000
0000
0000
0000
0000
0000
0000
0000
0000
0000
0000
0000
4000
0000
0000
0000
0000
0000
0000
0000
0000
0000
0000
0000
0000
0000
0000
0000
0000
0000
0000
0000
0000
0000
0000
0000
3400
0000
0000
0000
0000
0000
0000
0000
0000
0000
0000
0000
0000
0000
0000
0000
0000
0000
0000
0000
0000
0000
0000
0000
0340
0000
0000
0000
0000
0000
0000
0000
0000
0000
0000
0000
0000
0000
0000
0000
0000
0000
0000
0000
0000
0000
0000
0000
0034
0000
0000
0000
0000
0000
0000
0000
0000
0000
0000
0000
0000
0000
0000
0000
0000
0000
0000
0000
0000
0000
0000
0000
0000
0000
0000
0000
0000
0000
0000
0000
0000
0000
0000
0000
0000
0000
0000
0000
0000
0000
0000
0000
0000
0000
0000
0000
,  // measure 40
0000
0000
0000
0000
1003
0000
0001
1000
0000
1000
0100
0000
1100
0000
0000
1000
,  // measure 41
0000
0100
0010
0000
0001
0000
0000
0100
0000
0100
0010
0000
1000
0000
0000
0010
,  // measure 42
0000
0010
0100
0000
0001
0000
1000
0010
0000
0100
0001
0000
0101
0000
0000
0001
,  // measure 43
0000
0100
0001
0000
1000
0000
0100
0000
0001
0000
1000
0000
0010
0000
0100
0000
,  // measure 44
1000
0000
0001
0000
0010
0000
0100
1000
0000
0100
0010
0000
1001
0000
0000
0100
,  // measure 45
0000
0001
1000
0000
0010
0000
0000
0100
0000
0001
1000
0000
1001
0000
0000
1000
,  // measure 46
0000
0010
0100
0000
0001
0000
0010
0100
0000
0100
1000
0000
1010
0000
0000
1000
,  // measure 47
0000
0001
0010
0000
0001
0000
0010
0000
1000
0000
0010
0000
0001
0000
1000
0000
,  // measure 48
0100
0000
1000
0000
0001
0000
0000
0010
0000
0100
0010
0000
0001
0000
0000
1000
,  // measure 49
0000
0001
0010
0000
0100
1000
0000
0010
0000
0100
0001
0000
1000
0000
0000
0001
,  // measure 50
0000
0010
0100
0000
1000
0000
0000
0100
0000
1000
0010
0000
1000
0000
0000
0001
,  // measure 51
0000
0100
0001
0000
0010
0000
1000
0000
0010
0000
0001
0000
0101
0000
0000
0100
,  // measure 52
0000
0100
0001
0000
1000
0000
0000
0001
0000
0001
0100
0000
0101
0000
0000
0001
,  // measure 53
0000
0001
1000
0000
0100
1000
0000
0010
0000
0100
0001
0000
0101
0000
0000
0001
,  // measure 54
0000
0001
0010
0000
0100
0000
0000
1000
0000
1000
0001
0000
1001
0000
0000
0001
,  // measure 55
0000
0001
1000
0000
0010
0000
0001
0000
0010
0000
0100
0000
0110
0000
0000
0100
,  // measure 56
0000
0001
0010
0000
0001
0000
1000
0100
0000
1000
0100
0000
1100
0000
0000
0100
,  // measure 57
0000
0100
0010
0000
0001
0000
0000
0001
0000
0001
0100
0000
0010
0000
0000
0100
,  // measure 58
0000
0100
0010
0000
1000
0000
0000
1000
0000
1000
0010
0000
0100
0000
0000
0001
,  // measure 59
0000
0001
1000
0000
0010
0000
0001
0000
0010
0000
1000
0000
1010
0000
0000
1000
,  // measure 60
0000
1000
0001
0000
0010
0000
0001
0010
0000
0010
0100
0000
1100
0000
0000
0010
,  // measure 61
0000
1000
0100
0000
0010
0000
0000
0001
0000
0001
0100
0000
0101
0000
0000
0001
,  // measure 62
0000
0010
0100
0000
1000
0000
0100
0010
0000
0010
0001
0000
0011
0000
0000
0010
,  // measure 63
0000
0100
0010
0000
0001
0000
1000
0010
0000
0010
1000
0000
1010
0000
0000
0010
,  // measure 64
0000
1000
0001
0000
0000
1000
0001
1000
0000
1000
0010
0000
1010
0000
0000
1000
,  // measure 65
0000
0100
1000
0000
0001
0000
0000
0100
0000
0010
0100
0000
0001
0000
0000
0010
,  // measure 66
0000
0100
1000
0000
0010
0000
0000
1000
0000
0100
0010
0000
0001
0000
0000
1000
,  // measure 67
0000
0010
1000
0000
0001
0000
0100
0000
1000
0000
0100
0000
0101
0000
0000
1000
,  // measure 68
0000
1000
0001
0000
0010
0000
0001
1000
0000
0001
1000
0000
1100
0000
0000
0001
,  // measure 69
0000
1000
0100
0000
0010
0000
0000
0001
0000
0001
0100
0000
0101
0000
0000
0001
,  // measure 70
0000
0010
0100
0000
1100
0000
1000
0000
0010
0000
0100
0000
0110
0000
1000
0000
,  // measure 71
0001
0010
0110
0100
1100
1000
1001
0001
,  // measure 72
0020
0002
0000
0000
0000
0000
0000
0000
0000
0000
0000
0000
0000
0000
0000
0000
,  // measure 73
0000
0000
0000
0000
,  // measure 74
0033
0000
0000
0000
;

//---------------dance-single - ----------------
#NOTEDATA:;
#CHARTNAME:X-Scale 13;
#STEPSTYPE:dance-single;
#DESCRIPTION:;
#CHARTSTYLE:;
#DIFFICULTY:Medium;
#METER:9;
#RADARVALUES:0.509890,0.715604,0.474725,0.342857,0.259341,406.000000,352.000000,54.000000,39.000000,0.000000,0.000000,0.000000,0.000000,0.000000,0.509890,0.715604,0.474725,0.342857,0.259341,406.000000,352.000000,54.000000,39.000000,0.000000,0.000000,0.000000,0.000000,0.000000;
#CREDIT:iamthek3n;
#DISPLAYBPM:160.000000;
#NOTES:
// measure 0
0000
0000
0000
0000
,  // measure 1
0000
0000
0000
0000
,  // measure 2
0000
0000
0000
0000
,  // measure 3
0000
0000
0000
0000
,  // measure 4
0001
0000
0000
2000
0000
3000
0200
0000
,  // measure 5
1300
0000
0000
0002
0000
0003
0200
0000
,  // measure 6
0301
0000
0000
0020
0000
0030
0200
0000
,  // measure 7
1300
0000
0000
0002
0000
0003
0200
0000
,  // measure 8
0301
0000
0100
0000
0001
1000
0000
0010
,  // measure 9
2000
0001
3200
1000
,  // measure 10
0310
0000
0100
0000
1000
0100
0000
0010
,  // measure 11
0002
0000
0010
0000
2003
0000
0010
3010
,  // measure 12
1000
0001
0100
1000
,  // measure 13
0100
0000
0001
0000
1000
0010
0100
0010
,  // measure 14
1000
0001
0100
0001
,  // measure 15
1000
0000
0000
0010
1000
0001
0100
0010
,  // measure 16
1000
0000
1001
0000
0001
0100
0000
0100
,  // measure 17
1000
0000
1010
0000
1000
0010
0100
0001
,  // measure 18
1000
0000
1001
0000
0001
0010
0000
0010
,  // measure 19
1000
0000
1010
0000
1000
0001
1000
0100
,  // measure 20
0020
0032
0003
0020
,  // measure 21
0032
0000
0003
0000
0010
0100
1000
0001
,  // measure 22
0200
0320
0030
0200
,  // measure 23
0320
0000
0030
0000
1000
0001
0100
0001
,  // measure 24
2000
0000
3020
0000
,  // measure 25
0032
0000
0203
0000
,  // measure 26
2300
0000
3020
0000
,  // measure 27
0032
0000
0203
0000
,  // measure 28
2300
0000
3200
0000
,  // measure 29
0302
0000
0203
0000
,  // measure 30
2300
0000
3002
0000
,  // measure 31
0203
0000
1000
0301
,  // measure 32
0101
0100
0001
1000
,  // measure 33
0001
0100
0001
1000
,  // measure 34
0001
0010
1000
0010
,  // measure 35
0100
1000
0100
0001
,  // measure 36
0100
1000
0001
1000
0100
1000
0001
1000
,  // measure 37
0100
0010
0001
0100
0001
0010
0001
0100
,  // measure 38
0010
1000
0100
0010
0100
1000
0001
0100
,  // measure 39
0002
0000
0000
0000
0013
0100
2000
0000
,  // measure 40
0000
3100
0000
1001
,  // measure 41
1000
0001
1000
0000
0100
0010
0001
0000
,  // measure 42
0100
0001
1000
0000
0010
0100
0001
0000
,  // measure 43
0010
0100
1100
0000
1010
0000
0110
0000
,  // measure 44
0101
0000
0001
0000
0100
0001
1001
0000
,  // measure 45
0010
1000
0001
0000
0100
0010
1000
0000
,  // measure 46
0100
0010
0001
0000
1000
0010
0100
0000
,  // measure 47
0001
0010
0011
0000
1100
0000
1010
0000
,  // measure 48
0101
0000
0000
0000
0001
0000
0000
0001
0000
0001
1000
0000
1001
0000
0000
1000
,  // measure 49
0000
1000
0010
0000
1010
0000
0000
0010
0000
0010
0100
0000
0110
0000
0000
0100
,  // measure 50
0000
0100
0001
0000
0101
0000
0000
0001
0000
0001
1000
0000
1001
0000
0000
1000
,  // measure 51
0000
1000
0100
0000
1100
0000
0000
0000
1010
0000
0000
0000
0110
0000
0000
0000
,  // measure 52
1001
0000
0000
0000
0001
0000
0000
0010
0000
0010
0001
0000
0011
0000
0000
0010
,  // measure 53
0000
0010
0100
0000
1000
0010
0000
1000
0000
1000
0001
0000
1001
0000
0000
0001
,  // measure 54
0000
0001
0010
0000
0011
0000
0000
0010
0000
0010
0100
0000
1010
0000
0000
1000
,  // measure 55
0000
1000
0001
0000
1001
0000
0000
0000
0110
0000
0000
0000
1100
0000
0000
0000
,  // measure 56
0101
0000
0000
0000
0001
0000
0000
1000
0000
1000
0001
0000
1001
0000
0000
1000
,  // measure 57
0000
0000
0100
0000
0100
0000
0000
0010
0000
0000
0010
0000
0001
0000
0000
1000
,  // measure 58
0000
0000
1000
0000
0010
0000
0000
0010
0000
0000
0100
0000
0100
0000
0000
0001
,  // measure 59
0000
0001
0011
0000
1001
0000
0110
0000
,  // measure 60
1100
0000
0000
0000
1000
0000
0000
0100
0000
0100
1000
0000
1100
0000
0000
1000
,  // measure 61
0000
1000
0001
0000
0101
0000
0000
0100
0000
0100
0001
0000
1001
0000
0000
0010
,  // measure 62
0000
0010
1000
0000
1100
0000
0000
0100
0000
0100
0010
0000
0110
0000
0000
0100
,  // measure 63
0000
0100
1000
0000
1100
0000
0000
0000
0101
0000
0000
0000
1100
0000
0000
0000
,  // measure 64
0101
0000
0000
0000
0001
0000
0000
1000
0000
1000
0001
0000
1001
0000
0000
1000
,  // measure 65
0000
0000
0100
0000
0100
0000
0000
0010
0000
0000
0010
0000
0001
0000
0000
1000
,  // measure 66
0000
0000
1000
0000
0010
0000
0000
0010
0000
0000
0100
0000
0100
0000
0000
0001
,  // measure 67
0000
0001
0011
0000
1010
0000
1100
0000
,  // measure 68
1001
0000
0000
0000
1000
0000
0000
0100
0000
0100
1000
0000
1100
0000
0000
1000
,  // measure 69
0000
1000
0001
0000
0101
0000
0000
0100
0000
0100
0001
0000
1001
0000
0000
0010
,  // measure 70
0000
0010
1000
0000
0001
0000
0100
0000
0010
0000
1000
0000
0100
0000
0001
0000
,  // measure 71
0100
0010
0002
0000
1000
0000
0010
0000
,  // measure 72
0100
0200
0000
0000
0000
0000
0000
0000
,  // measure 73
0000
0000
0000
0000
,  // measure 74
0303
0000
0000
0000
;

//---------------dance-single - ----------------
#NOTEDATA:;
#CHARTNAME:X-Scale 7;
#STEPSTYPE:dance-single;
#DESCRIPTION:;
#CHARTSTYLE:;
#DIFFICULTY:Easy;
#METER:5;
#RADARVALUES:0.287598,0.412143,0.167033,0.228571,0.000000,229.000000,210.000000,19.000000,26.000000,0.000000,0.000000,0.000000,0.000000,0.000000,0.287598,0.412143,0.167033,0.228571,0.000000,229.000000,210.000000,19.000000,26.000000,0.000000,0.000000,0.000000,0.000000,0.000000;
#CREDIT:iamthek3n;
#DISPLAYBPM:160.000000;
#NOTES:
// measure 0
0000
0000
0000
0000
,  // measure 1
0000
0000
0000
0000
,  // measure 2
0000
0000
0000
0000
,  // measure 3
0000
0000
0000
0000
,  // measure 4
1000
0000
0010
0000
,  // measure 5
1000
0000
0001
0000
,  // measure 6
1000
0000
0010
0000
,  // measure 7
1000
0000
0001
0100
,  // measure 8
0001
0000
0010
0000
,  // measure 9
0100
0000
1000
0100
,  // measure 10
1000
0000
0001
0000
,  // measure 11
0100
0000
0001
0100
,  // measure 12
0002
2003
3000
0002
,  // measure 13
2003
3000
0100
0010
,  // measure 14
0002
2003
3000
0002
,  // measure 15
2003
3000
0010
1000
,  // measure 16
1010
0000
0010
0000
1000
0100
0000
0100
,  // measure 17
0010
0000
0001
0000
0100
0001
0000
0001
,  // measure 18
1000
0000
0010
0000
1000
0100
0000
0100
,  // measure 19
0010
0000
0001
0000
1000
0001
0000
0001
,  // measure 20
0200
0320
0030
0200
,  // measure 21
0320
0000
1030
0000
0001
0100
0000
0100
,  // measure 22
0020
0230
0300
0020
,  // measure 23
0230
0000
0300
0000
0001
1000
0010
1000
,  // measure 24
0001
0000
1000
0000
,  // measure 25
0001
0000
1000
0000
,  // measure 26
0100
0000
0010
0000
,  // measure 27
0100
0000
0010
0000
,  // measure 28
0001
0000
0100
0000
,  // measure 29
0010
0000
1000
0000
,  // measure 30
0100
0000
0010
0000
,  // measure 31
0001
0000
0000
0000
,  // measure 32
2001
0000
3200
0000
,  // measure 33
0320
0000
0032
0000
,  // measure 34
0203
0000
0320
0000
,  // measure 35
2030
0000
3002
0000
,  // measure 36
0013
0010
0010
0010
,  // measure 37
0100
0100
0100
0100
,  // measure 38
1000
1000
1000
1000
,  // measure 39
2002
0000
0000
0000
,  // measure 40
0000
3003
0000
1001
,  // measure 41
0000
1000
0000
1100
,  // measure 42
0000
0100
0000
1010
,  // measure 43
0000
1000
0001
1000
,  // measure 44
0001
0000
0010
0011
,  // measure 45
0000
0001
0000
1001
,  // measure 46
0000
1000
0000
1010
,  // measure 47
0000
0001
1000
0001
,  // measure 48
1000
0100
0010
0011
,  // measure 49
0000
0001
0000
1001
,  // measure 50
0000
1000
0000
1010
,  // measure 51
0000
0010
0100
0001
,  // measure 52
0010
0100
1000
1001
,  // measure 53
0000
0001
0000
0101
,  // measure 54
0000
0100
0000
0110
,  // measure 55
0000
0100
0001
1000
,  // measure 56
0001
0000
0000
1001
,  // measure 57
1000
0100
1000
0001
,  // measure 58
0100
0001
0010
0100
,  // measure 59
0010
0001
1000
0100
,  // measure 60
0010
0001
1000
0010
,  // measure 61
1000
0001
0010
0100
,  // measure 62
0010
0001
1000
0100
,  // measure 63
0010
0001
0100
0001
,  // measure 64
0010
0100
1000
1001
,  // measure 65
1000
0100
1000
0001
,  // measure 66
0100
0001
0010
0100
,  // measure 67
0010
0001
1000
0010
,  // measure 68
1000
0001
0010
0011
,  // measure 69
1000
0001
0100
0001
,  // measure 70
1000
0000
1100
0000
0100
1000
0001
0000
,  // measure 71
0010
0100
1000
0000
0001
0000
1000
0001
,  // measure 72
0010
0001
0000
0000
0000
0000
0000
0000
;

//---------------dance-single - DANCERUSH Special----------------
#NOTEDATA:;
#CHARTNAME:X-Scale 14;
#STEPSTYPE:dance-single;
#DESCRIPTION:DANCERUSH Special;
#CHARTSTYLE:;
#DIFFICULTY:Challenge;
#METER:10;
#RADARVALUES:0.528728,0.683077,0.448352,0.272527,0.202198,421.000000,370.000000,51.000000,31.000000,154.000000,0.000000,0.000000,29.000000,0.000000,0.528728,0.683077,0.448352,0.272527,0.202198,421.000000,370.000000,51.000000,31.000000,154.000000,0.000000,0.000000,29.000000,0.000000;
#CREDIT:iamthek3n -EXTRA-;
#DISPLAYBPM:160.000000;
#NOTES:
// measure 0
0000
0000
0000
0000
,  // measure 1
0000
0000
0000
0000
,  // measure 2
0000
0000
0000
0000
,  // measure 3
0000
0000
0000
0000
,  // measure 4
0002
0000
1003
L010
,  // measure 5
02L0
0000
0301
001L
,  // measure 6
02L0
0000
1300
L001
,  // measure 7
002L
0000
0130
1L00
,  // measure 8
L001
1000
0010
1000
0100
0001
0100
0010
,  // measure 9
0002
0000
0000
0003
200L
0000
0000
3000
,  // measure 10
L010
1000
0001
0010
1000
0010
0001
0100
,  // measure 11
0020
0000
0000
0030
20L0
0000
0000
3001
,  // measure 12
L00L
1000
0100
0001
0100
0010
0001
0100
,  // measure 13
0020
0000
0000
0030
20L0
0000
0000
3000
,  // measure 14
L100
1000
0001
0100
0001
1000
0010
0100
,  // measure 15
0002
0000
0000
0003
200L
0000
0000
3100
,  // measure 16
LL00
0000
0100
1000
0001
0100
0010
1000
,  // measure 17
1100
0100
0010
0001
1000
0010
1000
0001
,  // measure 18
1001
1000
0010
0100
1000
0100
0010
1000
,  // measure 19
1010
1000
0100
0001
0100
0010
0001
1000
,  // measure 20
1010
0000
0000
0000
0011
0000
0000
0010
0100
0000
0010
0000
0001
0000
1000
0000
,  // measure 21
1010
0010
0100
0001
0010
1000
0010
0001
,  // measure 22
0011
0000
0000
0000
1010
0000
0000
1000
0010
0000
1000
0000
0001
0000
0010
0000
,  // measure 23
0011
0000
0000
0110
0000
0000
1001
0000
0000
1010
0000
0000
0110
0000
0000
0000
,  // measure 24
2001
0100
3002
0010
,  // measure 25
2003
0100
3020
0001
,  // measure 26
0230
1000
0302
0010
,  // measure 27
2003
0100
3020
0100
,  // measure 28
1030
0100
0010
0002
0003
010L
0001
2000
,  // measure 29
3000
L010
1000
0200
0300
0L10
0100
2000
,  // measure 30
3000
L001
0010
0200
0300
1L00
0001
0200
,  // measure 31
0020
0000
0000
0000
0000
0330
0LL0
0000
,  // measure 32
1001
0000
1000
0100
00M0
0100
0001
0010
,  // measure 33
0M00
0010
1000
0100
00M0
0100
0001
1000
,  // measure 34
0010
1000
0100
0010
000M
0010
1000
0100
,  // measure 35
00M0
0100
0001
0010
0M00
0010
1000
0001
,  // measure 36
1000
0100
0010
0001
1000
0100
0010
0001
,  // measure 37
1000
0010
0100
0001
1000
0010
0100
0001
,  // measure 38
1000
0100
0001
0100
1000
0100
0001
0100
,  // measure 39
1000
1000
1000
1000
1000
0020
0200
0000
,  // measure 40
0000
0330
0LL0
0000
0000
0000
1000
0000
,  // measure 41
MMMM
1000
MMMM
1000
,  // measure 42
MMMM
0001
MMMM
0001
,  // measure 43
MMMM
0001
0100
1000
,  // measure 44
0100
0000
0001
MMMM
0001
MMMM
0001
0000
,  // measure 45
MMMM
0001
MMMM
0001
,  // measure 46
MMMM
1000
MMMM
1000
,  // measure 47
MMMM
1000
0100
0001
,  // measure 48
0010
0000
0000
0000
1000
0000
0000
0100
0000
0000
1000
0000
1100
0000
0000
0001
,  // measure 49
0000
0000
0100
0000
0001
0100
0000
0010
0000
0000
1000
0000
1100
0000
0000
1000
,  // measure 50
0000
1000
0010
0000
0100
0000
0000
0001
0000
0000
0010
0000
0110
0000
0000
0100
,  // measure 51
0000
0000
1000
0000
0001
0000
MMMM
0000
0001
0000
MMMM
0000
0001
0000
0000
0010
,  // measure 52
0000
0010
0100
0000
1000
0000
0000
0100
0000
0000
1000
0000
1100
0000
0000
1000
,  // measure 53
0000
0000
0001
0000
0100
0001
0000
1000
0000
0000
0010
0000
1010
0000
0000
1000
,  // measure 54
0000
0100
1000
0000
0001
0000
0000
1000
0000
0000
0001
0000
0011
0000
0000
0010
,  // measure 55
0000
0000
0100
0000
1000
0000
MMMM
0000
1000
0000
MMMM
0000
1000
0000
0000
0010
,  // measure 56
0000
0010
0100
0000
MMMM
0000
0000
0000
0000
0000
0000
0000
1000
0000
MMMM
0000
,  // measure 57
1000
0000
MMMM
0000
1000
0000
MMMM
0000
1000
0000
MMMM
0000
1000
0000
0000
0010
,  // measure 58
0000
0010
0100
0000
0001
0000
MMMM
0000
0001
0000
MMMM
0000
0001
0000
MMMM
0000
,  // measure 59
0001
MMMM
0001
0010
1000
0010
0001
0010
,  // measure 60
0100
0000
1000
0000
0001
0000
0000
0010
0000
0000
0100
0000
1100
0000
0000
0001
,  // measure 61
0000
0000
1000
0000
1010
0000
0000
0001
0000
0001
1000
0000
1001
0000
0000
0100
,  // measure 62
0000
0100
1000
0000
0001
0000
0000
1000
0000
0000
0100
0000
1100
0000
0000
1000
,  // measure 63
0000
0000
0001
0000
1000
0000
MMMM
0000
1000
0000
MMMM
0000
1000
0000
0000
0100
,  // measure 64
0000
0100
0010
0000
0001
0000
MMMM
0000
0001
0000
MMMM
0000
0001
0000
0000
0100
,  // measure 65
0000
0000
0001
0000
1000
0000
MMMM
0000
1000
0000
MMMM
0000
1000
0000
0000
0100
,  // measure 66
0000
0000
0010
0000
0001
0000
MMMM
0000
0001
0000
MMMM
0000
0001
0000
0000
0010
,  // measure 67
0000
0001
1000
0010
0001
0010
1000
MMMM
,  // measure 68
1000
0000
MMMM
0000
1000
0000
0000
0100
0000
0000
1000
0000
1100
0000
0000
1000
,  // measure 69
0000
0000
0001
0000
0100
0000
0000
0010
0000
0010
1000
0000
1100
0000
0000
1000
,  // measure 70
0000
1000
0001
0000
1000
0000
0000
0000
MMMM
0000
0000
0000
1000
0000
0000
0000
,  // measure 71
MMMM
0000
1000
0100
0001
0100
0010
0100
,  // measure 72
2000
0002
0000
0000
0000
0000
0000
0000
0000
0000
0000
0000
0000
0000
0000
0000
,  // measure 73
0000
0000
0000
0000
0000
0000
0000
3003
,  // measure 74
L00L
0000
0000
0000
;

//---------------dance-single - ----------------
#NOTEDATA:;
#CHARTNAME:X-Scale 4;
#STEPSTYPE:dance-single;
#DESCRIPTION:;
#CHARTSTYLE:;
#DIFFICULTY:Beginner;
#METER:2;
#RADARVALUES:0.146939,0.221538,0.026374,0.008791,0.000000,117.000000,114.000000,3.000000,1.000000,0.000000,0.000000,0.000000,0.000000,0.000000,0.146939,0.221538,0.026374,0.008791,0.000000,117.000000,114.000000,3.000000,1.000000,0.000000,0.000000,0.000000,0.000000,0.000000;
#CREDIT:iamthek3n;
#DISPLAYBPM:160.000000;
#NOTES:
// measure 0
0000
0000
0000
0000
,  // measure 1
0000
0000
0000
0000
,  // measure 2
0000
0000
0000
0000
,  // measure 3
0000
0000
0000
0000
,  // measure 4
0001
0000
0000
0000
,  // measure 5
1000
0000
0000
0000
,  // measure 6
0001
0000
0000
0000
,  // measure 7
1000
0000
0000
0000
,  // measure 8
0100
0000
0000
0000
,  // measure 9
0010
0000
0000
0000
,  // measure 10
0100
0000
0000
0000
,  // measure 11
0010
0000
0000
0000
,  // measure 12
0001
0000
0000
0000
,  // measure 13
1000
0000
0000
0000
,  // measure 14
0001
0000
0000
0000
,  // measure 15
1000
0000
0000
0000
,  // measure 16
0001
0000
0000
0000
,  // measure 17
1000
0000
0000
0000
,  // measure 18
0010
0000
0000
0000
,  // measure 19
1000
0000
0000
0000
,  // measure 20
0001
0000
0000
0000
,  // measure 21
0010
0000
0000
0000
,  // measure 22
0100
0000
0000
0000
,  // measure 23
1000
0000
0000
0000
,  // measure 24
0001
0000
1000
0000
,  // measure 25
0010
0000
1000
0000
,  // measure 26
0001
0000
1000
0000
,  // measure 27
0010
0000
1000
0000
,  // measure 28
0001
0000
0010
0000
,  // measure 29
0100
0000
0010
0000
,  // measure 30
0001
0000
0010
0000
,  // measure 31
0100
0000
0000
0000
,  // measure 32
1000
0000
0100
0000
,  // measure 33
0010
0000
0001
0000
,  // measure 34
1000
0000
0001
0000
,  // measure 35
0010
0000
0100
0000
,  // measure 36
1000
0000
0001
0000
,  // measure 37
0100
0000
0001
0000
,  // measure 38
1000
0000
0001
0000
,  // measure 39
0100
0000
0000
0000
,  // measure 40
0000
0000
0000
1001
,  // measure 41
0000
1000
0000
0001
,  // measure 42
0000
0100
0000
0001
,  // measure 43
0000
1000
0000
0100
,  // measure 44
0000
0010
0000
0001
,  // measure 45
0000
1000
0000
0001
,  // measure 46
0000
0010
0000
0100
,  // measure 47
0000
1000
0000
0001
,  // measure 48
0000
1000
0000
0010
,  // measure 49
0000
1000
0000
0001
,  // measure 50
0000
1000
0000
0010
,  // measure 51
0000
0100
0000
0001
,  // measure 52
0000
1000
0000
0001
,  // measure 53
0000
0010
0000
0001
,  // measure 54
0000
1000
0000
0001
,  // measure 55
0000
0100
0000
0001
,  // measure 56
0000
0000
0000
1001
,  // measure 57
0000
1000
0000
0100
,  // measure 58
0000
0010
0000
0001
,  // measure 59
0000
1000
0000
0001
,  // measure 60
0000
0100
0000
0001
,  // measure 61
0000
1000
0000
0100
,  // measure 62
0000
0010
0000
0100
,  // measure 63
0000
1000
0000
0001
,  // measure 64
0000
0010
0000
0100
,  // measure 65
0000
0010
0000
0001
,  // measure 66
0000
1000
0000
0001
,  // measure 67
0000
0100
0000
0001
,  // measure 68
0000
1000
0000
0100
,  // measure 69
0000
0010
0000
0001
,  // measure 70
0000
2001
0000
0010
,  // measure 71
0000
0001
0001
0001
,  // measure 72
3001
0000
0000
0000
;
