#TITLE:TOY;
#SUBTITLE:;
#ARTIST:Netta;
#TITLETRANSLIT:;
#SUBTITLETRANSLIT:;
#ARTISTTRANSLIT:;
#GENRE:Pop;
#CREDIT:;
#BANNER:TOY-bn.png;
#BACKGROUND:TOY-bg.png;
#LYRICSPATH:;
#CDTITLE:cdtitle.png;
#MUSIC:TOY.ogg;
#OFFSET:-0.208000;
#SAMPLESTART:65.976997;
#SAMPLELENGTH:14.885000;
#SELECTABLE:YES;
#BPMS:0.000000=130.000000
;
#STOPS:
;
#BGCHANGES:
;
#KEYSOUNDS:;
#ATTACKS:;

//---------------dance-single - ----------------
#NOTES:
     dance-single:
     X-Scale 6:
     Easy:
     3:
     0.254963,0.369364,0.038799,0.147435,0.000000,230.000000,225.000000,5.000000,19.000000,0.000000,0.000000,0.254963,0.369364,0.038799,0.147435,0.000000,230.000000,225.000000,5.000000,19.000000,0.000000,0.000000:
0000
0000
0000
0000
,
0000
0000
0000
0000
,
0000
0000
0000
0000
,
0000
0000
0000
0000
,
0001
0000
0000
0010
0000
0000
0020
0000
,
0000
0030
0000
0010
0000
0000
0020
0000
,
0130
0000
0000
0100
0000
0000
0100
0000
,
0100
0000
0000
0100
0000
0000
0100
0000
,
2000
0000
0000
0010
0000
0000
0001
0000
,
3002
0000
0000
1000
0000
0000
0100
0000
,
0203
0000
0000
1000
0000
0000
0010
0000
,
0320
0000
0000
0001
0000
0000
1000
0000
,
1030
0000
0001
0000
,
0010
0000
0100
0010
,
0100
0000
1000
0000
,
0001
0000
0100
0001
,
0100
0000
0010
0000
,
1000
0000
0001
1000
,
0001
0000
0000
0001
0020
0030
0000
0000
,
0001
0000
0000
0001
0020
0030
0100
0000
,
1100
0000
0100
1000
,
0001
0000
0100
0010
,
1000
0000
0001
0010
,
0100
0010
0001
0010
,
0001
0000
0100
0010
,
0100
0000
0001
0100
,
0001
0000
1000
0100
,
1000
0000
0001
0000
,
2001
0000
0010
0000
,
0001
0000
0100
0000
,
3002
0000
0100
0000
,
1000
0000
0010
0000
,
1003
0000
0000
1000
0000
0000
1000
0000
,
0001
0000
0000
0001
0000
0000
0001
0010
,
0100
1000
0100
1000
,
0010
0100
0001
0000
,
0101
0100
0001
0010
,
0200
0000
1000
0000
0000
0000
1300
0100
,
0010
0001
1000
0001
,
0200
0000
0010
0000
0000
0000
0310
0100
,
0001
0010
0100
1000
,
0010
0100
0001
1000
,
0100
0000
0010
0100
1000
0000
0001
0010
,
0100
0000
0010
0100
1000
0000
0001
0010
,
0100
0010
0100
1000
,
0002
1000
0203
0000
,
0310
0100
0001
1000
,
0200
0000
0320
0000
,
0230
0000
1000
0000
,
0010
0000
1000
0000
,
0320
0000
0000
0000
,
0032
0000
0000
0000
,
1000
0000
0010
0000
,
1000
0003
0000
0000
0100
0000
0010
0100
,
1000
0001
0100
0001
,
1000
0000
0000
0000
0010
0000
1000
0001
,
0010
0100
1000
0001
,
1000
0010
0100
0001
,
1000
0000
0010
0100
0001
0000
1000
0010
,
0100
0010
1000
0100
0010
0000
0001
0000
,
0011
0000
0010
0100
0010
0000
0001
1000
,
0100
1000
0001
0000
0010
0000
0100
0000
,
1000
0000
0010
1000
0001
0000
0010
0100
,
1000
0001
1000
0000
0010
0000
0100
0000
,
0001
0000
0010
0100
0010
0000
0010
0100
,
0010
0000
0010
0100
0010
0000
0010
0000
,
0001
0000
1000
0010
1000
0000
1000
0010
,
1000
0000
1000
0010
1000
0000
1000
0000
,
1001
0000
0000
0000
;

//---------------dance-single - ----------------
#NOTES:
     dance-single:
     X-Scale 10:
     Medium:
     7:
     0.466694,0.554047,0.046559,0.116396,0.275471,421.000000,415.000000,6.000000,15.000000,0.000000,0.000000,0.466694,0.554047,0.046559,0.116396,0.275471,421.000000,415.000000,6.000000,15.000000,0.000000,0.000000:
// measure 0
0000
0000
0000
0000
,  // measure 1
0000
0000
0000
0000
,  // measure 2
0000
0000
0000
0000
,  // measure 3
0000
0000
0000
0000
,  // measure 4
1000
0001
0000
1000
0000
1000
0002
0000
,  // measure 5
0000
0003
0001
0010
0000
0010
0001
1000
,  // measure 6
0100
1000
0000
0010
0000
0010
2000
0000
,  // measure 7
0000
3000
1000
0010
0000
0010
1000
0100
,  // measure 8
2000
0010
0000
0010
0000
0001
0010
0000
,  // measure 9
3002
0000
1000
0100
0000
1000
0100
0000
,  // measure 10
2003
0001
0000
0010
0000
0010
0001
0000
,  // measure 11
3002
0000
0010
0100
0000
0010
0100
0010
,  // measure 12
0013
0000
0001
1000
0001
0000
1000
0010
,  // measure 13
0001
0010
0100
0000
0001
0000
1000
0000
,  // measure 14
0001
0000
0100
0010
0100
0000
0001
1000
,  // measure 15
0001
0010
0100
0000
0010
0000
0002
0000
,  // measure 16
1003
0000
0000
0000
0001
0000
0010
0000
0001
0000
0000
0100
0000
0000
1000
0000
,  // measure 17
0001
0000
0000
0010
0000
0000
1000
0000
0100
0000
0000
0000
0010
0000
0100
0000
,  // measure 18
1000
0000
0000
1000
0000
0000
1000
0000
0100
0000
0000
0010
0000
0000
0100
0000
,  // measure 19
0010
0000
0000
0010
0000
0000
0010
0000
0001
0000
0000
0010
0100
0000
0001
0000
,  // measure 20
1100
0000
0000
0100
0000
0000
1000
0000
0001
0000
0000
0100
0010
0000
0100
0000
,  // measure 21
0001
0000
0000
0010
0000
0000
0001
1000
0001
0000
0000
0010
0000
0000
0001
0000
,  // measure 22
0100
0000
0000
0010
0000
0000
0100
0000
0001
0000
0000
1000
0100
0000
1000
0000
,  // measure 23
0020
0000
2030
0001
3002
0000
0023
0000
,  // measure 24
0130
0000
0000
0000
0000
0000
0000
0000
0000
0100
0000
0000
0000
0000
0000
0000
0000
0000
1000
0000
0000
0000
0000
0000
0001
0000
0000
0000
0000
0000
0000
0000
0000
0010
0000
0000
0001
0000
0000
0000
0100
0000
0000
0000
0010
0000
0000
0000
,  // measure 25
1000
0000
0000
0000
0000
0000
0000
0000
0000
0010
0000
0000
1000
0000
0000
0000
0000
0000
0001
0000
0000
0000
0000
0000
0010
0000
0000
0000
0000
0000
0000
0000
0000
0000
0000
0000
0001
0000
0000
0000
0010
0000
0000
0000
0100
0000
0000
0000
,  // measure 26
1000
0000
0000
0000
0000
0000
0000
0000
0000
0100
0000
0000
1000
0000
0000
0000
0000
0000
0100
0000
0000
0000
0000
0000
1000
0000
0000
0000
0010
0000
0000
0000
0100
0000
0000
0000
0001
0000
0000
0000
0000
0000
0100
0000
0000
0000
0000
0000
,  // measure 27
0001
0000
0000
0001
1000
0000
0001
0000
0010
0000
0000
0100
1000
0000
0010
0000
,  // measure 28
0210
0000
1000
0000
,  // measure 29
0301
0100
1000
0100
0010
0000
0000
0000
,  // measure 30
0020
0000
0001
0000
,  // measure 31
1030
0000
0010
0000
0001
0000
0010
0000
0100
0000
0000
0000
0000
0000
1000
0001
,  // measure 32
1000
0000
0000
0100
0000
0000
1000
0000
0000
0010
0100
0000
0010
0000
0000
0000
,  // measure 33
1000
0000
0000
0001
0000
0000
0100
0000
0000
0010
0100
0000
0001
0000
1000
0000
,  // measure 34
0001
0000
0000
0010
0001
0000
0100
0000
0001
0000
0010
0000
0100
0000
0010
0000
,  // measure 35
0001
0100
0001
0100
0001
0100
0001
0100
0001
0000
0000
0000
0000
0000
0000
0000
,  // measure 36
1100
0000
1000
0010
1000
0000
0010
0100
,  // measure 37
0010
0000
0100
0001
0100
0010
0001
0010
,  // measure 38
0100
0000
0001
0100
0001
0000
0100
0010
,  // measure 39
0100
0000
0010
1000
0010
0000
1000
0100
,  // measure 40
1000
0000
0000
0001
0010
0000
0001
0000
0100
0000
0000
0010
0100
0000
0010
0000
,  // measure 41
1000
0000
0000
0100
1000
0000
0001
0000
0010
0000
0000
0001
0100
0000
0001
0000
,  // measure 42
0010
0100
1000
0010
0001
0000
0001
0010
,  // measure 43
1000
0000
0010
0000
1000
0000
0010
0000
0100
0000
0000
0010
0100
0000
0001
0000
,  // measure 44
0010
0000
0000
0100
0010
0000
0100
0000
1000
0000
0000
0001
1000
0000
0100
0000
,  // measure 45
0010
0000
0001
0010
0001
0000
0010
0001
0010
0000
0000
0100
1000
0000
0001
0000
,  // measure 46
1000
0000
0000
0100
0010
0000
0100
0000
1000
0000
0000
0001
0100
0000
0001
0000
,  // measure 47
1000
0000
0100
0010
0100
0000
0010
0100
0010
0000
0000
0001
0100
0000
0001
0000
,  // measure 48
0101
0000
0000
1000
0000
0000
0001
0000
0010
0000
0000
0100
0000
0000
0010
0000
,  // measure 49
0001
0000
0000
1000
0000
0000
0010
0000
0100
0000
0000
0001
0000
0000
0010
0000
,  // measure 50
0002
0000
0000
0000
,  // measure 51
0023
0000
0000
0000
,  // measure 52
0130
0000
0000
0000
0100
0000
0010
0000
0001
0000
0000
0100
0000
0000
0001
0000
,  // measure 53
0010
0000
0000
0000
0100
0000
1000
0100
1000
0000
0100
0000
0001
0000
0010
0000
,  // measure 54
1000
0000
0001
1000
0100
0000
1000
0001
,  // measure 55
0100
0000
0000
0000
0001
0000
0010
0001
0010
0000
0000
0000
0001
0000
0010
0000
,  // measure 56
0100
0000
0000
0000
0010
0000
0000
0000
0001
0000
1000
0001
1000
0000
0010
0000
,  // measure 57
0100
0000
0000
0000
0001
0000
0000
0000
0010
0000
0100
0010
0100
0000
0010
0000
,  // measure 58
0001
1000
0100
1000
0001
0000
0100
0010
,  // measure 59
1000
0000
0001
0000
1000
0000
0001
0000
1000
0000
0000
0100
0010
0000
0100
0000
,  // measure 60
1100
0000
0000
0000
0010
0000
1000
0000
0001
0000
0000
0001
0100
0000
0001
0000
,  // measure 61
0010
0000
0100
0000
1000
0000
0000
0000
0010
0000
0000
0100
0010
0000
0100
0000
,  // measure 62
0001
0000
0000
1000
0001
0000
1000
0000
0100
0000
0000
1000
0100
0000
0010
0000
,  // measure 63
0001
0000
0010
0000
0100
0000
0000
0000
0010
0000
0000
0001
1000
0000
0001
0000
,  // measure 64
0010
0000
0000
0100
0010
0000
0100
0000
0010
0000
0000
0001
1000
0000
0001
0000
,  // measure 65
1000
0000
0000
0010
0100
0000
0010
0000
0100
0000
0000
0000
0100
0000
0001
0000
,  // measure 66
0010
0000
0000
0010
0100
0000
0010
0000
0100
0000
0000
1000
0001
0000
1000
0000
,  // measure 67
0001
0000
0000
0100
0010
0000
0100
0000
0010
0000
0000
0000
0010
0000
0100
0000
,  // measure 68
0110
0000
0000
0000
;

//---------------dance-single - ----------------
#NOTES:
     dance-single:
     X-Scale 13:
     Hard:
     9:
     0.603044,0.659579,0.077598,0.139676,0.578102,544.000000,534.000000,10.000000,18.000000,5.000000,0.000000,0.603044,0.659579,0.077598,0.139676,0.578102,544.000000,534.000000,10.000000,18.000000,5.000000,0.000000:
// measure 0
0000
0000
0000
0000
,  // measure 1
0000
0000
0000
0000
,  // measure 2
0000
0000
0000
0000
,  // measure 3
0000
0000
0000
0000
,  // measure 4
1000
0001
0000
0010
0000
0001
0020
0000
,  // measure 5
0000
0000
0030
0000
0001
0000
0010
0000
0000
0000
0001
0000
0100
0000
0010
1000
,  // measure 6
0010
0100
0000
0001
0010
0000
0100
1000
0000
0001
0100
0000
0002
0000
0000
0000
,  // measure 7
0013
0001
0000
1000
0010
0000
0100
0001
0000
0010
0100
0000
0010
0000
0001
0000
,  // measure 8
1000
0010
0000
0100
0001
0000
0010
0100
0000
0010
0001
0000
0020
0000
0000
0000
,  // measure 9
0031
0010
0000
0100
1000
0000
0010
1000
0000
0001
0010
0000
0100
0000
0010
0000
,  // measure 10
0001
0010
0000
0001
0100
0000
0010
1000
0000
0100
0010
0000
0002
0000
0000
0000
,  // measure 11
1003
0001
0000
0100
0010
0000
0100
0001
0000
1000
0001
0000
0010
0000
0001
0000
,  // measure 12
0011
0000
0000
0001
1000
0000
0001
0000
0010
0000
0000
0100
1000
0000
0001
0000
,  // measure 13
0010
0000
1000
0000
0010
0000
0100
0000
1000
0000
0000
0000
0010
1000
0010
1000
,  // measure 14
0010
0000
0000
1000
0001
0000
1000
0000
0100
0000
0000
1000
0001
0000
0010
0000
,  // measure 15
0100
0000
0000
0010
0001
0000
0100
0000
0020
0000
0000
0000
2030
0000
0000
0000
,  // measure 16
3001
0000
0000
0010
0001
0000
1000
0000
0001
0000
0000
0010
0100
0000
1000
0000
,  // measure 17
0001
0000
0000
1000
0010
0000
1000
0000
0001
0000
0000
0000
0100
0010
0100
0010
,  // measure 18
0100
0000
0000
0010
0000
0000
0010
0000
2000
3000
0002
0003
2000
3000
4000
0000
,  // measure 19
3100
0000
0000
0100
0000
0000
0100
0000
0020
0000
0230
0000
0310
0100
0010
0000
,  // measure 20
0110
0000
0000
0000
0000
0000
0000
0000
0000
0100
0000
0000
1000
0000
0000
0000
0000
0000
0001
0000
0000
0000
0000
0000
1000
0000
0000
0000
0010
0000
0000
0000
0100
0000
0000
0000
0001
0000
0000
0000
0010
0000
0000
0000
0100
0000
0000
0000
,  // measure 21
1000
0000
0000
0000
0000
0000
0000
0000
0000
0100
0000
0000
0010
0000
0000
0000
0000
0000
0100
0000
0000
1000
0000
0000
0100
0000
0000
0000
1000
0000
0000
0000
0001
0000
0000
0000
1000
0000
0000
0000
0010
0000
0000
0000
0100
0000
0000
0000
,  // measure 22
0001
0000
0000
0000
0000
0000
0000
0000
0000
0010
0000
0000
0001
0000
0000
0000
0000
0000
0010
0000
0000
0000
0000
0000
0100
0000
0000
0000
1000
0000
0000
0000
0001
0000
0000
0000
0010
0000
0000
0000
0000
0000
0001
0000
0000
0000
0000
0000
,  // measure 23
1000
0000
0000
0100
0010
0000
0100
0000
1000
0000
0000
0010
0100
0000
0010
0000
,  // measure 24
0110
0000
0000
0000
0000
0000
0000
0000
0000
0100
0000
0000
0001
0000
0000
0000
0000
0000
1000
0000
0000
0000
0000
0000
0001
0000
0000
0000
1000
0000
0000
0000
0100
0000
0000
0000
1000
0000
0000
0000
0001
0000
0000
0000
0010
0000
0000
0000
,  // measure 25
0100
0000
0000
0000
0000
0000
0000
0000
0000
0010
0000
0000
0100
0000
0000
0000
0000
0000
0010
0000
0000
0000
0000
0000
0001
0000
0000
0000
1000
0000
0000
0000
0100
0000
0000
0000
0010
0000
0000
0000
0100
0000
0000
0000
1000
0000
0000
0000
,  // measure 26
0010
0000
0000
0000
0000
0000
0000
0000
0000
1000
0000
0000
0010
0000
0000
0000
0000
0000
0100
0000
0000
0000
0000
0000
0001
0000
0000
0000
0100
0000
0000
0000
0001
0000
0000
0000
0010
0000
0000
0000
0000
0000
0001
0000
0000
0000
0000
0000
,  // measure 27
1000
0000
0000
0001
1000
0000
0001
0000
0010
0000
0100
0010
0100
0000
0010
0000
,  // measure 28
0110
0000
0100
0010
0100
1000
0100
0010
,  // measure 29
0001
1000
0010
0200
1000
0000
0000
0000
,  // measure 30
0301
0000
1000
0001
0010
1000
0010
0001
,  // measure 31
0100
0000
0010
0000
1000
0000
0200
0000
0001
0000
0000
0000
0000
0000
1300
0001
,  // measure 32
1000
0100
00M0
0100
0001
0000
1000
0100
00M0
0100
0001
0000
0200
0000
0000
0300
,  // measure 33
0001
0010
0M00
0010
1000
0000
0001
0010
0M00
0010
1000
0000
0001
0000
1000
0000
,  // measure 34
0001
0100
00M0
0100
1000
0000
0100
1000
0000
0100
1000
0000
0100
1000
0000
0100
,  // measure 35
0010
0001
1000
0001
0010
0100
1000
0010
1000
0000
0100
0000
0010
0000
0001
0000
,  // measure 36
1001
0000
0000
0001
1000
0000
0100
0000
1000
0000
0000
0100
0010
0000
0100
0000
,  // measure 37
1000
0000
0000
0001
0010
0000
0001
0000
0100
0000
1000
0000
0100
0000
0001
0000
,  // measure 38
0010
0000
0000
0100
1000
0000
0001
0000
1000
0000
0000
0010
0100
0000
0001
0000
,  // measure 39
1000
0000
0000
0001
0010
0000
0001
1000
0001
0000
0000
0100
0010
0000
1000
0000
,  // measure 40
0001
0000
0000
0010
0100
0000
1000
0000
0001
0000
0000
1000
0010
0000
1000
0000
,  // measure 41
0001
0000
0000
0010
0100
0000
0010
0000
0001
0000
0000
1000
0100
0000
1000
0000
,  // measure 42
0010
0100
0001
0010
0100
0000
0010
0100
,  // measure 43
1000
0000
0010
0000
1000
0000
0010
0000
0100
0000
0000
0010
0100
0000
0001
0000
,  // measure 44
1001
0000
0000
1000
0100
0000
1000
0000
0001
0000
0000
0010
0100
0000
0010
0000
,  // measure 45
0001
0000
1000
0100
0001
0000
1000
0010
0001
0000
0000
1000
0001
0000
0100
0000
,  // measure 46
0010
0000
0000
0100
0001
0000
0010
0000
0100
0000
0000
1000
0100
0000
1000
0000
,  // measure 47
0001
0000
1000
0100
0001
0000
1000
0010
0001
0000
0000
1000
0001
0000
1000
0000
,  // measure 48
1001
0000
0000
1000
0000
0000
1000
0000
0001
0000
0000
0100
0000
0000
0001
0000
,  // measure 49
0010
0000
0000
0010
0000
0000
0010
0000
0100
0000
0000
0010
0000
0000
0001
0000
,  // measure 50
2000
0000
0000
0000
,  // measure 51
3002
0000
0003
0002
0000
0003
0002
0000
0003
0000
0001
0000
0010
0000
0100
0000
,  // measure 52
0110
0000
0000
0010
0100
0000
0010
0000
0001
0000
1000
0001
1000
0000
0010
0000
,  // measure 53
0100
0000
0000
0001
0100
0000
0001
0010
0001
0000
0010
0000
1000
0000
0010
0000
,  // measure 54
0001
0000
0000
1000
0001
0000
1000
0000
0100
0000
0010
0100
0010
0000
0001
0000
,  // measure 55
1000
0000
0001
0010
0001
0000
0100
0010
1000
0000
0000
1000
0001
0000
1000
0000
,  // measure 56
0100
0000
0000
0010
0100
0000
0010
0000
0001
0000
1000
0001
1000
0000
0010
0000
,  // measure 57
0100
0000
0000
0001
0100
0000
0001
0000
0010
0000
0100
0010
0100
0000
0010
0000
,  // measure 58
0001
0000
0100
0000
0001
0000
1000
0001
0000
0001
0000
0001
0100
0000
0010
0000
,  // measure 59
1000
0000
0001
0000
1000
0000
0001
0000
1000
0000
0000
0100
0010
0000
0100
0000
,  // measure 60
1100
0000
0000
1000
0001
0000
1000
0000
0100
0000
0010
0100
0010
0000
0001
0000
,  // measure 61
1000
0000
0001
0100
0001
0000
0010
0000
0100
0000
0001
0000
0100
0000
1000
0000
,  // measure 62
0010
0000
0000
1000
0001
0000
1000
0000
0100
0000
0000
1000
0001
0000
1000
0000
,  // measure 63
0010
0000
0100
0001
0100
0000
0100
0000
0001
0000
1000
0000
0001
0000
0100
0000
,  // measure 64
0010
0000
0000
0100
0010
0000
0100
0000
0001
0000
0000
1000
0001
0000
1000
0000
,  // measure 65
0100
0000
0000
0010
0100
0000
1000
0000
0001
0000
0000
0100
0001
0000
0100
0000
,  // measure 66
0001
0000
0000
0010
0100
0000
0010
0000
0001
0000
0000
1000
0001
0000
1000
0000
,  // measure 67
0100
0000
0000
0010
0100
0000
0010
0000
0001
0000
0000
1000
0001
0000
0100
0000
,  // measure 68
0101
0000
0000
0000
;

//---------------dance-single - ----------------
#NOTES:
     dance-single:
     X-Scale 2:
     Beginner:
     2:
     0.117505,0.158299,0.038799,0.000000,0.000000,106.000000,101.000000,5.000000,0.000000,0.000000,0.000000,0.117505,0.158299,0.038799,0.000000,0.000000,106.000000,101.000000,5.000000,0.000000,0.000000,0.000000:
0000
0000
0000
0000
,
0000
0000
0000
0000
,
0000
0000
0000
0000
,
0000
0000
0000
0000
,
0000
0000
0000
0000
,
0000
0000
0000
0000
,
0000
0000
0000
0000
,
0000
0000
0000
0000
,
0001
0000
0000
0000
,
0010
0000
0000
0000
,
0100
0000
0000
0000
,
1000
0000
0000
0000
,
1001
0000
0000
0000
,
0100
0000
1000
0000
,
0100
0000
0000
0000
,
0010
0000
0001
0000
,
0010
0000
0000
0000
,
0001
0000
1000
0000
,
0001
0000
0010
0000
,
0100
0000
1000
0000
,
0001
0000
0000
0000
,
1000
0000
0100
0000
,
1000
0000
0000
0000
,
0001
0000
0100
0000
,
0001
0000
0000
0000
,
0010
0000
0100
0000
,
0010
0000
0000
0000
,
0001
0000
1000
0000
,
1001
0000
0000
0000
,
0100
0000
0000
0000
,
1000
0000
0000
0000
,
0001
0000
0000
0000
,
0010
0000
0010
0000
,
0100
0000
0100
0000
,
1000
0000
1000
0000
,
0001
0000
0001
0000
,
1001
0000
1000
0000
,
0001
0000
1000
0000
,
0001
0000
0100
0000
,
0010
0000
0100
0000
,
0010
0000
1000
0000
,
0100
0000
1000
0000
,
0100
0000
0010
0000
,
0001
0000
0010
0000
,
0001
0000
0010
0000
,
0100
0000
1000
0000
,
0001
0000
0010
0000
,
0100
0000
1000
0000
,
1001
0000
0000
0000
,
1000
0000
0000
0000
,
0100
0000
0000
0000
,
0010
0000
0000
0000
,
1001
0000
0001
0000
,
0010
0000
0001
0000
,
0010
0000
0100
0000
,
1000
0000
0100
0000
,
1000
0000
0100
0000
,
0010
0000
0100
0000
,
0010
0000
0000
0000
,
0001
0000
1000
0000
,
0001
0000
0010
0000
,
0001
0000
1000
0000
,
0100
0000
0010
0000
,
0100
0000
1000
0000
,
0001
0000
0100
0000
,
0001
0000
1000
0000
,
0100
0000
1000
0000
,
0001
0000
0100
0000
,
0001
0000
0000
0000
;
