#TITLE:TAP;
#SUBTITLE:;
#ARTIST:Masayoshi Iimori;
#TITLETRANSLIT:;
#SUBTITLETRANSLIT:;
#ARTISTTRANSLIT:;
#GENRE:Hybrid Trap;
#CREDIT:;
#BANNER:TAP-bn.png;
#BACKGROUND:TAP-bg.png;
#LYRICSPATH:;
#CDTITLE:cdtitle.png;
#MUSIC:TAP.ogg;
#OFFSET:0.000000;
#SAMPLESTART:51.200001;
#SAMPLELENGTH:12.750000;
#SELECTABLE:YES;
#DISPLAYBPM:150.000000;
#BPMS:0.000000=150.000000
,124.000000=75.000000
,125.000000=300.000000
,127.000000=150.000000
,141.000000=300.000000
,142.000000=150.000000
,173.000000=300.000000
,174.000000=150.000000
,219.000000=75.000000
,221.000000=150.000000
;
#STOPS:125.000000=0.100000,
125.500000=0.100000,
126.000000=0.100000,
126.500000=0.100000,
141.000000=0.050000,
141.250000=0.050000,
141.500000=0.050000,
141.750000=0.050000,
173.000000=0.050000,
173.250000=0.050000,
173.500000=0.050000,
173.750000=0.050000
;
#BGCHANGES:;
#KEYSOUNDS:;
#ATTACKS:;

//---------------dance-single - ----------------
#NOTES:
     dance-single:
     X-Scale 14:
     Hard:
     10:
     0.650974,0.955196,0.303788,0.095476,0.269069,525.000000,490.000000,35.000000,11.000000,0.000000,0.000000,0.650974,0.955196,0.303788,0.095476,0.269069,525.000000,490.000000,35.000000,11.000000,0.000000,0.000000:
// measure 0
0000
0000
0000
0000
,  // measure 1
0000
0000
0000
0000
,  // measure 2
0000
0000
0000
0000
,  // measure 3
0000
0000
0000
0000
,  // measure 4
1100
0000
1000
0100
0001
0000
1000
0010
,  // measure 5
0001
0100
0001
0010
0002
0000
1000
0000
,  // measure 6
0000
0100
0000
0010
,  // measure 7
0100
0000
1003
0001
1000
0001
1000
0001
,  // measure 8
1001
0000
1000
0010
1010
0000
0010
0000
,  // measure 9
1000
0000
0000
0000
0010
0000
0100
0000
0110
0000
0000
1000
0010
0000
0000
0010
,  // measure 10
1000
0100
0001
0100
1000
0000
0101
0000
,  // measure 11
0100
0000
0010
0000
0100
0000
0000
0000
0001
1000
0001
0000
1000
0000
0000
0000
,  // measure 12
1001
0001
1000
0100
0010
0000
0110
0000
,  // measure 13
0100
0010
0100
0010
0001
1000
0001
1000
,  // measure 14
0001
0100
0010
1000
0001
0010
0011
0001
,  // measure 15
0001
1000
0001
1000
0001
1000
0001
1000
0002
0000
0000
0000
0000
0000
0000
0003
,  // measure 16
1020
1000
1000
1000
,  // measure 17
1030
0010
1000
0001
1000
0010
1000
0001
,  // measure 18
1000
0100
0010
0001
1000
0010
0100
0001
,  // measure 19
0010
0000
0001
0000
1000
0000
0100
0000
1000
0000
0001
1000
0001
0000
0001
0000
,  // measure 20
0001
0000
1000
0010
0001
0000
1000
0100
,  // measure 21
0001
0100
0010
0100
0001
0000
0001
0000
,  // measure 22
0001
0000
0001
0010
1000
0000
0001
0100
,  // measure 23
1000
0000
0100
0000
0010
0000
0100
0000
1000
0000
0010
1000
0010
0000
0010
0000
,  // measure 24
0110
0000
1001
1000
1100
0000
0101
0001
,  // measure 25
0010
0100
1000
0001
0101
0000
1100
0000
,  // measure 26
0110
0000
1001
1000
1100
0000
0101
0010
,  // measure 27
0100
0000
0001
0000
1000
0000
0010
0000
0110
0000
0010
0100
0010
0000
0000
0000
,  // measure 28
1000
0100
0010
0001
1000
0010
0100
0001
,  // measure 29
1000
0100
0010
0001
1000
0010
0100
0001
,  // measure 30
1000
0100
1000
0100
1000
0010
1000
0010
0100
0001
0100
0001
0010
0001
0010
0001
,  // measure 31
0020
0000
0031
0001
1000
1000
1001
0000
,  // measure 32
1000
0001
1000
0000
0001
0100
1000
0100
,  // measure 33
0010
0100
0002
0000
0010
0000
0103
0000
,  // measure 34
0001
0010
0100
0000
1000
0010
0100
0001
,  // measure 35
0010
0000
0100
0000
1000
0001
1000
0001
2000
0000
0000
0000
3010
0000
0000
0000
,  // measure 36
1000
0010
1000
0000
0001
0010
1000
0010
,  // measure 37
0100
0000
0010
0000
0002
0000
0000
0000
0100
0000
0000
0000
0013
0000
0000
0001
,  // measure 38
0100
0000
0001
0000
0010
0000
0001
0010
0001
0000
1000
0000
0100
0000
0000
0000
,  // measure 39
0100
0000
0000
0000
0100
0000
0010
0100
1000
0000
0001
0000
1001
0000
0000
0000
,  // measure 40
1000
0001
1000
0000
0001
0010
1000
0010
,  // measure 41
0100
0010
0002
0000
0100
0000
0013
0000
,  // measure 42
0001
0010
0100
0000
0100
1000
0100
0010
,  // measure 43
0100
0000
1000
0000
0010
1000
0010
1000
0020
0000
0000
0000
0130
0000
0000
0000
,  // measure 44
0100
0001
1000
0000
1000
0001
0010
0100
,  // measure 45
0010
0000
0001
0000
0020
0000
0000
0000
1000
0000
0000
0000
0031
0000
0000
0010
,  // measure 46
0001
0000
1000
0000
0100
0010
0100
0040
0200
0000
0000
0000
0000
0000
0000
0000
,  // measure 47
0000
0000
0330
1001
,  // measure 48
0001
0010
1000
0000
0001
0100
1000
0010
,  // measure 49
1000
0100
0010
0000
0010
0000
0010
0000
,  // measure 50
0001
0100
1000
0000
0001
0010
1000
0100
,  // measure 51
1000
0010
1000
0100
0010
0000
0100
0010
,  // measure 52
0001
1000
0010
0100
0001
0010
0001
0100
,  // measure 53
0001
0000
0010
0000
0001
0000
1000
0000
0100
0000
0010
0000
0001
0100
0001
0100
,  // measure 54
0001
0010
0001
0010
0100
1000
0100
1000
0010
1000
0010
1000
0001
0100
0010
0100
,  // measure 55
0001
0010
0100
0010
0001
0000
0000
0000
1010
0000
0000
0000
0000
0000
0000
0000
0110
0000
0000
0000
0010
0000
0000
0000
0100
0000
0000
0000
0000
0000
0100
0000
,  // measure 56
1000
0000
0001
0000
1000
0000
0010
0000
0100
0000
0010
0000
1000
0000
0000
0001
,  // measure 57
0100
0000
0001
0000
0101
0000
0000
0000
0011
0000
0001
0000
0100
0000
0000
0100
,  // measure 58
1000
0100
0010
0001
0100
0010
1000
1000
,  // measure 59
0001
1000
0001
0000
1001
0000
0000
0000
0110
0000
0100
0000
0010
0000
0000
0010
,  // measure 60
1000
0000
0010
0000
1000
0000
0100
0000
0010
0000
0001
0000
0100
0000
0000
0100
,  // measure 61
0010
0000
1000
0000
1100
0000
0000
0000
1010
0000
0010
0000
0100
0000
0000
0100
,  // measure 62
1000
0000
0010
0000
1000
0000
1000
0000
0010
0000
0010
0000
0100
0000
0100
0001
,  // measure 63
0100
0000
0010
0000
0110
0000
0000
0100
0010
0000
1000
0000
0001
0000
0000
0001
,  // measure 64
0010
0000
0001
0000
0100
0000
0001
0000
0010
0000
0100
0000
1000
0000
0000
1000
,  // measure 65
0010
0000
1000
0000
1010
0000
0000
1000
0001
0000
0100
0000
0001
0000
0000
0001
,  // measure 66
0010
0000
0001
0000
0010
0000
0100
0000
1000
0100
1000
0000
0001
0010
0001
0000
,  // measure 67
0001
0000
0000
0000
0011
0000
0000
0010
0001
0000
1000
0000
0001
0000
0000
0001
,  // measure 68
0100
0000
0010
0000
1000
0000
0001
0000
1000
0000
0010
0000
1000
0000
0000
1000
,  // measure 69
0100
0000
0000
0000
1100
0000
0000
1000
0010
0000
0100
0000
0001
0000
0000
0100
,  // measure 70
0001
0000
1000
0000
0001
0000
0010
0000
0001
0100
0001
0000
1000
0000
0000
0000
,  // measure 71
1000
0000
0000
0000
;

//---------------dance-single - ----------------
#NOTES:
     dance-single:
     X-Scale 12:
     Medium:
     8:
     0.538138,0.647068,0.243030,0.043398,0.108496,434.000000,406.000000,28.000000,5.000000,0.000000,0.000000,0.538138,0.647068,0.243030,0.043398,0.108496,434.000000,406.000000,28.000000,5.000000,0.000000,0.000000:
// measure 0
0000
0000
0000
0000
,  // measure 1
0000
0000
0000
0000
,  // measure 2
0000
0000
0000
0000
,  // measure 3
0000
0000
0000
0000
,  // measure 4
0011
0000
0001
0010
0001
0000
0010
0100
,  // measure 5
1000
0100
0010
0100
2000
0000
0010
0000
,  // measure 6
0000
0100
0000
0010
,  // measure 7
0000
3001
1000
0100
,  // measure 8
1100
0000
1000
0010
1000
0000
0010
0000
,  // measure 9
0000
0000
0000
0000
0010
0000
0100
0000
0010
0000
0000
1000
0000
0000
0000
1000
,  // measure 10
0000
0000
0000
1000
0001
0000
0100
0000
0001
0000
0000
0000
0100
0000
0000
0000
,  // measure 11
0001
0010
0100
0000
1000
0001
1000
0000
,  // measure 12
0001
0000
0010
0100
0010
0000
0100
0000
,  // measure 13
0000
0010
0100
0010
0001
0000
1000
0000
,  // measure 14
1000
0100
0010
0001
0010
0000
0001
0000
,  // measure 15
1000
0001
1000
0001
2000
0000
0000
0000
,  // measure 16
3001
0001
0001
0001
,  // measure 17
1000
1000
1000
1000
,  // measure 18
0100
0100
0100
0100
,  // measure 19
0010
0000
0010
0000
0010
0000
0010
0001
,  // measure 20
1000
0001
1000
0001
,  // measure 21
1000
0001
0010
0100
,  // measure 22
1000
0000
0100
0010
0100
0000
0100
0010
,  // measure 23
0001
1000
0001
0010
0100
0000
0010
0100
,  // measure 24
0110
0000
1001
0000
0110
0000
1001
0001
,  // measure 25
0101
1010
0101
1010
,  // measure 26
1100
0000
0011
0000
1100
0000
0011
0010
,  // measure 27
0110
0000
1010
0000
0110
0010
0100
0000
,  // measure 28
0001
0100
0001
1000
0001
0100
0001
1000
,  // measure 29
1000
0001
1000
0010
1000
0001
1000
0010
,  // measure 30
0040
0000
0000
0000
1000
0000
0000
0000
0001
0000
0000
0000
1000
0000
0000
0030
,  // measure 31
2020
0000
0000
3030
1000
0000
0010
0000
1000
0000
0010
0000
1010
0000
0000
0000
,  // measure 32
1000
0001
1000
0000
0001
0100
0010
1000
,  // measure 33
0100
0010
0001
0000
0010
0000
0100
0000
,  // measure 34
0010
0100
0010
0000
0001
0010
0100
1000
,  // measure 35
0010
0000
0100
0000
0001
1000
0001
1000
0001
0000
0000
0000
1001
0000
0000
0000
,  // measure 36
0001
0010
0100
0000
1000
0001
1000
0100
,  // measure 37
0010
0000
0001
0000
0010
0000
0000
0000
0100
0000
0000
0000
0010
0000
0000
0010
,  // measure 38
0100
0000
0010
0000
0001
0000
0000
0001
1000
0000
0010
0000
0100
0000
0000
0000
,  // measure 39
0100
0000
0000
0000
0100
0000
0010
1000
0010
0000
0010
0000
1010
0000
0000
0000
,  // measure 40
1000
0001
0010
0000
0100
1000
0001
0010
,  // measure 41
0100
0010
0001
0000
0100
0000
0001
0000
,  // measure 42
1000
0010
0100
0000
0001
1000
0100
0010
,  // measure 43
0100
0000
1000
0000
0001
1000
0001
1000
0001
0000
0000
0000
1001
0000
0000
0000
,  // measure 44
0100
0001
1000
0000
1000
0001
0010
0100
,  // measure 45
0010
0000
0001
0000
0010
0000
0000
0000
0001
0000
0000
0000
0001
0000
0000
1000
,  // measure 46
0001
0010
0400
0000
0020
0000
0000
0000
,  // measure 47
0000
0000
0330
0110
,  // measure 48
0100
1000
0001
0000
0001
1000
0001
0010
,  // measure 49
0100
1000
0100
0000
0100
0000
0100
0000
,  // measure 50
0100
1000
0010
0000
0010
1000
1000
0100
,  // measure 51
0010
0001
1000
0000
1000
0000
1000
0010
,  // measure 52
1000
0001
1000
0010
1000
0001
0001
0100
,  // measure 53
0001
1000
0001
0100
0001
1000
4000
0000
,  // measure 54
0001
0000
0000
0000
0010
0000
0000
0000
0001
0000
0000
0000
3001
0100
0010
1000
,  // measure 55
0100
0010
0001
0000
1010
0000
0000
0000
0110
0000
0010
0000
0100
0000
0000
0100
,  // measure 56
0001
1000
0001
0100
0001
1000
0001
0000
,  // measure 57
0100
0000
0010
0000
0001
0000
0000
0000
0001
0000
0010
0000
0100
0000
0000
0010
,  // measure 58
1000
0100
0010
0001
1000
0010
0100
0001
,  // measure 59
1000
0001
1000
0000
1001
0000
0000
0000
0011
0000
0100
0000
0001
0000
0000
0001
,  // measure 60
1000
0000
0010
0000
1000
0000
0100
0000
0010
0000
0001
0000
0100
0000
0000
0010
,  // measure 61
0000
0000
0100
0000
0001
0000
0000
0000
0001
0000
0010
0000
0100
0000
0000
0010
,  // measure 62
0100
0000
0010
0000
0001
0000
1000
0000
0010
0000
1000
0000
0001
0000
0100
0001
,  // measure 63
0100
0010
0110
0000
0001
1000
0100
0000
,  // measure 64
0010
0000
0001
0000
0100
0000
0001
0000
0010
0000
0100
0000
1000
0000
0000
1000
,  // measure 65
0010
1000
0001
0000
1000
0100
1000
0000
,  // measure 66
0001
0100
0010
1000
0100
0010
0001
0100
,  // measure 67
0001
0000
0010
0000
0100
1000
0001
0000
,  // measure 68
0100
0000
0010
0000
1000
0000
0001
0000
1000
0000
0010
0000
1000
0000
0000
1000
,  // measure 69
0100
0000
1000
0000
0010
0000
0000
0000
0100
0000
0010
0000
1000
0000
0000
0010
,  // measure 70
1000
0000
0100
0000
0001
0000
0100
0000
1000
0100
1000
0000
0001
0000
0000
0000
,  // measure 71
0001
0000
0000
0000
;

//---------------dance-single - ----------------
#NOTES:
     dance-single:
     X-Scale 8:
     Easy:
     6:
     0.355866,0.523817,0.086797,0.173593,0.000000,287.000000,277.000000,10.000000,20.000000,0.000000,0.000000,0.355866,0.523817,0.086797,0.173593,0.000000,287.000000,277.000000,10.000000,20.000000,0.000000,0.000000:
// measure 0
0000
0000
0000
0000
,  // measure 1
0000
0000
0000
0000
,  // measure 2
0000
0000
0000
0000
,  // measure 3
0000
0000
0000
0000
,  // measure 4
1001
0001
0000
1000
,  // measure 5
0000
0001
0002
0100
,  // measure 6
0000
0010
0000
1000
,  // measure 7
1003
0100
0010
0001
,  // measure 8
0011
0001
0100
0001
,  // measure 9
0000
0001
1000
0000
,  // measure 10
0100
0000
0010
0100
,  // measure 11
0000
0100
1000
0002
,  // measure 12
1003
0000
0001
0100
,  // measure 13
0000
0100
0010
0000
,  // measure 14
1000
0010
1000
0010
,  // measure 15
0100
0001
0200
0000
,  // measure 16
0310
0010
0010
0010
,  // measure 17
1000
1000
1000
1000
,  // measure 18
0001
0001
0001
0001
,  // measure 19
0100
0000
0100
0000
0100
0000
0100
0010
,  // measure 20
0100
0100
0100
0100
,  // measure 21
0001
0001
0001
0001
,  // measure 22
1000
1000
1000
1000
,  // measure 23
0010
0000
0010
0000
0010
0000
0010
0100
,  // measure 24
0110
0100
0001
1000
,  // measure 25
0001
0010
0100
1000
,  // measure 26
0010
1000
0100
0010
,  // measure 27
0001
1000
0001
0010
,  // measure 28
0101
0010
0001
1000
,  // measure 29
0001
0010
0100
0010
,  // measure 30
0001
0010
0100
1000
0001
0100
0010
1000
,  // measure 31
0002
0000
0003
0000
0000
0000
2100
3000
,  // measure 32
1000
0000
0010
0000
1000
0100
1000
0100
,  // measure 33
1000
0100
0020
0000
0000
0000
0032
0003
,  // measure 34
0100
0000
0001
0000
0010
0100
0010
0100
,  // measure 35
0010
0100
0020
0000
0000
0000
0032
0003
,  // measure 36
1000
0000
0001
0000
1000
0010
1000
0010
,  // measure 37
1000
0010
0200
0000
0000
0000
0301
0000
,  // measure 38
0001
0001
1000
1000
,  // measure 39
1000
0000
0010
0000
0100
0000
0120
0030
,  // measure 40
1000
0000
0001
0000
0010
0100
0010
0100
,  // measure 41
0010
0100
2000
0000
0000
0000
3002
0003
,  // measure 42
1000
0000
0010
0000
0100
0001
0100
0001
,  // measure 43
0100
0001
0200
0000
0000
0000
0320
0030
,  // measure 44
1000
0000
0010
0000
1000
0001
1000
0001
,  // measure 45
1000
0001
0020
0000
0000
0000
0130
0000
,  // measure 46
0100
0200
0000
0000
,  // measure 47
0000
0000
0300
0110
,  // measure 48
0010
0010
0010
0001
,  // measure 49
0001
0001
0001
1000
,  // measure 50
1000
1000
1000
0100
,  // measure 51
0100
0100
0100
1100
,  // measure 52
0010
1000
0100
1000
,  // measure 53
0001
0000
0010
0000
0100
0000
1000
0010
,  // measure 54
0100
0001
1000
0100
0010
0001
0100
0100
,  // measure 55
0010
0010
1001
0000
0001
0100
0001
0000
,  // measure 56
1000
0100
0010
0001
,  // measure 57
0001
0000
1000
0000
0010
1000
0010
0000
,  // measure 58
0100
0001
0010
0100
,  // measure 59
0100
0000
1100
0000
0010
1000
0010
0000
,  // measure 60
1000
0001
0100
0010
,  // measure 61
0010
0000
1000
0000
0001
0010
0001
0000
,  // measure 62
0100
0000
0020
0030
0020
0030
0020
0000
,  // measure 63
0000
0130
0100
0100
,  // measure 64
0100
0001
0001
0001
,  // measure 65
0001
1000
1000
1000
,  // measure 66
1000
0010
0010
0010
,  // measure 67
0010
0100
0100
0100
,  // measure 68
0100
0001
0001
0001
,  // measure 69
0001
1000
1000
1000
,  // measure 70
1000
0100
0100
0100
,  // measure 71
0100
0000
0000
0000
;

//---------------dance-single - ----------------
#NOTES:
     dance-single:
     X-Scale 3:
     Beginner:
     2:
     0.154994,0.185528,0.000000,0.008680,0.000000,125.000000,125.000000,0.000000,1.000000,0.000000,0.000000,0.154994,0.185528,0.000000,0.008680,0.000000,125.000000,125.000000,0.000000,1.000000,0.000000,0.000000:
// measure 0
0000
0000
0000
0000
,  // measure 1
0000
0000
0000
0000
,  // measure 2
0000
0000
0000
0000
,  // measure 3
0000
0000
0000
0000
,  // measure 4
0100
0100
0000
0010
,  // measure 5
0000
1000
0000
0001
,  // measure 6
0000
1000
0000
0100
,  // measure 7
0000
0010
0000
0000
,  // measure 8
0001
0000
1000
1000
,  // measure 9
0000
0100
0100
0000
,  // measure 10
0010
0000
0001
0001
,  // measure 11
0000
0100
0100
0000
,  // measure 12
0010
0000
1000
1000
,  // measure 13
0000
0100
0100
0000
,  // measure 14
0010
0000
0001
0001
,  // measure 15
0000
1000
1000
0000
,  // measure 16
0010
0000
0000
0000
,  // measure 17
1000
0000
0000
0000
,  // measure 18
0100
0000
0000
0000
,  // measure 19
0010
0000
0000
0000
,  // measure 20
0001
0000
0000
0000
,  // measure 21
0100
0000
0000
0000
,  // measure 22
0010
0000
0000
0000
,  // measure 23
1000
0000
0000
0000
,  // measure 24
0010
0000
0000
0000
,  // measure 25
1000
0000
0000
0000
,  // measure 26
0100
0000
0000
0000
,  // measure 27
1000
0000
0000
0000
,  // measure 28
0001
0000
0100
0000
,  // measure 29
0010
0000
1000
0000
,  // measure 30
0100
0000
0010
0000
,  // measure 31
0001
0000
0000
0001
,  // measure 32
0000
1000
1000
0000
,  // measure 33
0100
0100
0000
1000
,  // measure 34
0000
0001
0001
0000
,  // measure 35
0010
0010
0000
0001
,  // measure 36
0000
1000
1000
0000
,  // measure 37
0010
0010
0000
1000
,  // measure 38
0000
0100
0000
0010
,  // measure 39
0000
0001
0000
1000
,  // measure 40
0000
0001
0001
0000
,  // measure 41
0100
0100
0000
0001
,  // measure 42
0000
0010
0010
0000
,  // measure 43
0100
0100
0000
1000
,  // measure 44
0000
0001
0001
0000
,  // measure 45
0100
0100
0000
0010
,  // measure 46
0000
1000
0000
0000
,  // measure 47
0000
0000
0000
0001
,  // measure 48
0000
0000
0000
0100
,  // measure 49
0000
0000
0000
0001
,  // measure 50
0000
0000
0000
0010
,  // measure 51
0000
0000
0000
0100
,  // measure 52
0000
1000
0000
0001
,  // measure 53
0000
1000
0000
0100
,  // measure 54
0000
0010
0000
0001
,  // measure 55
0000
0100
0000
0001
,  // measure 56
0000
1000
0000
0100
,  // measure 57
0000
0010
0000
0100
,  // measure 58
0000
1000
0000
0001
,  // measure 59
0000
1000
0000
0100
,  // measure 60
0000
0010
0000
0100
,  // measure 61
0000
1000
0000
0001
,  // measure 62
0000
0100
0000
0000
,  // measure 63
0000
0100
0000
0001
,  // measure 64
0000
1000
0000
0001
,  // measure 65
0000
0010
0000
0001
,  // measure 66
0000
1000
0000
0010
,  // measure 67
0000
1000
0000
0100
,  // measure 68
0000
0010
0000
0100
,  // measure 69
0000
1000
0000
0001
,  // measure 70
0000
0100
0000
0020
,  // measure 71
0000
0030
0000
0000
;
