#VERSION:0.83;
#TITLE:Synthetic;
#SUBTITLE:;
#ARTIST:The Midnight;
#TITLETRANSLIT:;
#SUBTITLETRANSLIT:;
#ARTISTTRANSLIT:;
#GENRE:Chillwave;
#ORIGIN:;
#CREDIT:;
#BANNER:Synthetic-bn.png;
#BACKGROUND:Synthetic-bg.png;
#PREVIEWVID:;
#JACKET:Synthetic-jacket.png;
#CDIMAGE:;
#DISCIMAGE:;
#LYRICSPATH:;
#CDTITLE:cdtitle.png;
#MUSIC:Synthetic.ogg;
#OFFSET:-0.879000;
#SAMPLESTART:40.042000;
#SAMPLELENGTH:32.134998;
#SELECTABLE:YES;
#BPMS:0.000=59.750;
#STOPS:;
#DELAYS:;
#WARPS:;
#TIMESIGNATURES:0.000=4=4;
#TICKCOUNTS:0.000=4;
#COMBOS:0.000=1;
#SPEEDS:0.000=1.000=0.000=0;
#SCROLLS:0.000=1.000;
#FAKES:;
#LABELS:0.000=Song Start;
#BGCHANGES:;
#KEYSOUNDS:;
#ATTACKS:
;

//---------------dance-single - ----------------
#NOTEDATA:;
#CHARTNAME:X-Scale 8;
#STEPSTYPE:dance-single;
#DESCRIPTION:;
#CHARTSTYLE:;
#DIFFICULTY:Hard;
#METER:6;
#RADARVALUES:0.317187,0.340849,0.213339,0.276551,0.430629,281.000000,254.000000,27.000000,35.000000,0.000000,0.000000,0.000000,0.000000,0.000000,0.317187,0.340849,0.213339,0.276551,0.430629,281.000000,254.000000,27.000000,35.000000,0.000000,0.000000,0.000000,0.000000,0.000000;
#CREDIT:;
#NOTES:
// measure 0
0000
0000
0000
0000
,  // measure 1
0000
0000
0000
0000
0000
0000
0000
0000
0000
0000
0000
0000
1100
0000
0000
1000
,  // measure 2
0100
0010
0100
2000
0000
3000
0000
0001
0100
0010
0200
0000
0301
0000
0000
0000
,  // measure 3
0010
0100
1000
0001
2000
0000
3010
0100
0001
1000
0200
0000
0310
0000
0000
0100
,  // measure 4
0010
0000
0001
0000
1000
0000
0002
0000
0003
0000
0000
0000
0000
0001
0010
0000
0001
0000
0010
0000
0200
0000
0000
0000
1300
0000
0000
0000
0000
0100
0010
0000
,  // measure 5
0100
1000
0001
0100
0020
0000
1030
0010
0101
0001
1000
0000
1100
0000
0000
0000
,  // measure 6
0101
0000
0000
0001
0000
0000
0000
0000
0010
0000
0000
0100
0000
0000
0000
0000
1000
0000
0000
0001
0000
0000
0000
0000
0020
0000
0000
0000
0030
0000
0000
0000
,  // measure 7
0101
0000
0000
0100
0000
0000
0000
0000
0010
0000
0000
1000
0000
0000
0000
0000
0100
0000
0020
0000
0000
0000
0030
0000
0011
0000
0000
0000
0000
0000
0000
0000
,  // measure 8
1001
0000
0000
1000
0000
0000
0000
0000
0010
0000
0000
0100
0000
0000
0000
0000
0001
0000
0000
0010
0000
0000
0200
0000
1000
0000
0000
0000
0000
0000
0300
0000
,  // measure 9
1010
1000
0001
0010
0000
0200
0000
0300
0110
0000
0200
0300
1010
0000
0000
0000
,  // measure 10
1000
0000
0000
0010
0000
0000
0200
0000
0000
0000
0300
0000
1000
0000
0100
0000
0001
0000
0000
0000
0001
0000
0100
0000
0001
0000
0000
0000
1000
0100
1000
0000
,  // measure 11
1100
0000
0000
0100
0000
0000
0020
0000
0000
0000
0000
0000
0031
0000
1000
0000
0001
0000
0000
0000
0100
0000
0010
0000
2000
0000
0000
0000
0000
0000
3000
0000
,  // measure 12
1001
0000
0000
0001
0000
0000
0200
0000
0000
0000
0310
0000
0100
0000
0000
0000
0001
0000
0000
0000
0010
0000
0100
0000
1000
0000
0002
0000
0000
0000
0000
0003
,  // measure 13
1001
0000
0100
0001
1000
0000
0010
0100
0000
0010
0000
0100
0001
0000
0001
0010
,  // measure 14
0011
0000
0001
0000
1000
0000
0020
0000
0000
0000
0030
0000
1000
0000
0100
0000
0001
0000
0100
0000
2000
0000
0000
0000
3001
0000
0000
0000
0000
0001
0010
0000
,  // measure 15
0011
0001
1000
0020
0000
0130
0010
0001
0010
1000
0001
0000
0010
0000
0100
1000
,  // measure 16
1010
0000
0000
1000
0000
0000
0002
0000
0003
0000
0020
0000
0030
0000
0000
0000
0001
0000
1000
0000
0001
0000
0000
0000
0001
0000
2000
0000
0000
0000
3100
0000
,  // measure 17
1100
0000
0100
0010
0001
0000
1000
0010
0000
0100
0000
0001
1001
0000
0100
1000
,  // measure 18
1100
0000
0000
0000
0000
0000
0000
0000
0100
0000
0000
0000
0000
0000
0000
0000
0010
0000
0001
0000
1000
0000
0000
0000
0010
0000
0000
0200
0000
0000
0301
0000
,  // measure 19
0101
0000
0000
0000
0000
0000
0000
0000
0000
0010
0100
0000
0010
0000
0000
0000
0100
0000
0001
0000
0010
0000
0000
0000
0001
0000
0000
0000
1000
0000
0100
0000
,  // measure 20
1100
0000
0000
0000
0000
0000
0000
0000
0200
0000
0000
0000
0000
0000
0000
0000
0001
0000
0000
0000
0010
0000
0000
0000
1300
0000
0000
0002
0000
0000
0013
0000
,  // measure 21
0011
0000
0001
1000
0010
0000
0100
0001
1000
0001
0000
0010
0011
0000
0001
0010
,  // measure 22
0101
0000
0000
0000
0002
0000
0000
0000
1000
1000
0000
0000
0013
0000
0100
1000
,  // measure 23
1100
0000
0000
0000
0000
0000
0000
0000
0000
1000
0001
0000
1000
0000
0000
0000
0100
0000
0010
0000
0001
0000
0000
0000
1000
0000
0000
0000
0001
0000
0010
0000
,  // measure 24
0011
0000
0000
0000
0000
0000
0000
0000
0002
0000
0000
0000
0000
0000
0000
0000
1000
0000
0000
0000
0010
0000
0000
0000
0103
0000
0000
0002
0000
0000
0013
0000
,  // measure 25
0011
0000
0010
0100
1000
0000
0001
0100
0010
0100
0000
0001
1000
0000
0010
0200
,  // measure 26
0000
0000
0000
0000
0020
0000
0000
0300
0100
0100
0000
0000
1030
0000
0100
0020
,  // measure 27
0000
0000
0000
0000
0000
0000
0000
0000
0031
0000
0010
0000
0100
0000
1000
0002
,  // measure 28
0000
0000
0000
0000
0020
0000
0000
0003
0001
0001
0000
0000
0130
0000
0010
0002
,  // measure 29
0000
0000
0000
0003
;

//---------------dance-single - ----------------
#NOTEDATA:;
#CHARTNAME:X-Scale 1;
#STEPSTYPE:dance-single;
#DESCRIPTION:;
#CHARTSTYLE:;
#DIFFICULTY:Beginner;
#METER:1;
#RADARVALUES:0.072242,0.079508,0.000000,0.000000,0.000000,64.000000,64.000000,0.000000,0.000000,0.000000,0.000000,0.000000,0.000000,0.000000,0.072242,0.079508,0.000000,0.000000,0.000000,64.000000,64.000000,0.000000,0.000000,0.000000,0.000000,0.000000,0.000000,0.000000;
#CREDIT:;
#NOTES:
0000
0000
0000
0000
,
0000
0000
0000
0001
,
0000
0000
0000
0010
,
0000
0000
0000
0100
,
0000
0000
0000
1000
,
0000
0000
0001
0010
,
0001
0000
0000
1000
,
0001
0000
0000
0010
,
0100
0000
0000
1000
,
0001
0000
1000
0100
,
1000
0100
0000
1000
,
0100
0000
0000
0010
,
0001
0010
0000
0001
,
0010
0000
0100
0010
,
0100
0010
0000
0001
,
1000
0000
0010
0100
,
0010
0100
0000
0001
,
0010
0000
0100
0010
,
0001
1000
0000
0001
,
1000
0000
0010
0100
,
0001
0100
0000
0001
,
1000
0000
0100
0010
,
0100
0010
0000
0001
,
1000
0000
0010
1000
,
0001
0100
0000
0001
,
0010
0000
0000
0100
,
0000
0000
0000
0010
,
0000
0000
0000
0001
,
0000
0000
0000
1000
;

//---------------dance-single - ----------------
#NOTEDATA:;
#CHARTNAME:X-Scale 6;
#STEPSTYPE:dance-single;
#DESCRIPTION:;
#CHARTSTYLE:;
#DIFFICULTY:Medium;
#METER:5;
#RADARVALUES:0.264134,0.293835,0.126423,0.308157,0.331861,234.000000,218.000000,16.000000,39.000000,0.000000,0.000000,0.000000,0.000000,0.000000,0.264134,0.293835,0.126423,0.308157,0.331861,234.000000,218.000000,16.000000,39.000000,0.000000,0.000000,0.000000,0.000000,0.000000;
#CREDIT:;
#NOTES:
0000
0000
0000
0000
,
0000
0000
0000
0000
0000
0000
0000
0000
0000
0000
0000
0000
1100
0000
0000
1000
,
0001
0000
0100
0001
0000
0000
0000
0010
0100
0010
0200
0000
0300
0000
0000
0000
,
1000
0000
0001
0000
0010
0000
0001
0000
1000
0100
0020
0000
0031
0000
0000
0000
,
0100
0000
0001
0000
1000
0000
0010
0000
0000
0000
0000
0000
0000
0000
0100
0000
0010
0000
1000
0000
0002
0000
0000
0000
0003
0000
0000
0000
0000
0010
0001
0000
,
1000
0001
0100
0010
1000
0000
0100
0010
0110
0000
0000
0000
1002
0000
0000
0000
,
0100
0000
0000
0100
0000
0000
0000
0000
1000
0000
0000
1000
0000
0000
0000
0000
0010
0000
0000
0010
0000
0000
0000
0000
0203
0000
0000
0000
0000
0000
0000
0000
,
1000
0000
0000
1000
0000
0000
0000
0000
0001
0000
0000
0001
0000
0000
0000
0000
0010
0000
0020
0000
0000
0000
0030
0000
0320
0000
0000
0000
0000
0000
0000
0000
,
0001
0000
0000
0001
0000
0000
0000
0000
0100
0000
0000
0100
0000
0000
0000
0000
1000
0000
0000
1000
0000
0000
2000
0000
0030
0000
0000
0000
0000
0000
3000
0000
,
1010
1000
0100
0010
0000
0002
0000
0003
0101
0000
0000
0000
0120
0000
0000
0000
,
1000
0000
0000
0000
2030
0000
0000
0000
0000
0000
0001
0001
3002
0000
0000
0000
,
0100
0000
0000
2000
0000
0000
3000
0000
1003
0000
0100
0010
0021
0000
0000
0000
,
1000
0000
0000
0000
0031
0010
0100
0000
1000
0000
0001
0000
0100
0002
0000
0000
,
1003
0000
0001
0100
0010
0000
1000
0100
0000
0010
0000
0100
1000
0000
0001
1000
,
0001
0000
0010
0200
0000
0000
1300
0001
0100
0010
0200
0000
0001
0300
0100
0010
,
0110
0000
0010
2000
0000
3100
0010
0001
1000
0001
0100
0000
0001
0000
0010
0100
,
1000
0000
0000
0001
0000
0000
1000
0000
0000
0000
0100
0000
0000
0000
0000
0000
0010
0000
0000
0000
0100
0000
0000
0000
1000
0000
0002
0000
0000
0000
0000
0000
,
0013
0000
0001
0010
0100
0000
0010
0001
0000
1000
0000
0001
0010
0000
0100
0010
,
0110
0000
0000
0000
0000
0000
0000
0000
0100
0000
0000
0000
0000
0000
0000
0000
1000
0000
0000
0000
0100
0000
0000
0000
0010
0000
0000
0001
0000
0000
0001
0000
,
0011
0000
0000
0000
0000
0010
0001
0000
0010
0001
1000
0000
0100
0000
0010
0100
,
0110
0000
0000
0000
0000
0000
0000
0000
2000
0000
0000
0000
0000
0000
0000
0000
3001
0000
0000
0000
1000
0000
0000
0000
0010
0000
0000
0100
0000
0000
0100
0000
,
0101
0000
0100
0001
1000
0000
0100
0010
0000
0001
0000
0010
0001
0000
0100
0010
,
0101
0000
0000
0000
2000
0000
0000
0000
0000
0100
0000
0000
3001
0000
0010
0100
,
1010
0000
0000
0000
0000
1000
0001
0000
1000
0001
0010
0000
0100
0000
0010
0001
,
0101
0000
0000
0000
0000
0000
0000
0000
0200
0000
0000
0000
0000
0000
0000
0000
1000
0000
0000
0000
0010
0000
0000
0000
0301
0000
0000
0100
0000
0000
0100
0000
,
0110
0000
1000
0001
0010
0000
0100
0010
0000
0001
0000
0010
0200
0000
2300
3002
,
0000
0000
0000
0000
0200
0000
0000
0000
0003
0020
0000
0030
0320
0000
2030
3200
,
0000
0000
0000
0000
0000
0000
0000
0000
0320
0000
0230
0000
2300
0000
3002
0023
,
0000
0000
0000
0000
0200
0000
0000
0000
0030
1000
0000
0000
2300
0000
3002
0203
,
0000
0000
0000
0300
;

//---------------dance-single - ----------------
#NOTEDATA:;
#CHARTNAME:X-Scale 3;
#STEPSTYPE:dance-single;
#DESCRIPTION:;
#CHARTSTYLE:;
#DIFFICULTY:Easy;
#METER:3;
#RADARVALUES:0.171574,0.199808,0.079015,0.126423,0.082965,152.000000,142.000000,10.000000,16.000000,0.000000,0.000000,0.000000,0.000000,0.000000,0.171574,0.199808,0.079015,0.126423,0.082965,152.000000,142.000000,10.000000,16.000000,0.000000,0.000000,0.000000,0.000000,0.000000;
#CREDIT:;
#NOTES:
0000
0000
0000
0000
,
0000
0000
0000
0001
,
1000
0000
0100
1000
0000
0000
0000
0100
0010
0000
0100
0000
1000
0000
0000
0000
,
0001
0100
0001
0010
0001
1000
0100
0000
,
0010
0000
0001
0010
0000
0000
0000
0001
1000
0000
0010
0000
1000
0000
0000
0000
,
0100
0010
0001
1000
0001
0000
0010
0000
,
0101
0001
1000
0100
,
1100
1000
0001
0010
,
0101
0100
0010
1000
,
1001
1000
1100
0200
,
0000
0320
0000
0032
,
1000
0000
0203
0320
,
0100
2030
0000
3200
,
0010
0320
0000
0000
0001
0000
0031
0010
,
0100
0000
1000
0100
0010
0001
1000
0010
,
0100
0000
0001
0010
0100
0010
0001
1000
,
0010
0000
0000
0000
0100
0000
0000
0000
0001
0000
0010
0000
0100
0020
0000
0000
,
0130
0000
0010
0000
0001
0000
1000
0010
0000
0100
0000
0010
1000
0000
0000
0000
,
1010
0000
0000
0000
0000
0000
0000
0000
0001
0000
0000
0000
0000
0000
0000
0000
0010
0000
0000
0000
0100
0000
0000
0000
1000
0000
0000
0200
0000
0000
0000
0000
,
0310
0000
0000
0000
1000
0001
1000
0000
,
1001
0000
0000
0000
0000
0000
0000
0000
0100
0000
0000
0000
0000
0000
0000
0000
0001
0000
0000
0000
0010
0000
0000
0000
0100
0000
0000
0020
0000
0000
0000
0000
,
0031
0000
1000
0000
0010
0000
0100
0001
0000
1000
0000
0001
0010
0000
0000
0000
,
0011
0001
1000
0100
,
1100
0000
0000
0000
1000
0001
1000
0000
,
1001
0000
0000
0000
0000
0000
0000
0000
0001
0000
0000
0000
0000
0000
0000
0000
0100
0000
0000
0000
0010
0000
0000
0000
0100
0000
0000
0002
0000
0000
0000
0000
,
1003
0000
0001
0000
0010
0000
0100
1000
0000
0100
0000
1000
0001
0000
0000
0020
,
0000
0000
0000
0000
0100
0000
0000
0000
0000
0000
0000
0000
0130
0000
0000
2000
,
0000
0000
0000
0000
0000
0000
0000
0000
0001
0000
0010
0000
3001
0000
0000
0020
,
0000
0000
0000
0000
0100
0000
0000
0000
0000
0000
0000
0000
0130
0000
0000
2000
,
0000
0000
0000
3000
;
