#VERSION:0.83;
#TITLE:Synchronize;
#SUBTITLE:;
#ARTIST:Hellberg feat. Aaron Richards;
#TITLETRANSLIT:;
#SUBTITLETRANSLIT:;
#ARTISTTRANSLIT:;
#GENRE:Commercial House;
#ORIGIN:;
#CREDIT:;
#BANNER:Synchronize-bn.png;
#BACKGROUND:Synchronize-bg.png;
#PREVIEWVID:;
#JACKET:Synchronize-jacket.png;
#CDIMAGE:;
#DISCIMAGE:;
#LYRICSPATH:;
#CDTITLE:cdtitle.png;
#MUSIC:Synchronize.ogg;
#OFFSET:-0.002000;
#SAMPLESTART:63.570000;
#SAMPLELENGTH:15.238000;
#SELECTABLE:YES;
#BPMS:0.000=126.000;
#STOPS:;
#DELAYS:;
#WARPS:;
#TIMESIGNATURES:0.000=4=4;
#TICKCOUNTS:0.000=4;
#COMBOS:0.000=1;
#SPEEDS:0.000=1.000=0.000=0;
#SCROLLS:0.000=1.000;
#FAKES:;
#LABELS:0.000=Song Start;
#BGCHANGES:0.000=Synchronize.avi=1.000=1=0=0=StretchNoLoop==CrossFade==,
99999=-nosongbg-=1.000=0=0=0 // don't automatically add -songbackground-
;
#KEYSOUNDS:;
#ATTACKS:
;

//---------------dance-single - ----------------
#NOTEDATA:;
#CHARTNAME:X-Scale 1;
#STEPSTYPE:dance-single;
#DESCRIPTION:;
#CHARTSTYLE:;
#DIFFICULTY:Beginner;
#METER:1;
#RADARVALUES:0.091748,0.127757,0.000000,0.000000,0.000000,93.000000,93.000000,0.000000,0.000000,0.000000,0.000000,0.000000,0.000000,0.000000,0.091748,0.127757,0.000000,0.000000,0.000000,93.000000,93.000000,0.000000,0.000000,0.000000,0.000000,0.000000,0.000000,0.000000;
#CREDIT:iamthek3n;
#NOTES:
0000
0000
0000
0000
,
0000
0000
0000
0000
,
0001
0000
0000
0000
,
0000
0000
0000
0000
,
0100
0000
0000
0000
,
0000
0000
0000
0000
,
0010
0000
0000
0000
,
0000
0000
0000
0000
,
1000
0000
0000
0000
,
0001
0000
0000
0000
,
1000
0000
0000
0000
,
0000
0000
0000
0000
,
0100
0000
0000
0000
,
0000
0000
0000
0000
,
0010
0000
0000
0000
,
0000
0000
0000
0000
,
0001
0000
0000
0000
,
1000
0000
0000
0000
,
0001
0000
0000
0000
,
0100
0000
0000
0000
,
0001
0000
0000
0000
,
1000
0000
0000
0000
,
0100
0000
0000
0000
,
0010
0000
0000
0000
,
0100
0000
0000
0000
,
1000
0000
0000
0000
,
0001
0000
0100
0000
,
0010
0000
0100
0000
,
0001
0000
0010
0000
,
0100
0000
0010
0000
,
0001
0000
1000
0000
,
0010
0000
1000
0000
,
0001
0000
0010
0000
,
0100
0000
0000
0000
,
0000
1000
0000
0001
,
0000
1000
0000
0010
,
0000
1000
0000
0001
,
0000
0100
0000
0001
,
0000
1000
0000
0001
,
0000
0100
0000
0001
,
0000
1000
0000
0001
,
0000
0000
0000
0000
,
1000
0000
0000
0000
,
0100
0000
0000
0000
,
0010
0000
0000
0000
,
0001
0000
0000
0000
,
0100
0000
0000
0000
,
0010
0000
0000
0000
,
1000
0000
0001
0000
,
1000
0000
0000
0000
,
0000
0001
0000
0010
,
0000
0100
0000
0010
,
0000
0001
0000
1000
,
0000
0100
0000
1000
,
0000
0001
0000
0100
,
0000
0001
0000
1000
,
0000
0010
0000
1000
,
0000
0000
0000
0000
,
0001
0000
0010
0000
,
0100
0000
0010
0000
,
0001
0000
1000
0000
,
0001
0000
0100
0000
,
0001
0000
1000
0000
,
0010
0000
1000
0000
,
0001
0000
1000
0000
,
0000
0000
0000
0000
,
0001
0000
0000
0000
,
0010
0000
0000
0000
,
0100
0000
0000
0000
,
1000
0000
0000
0000
,
0001
0000
0000
0000
,
0100
0000
0000
0000
,
0010
0000
0000
0000
,
1000
0000
0000
0000
,
0001
0000
0000
0000
;

//---------------dance-single - ----------------
#NOTEDATA:;
#CHARTNAME:X-Scale 5;
#STEPSTYPE:dance-single;
#DESCRIPTION:;
#CHARTSTYLE:;
#DIFFICULTY:Easy;
#METER:3;
#RADARVALUES:0.224931,0.306617,0.048341,0.186456,0.000000,228.000000,221.000000,7.000000,27.000000,0.000000,0.000000,0.000000,0.000000,0.000000,0.224931,0.306617,0.048341,0.186456,0.000000,228.000000,221.000000,7.000000,27.000000,0.000000,0.000000,0.000000,0.000000,0.000000;
#CREDIT:iamthek3n;
#NOTES:
0000
0000
0000
0000
,
0000
0000
0000
0000
,
0101
0000
0000
0000
,
1000
0000
0000
0200
0000
2300
0000
3002
,
0000
0000
0003
1000
0000
0000
0000
0001
,
0000
0000
0000
1000
0000
0000
0000
0000
,
0100
0000
0000
1000
0000
0000
0000
0001
,
0000
0000
0000
0100
0000
0000
0000
0000
,
0001
0000
0000
0010
0000
0000
0100
0000
,
1000
0000
0000
0001
0000
0000
1000
0000
,
0001
0000
0000
0000
,
0010
0000
0000
0100
0000
1000
0000
0001
,
0000
0000
0000
0100
0000
0000
0000
0001
,
0000
0000
0000
1000
0000
0000
0000
0000
,
0100
0000
0000
1000
0000
0000
0000
0001
,
0000
0000
0000
0100
0000
0000
0000
0000
,
0002
0000
0000
0000
0103
0010
0200
0000
,
0301
0000
0000
1000
0000
0000
0010
0000
,
1010
0000
1000
0000
,
0001
0000
0100
0010
,
0100
0000
0001
0000
,
0010
0000
0100
1000
,
0100
0000
0010
0000
,
0001
0000
1000
0001
,
1000
0000
1000
0002
0000
0203
0000
0320
,
0000
0000
0000
1030
0010
0000
1000
0000
,
0002
0010
0203
0310
,
2000
0100
3002
0013
,
0200
0010
2300
0100
,
3002
0003
0100
0000
,
0001
0000
0010
0000
,
0100
0000
1000
0000
,
0001
1000
0001
1000
,
0001
0000
0000
0000
,
1001
1000
0010
1000
,
0001
0010
0100
0010
,
0001
1000
0100
1000
,
0001
0100
0010
0100
,
0001
1000
0001
0010
,
0100
1000
0001
0100
,
0001
1000
0100
0010
,
0001
0000
0000
1000
0000
0000
0001
0000
,
0200
0000
0010
0000
0302
0000
1003
0100
,
0010
0000
0100
0000
1000
0000
0001
0100
,
0020
0000
0100
0000
2030
0000
3001
0010
,
0100
0000
0010
0000
0001
0000
1000
0001
,
0200
0000
0010
0000
0302
0000
0103
0001
,
1000
0000
0100
0000
0010
0000
0100
1000
,
0001
0200
0000
0000
0310
0100
0001
0010
,
0100
2000
0000
0000
3000
0000
0000
0000
,
1100
0000
1000
0000
0100
0000
0000
1000
,
0000
0001
0000
1000
0000
0001
0000
0000
,
0010
0000
0100
0000
1000
0000
0000
0001
,
0000
0010
0000
0001
0000
0010
0000
0000
,
0100
0000
0010
0000
0001
0000
0000
1000
,
0000
0010
0000
1000
0000
0010
0000
0000
,
0100
0001
1000
0001
,
2002
0000
0000
3003
,
0110
0000
0001
0000
1000
0010
1000
0000
,
0001
0000
0010
0000
0100
1000
0100
0000
,
0010
0000
0001
0000
1000
0001
2000
0000
,
0010
3001
0010
0100
,
1000
0000
0001
0000
0010
0100
0010
0000
,
0100
0000
1000
0000
0001
1000
0001
0000
,
0100
0000
0010
0000
1000
0001
2000
0000
,
0000
3000
0000
0000
,
1001
0000
0000
0000
,
1000
0000
0000
0000
,
0010
0000
0000
0000
,
0100
0000
0000
0000
,
0001
0000
0000
0000
,
0010
0000
0000
0000
,
0100
0000
0000
0000
,
1000
0000
0000
0000
,
0001
0000
0000
0000
;

//---------------dance-single - ----------------
#NOTEDATA:;
#CHARTNAME:X-Scale 8;
#STEPSTYPE:dance-single;
#DESCRIPTION:;
#CHARTSTYLE:;
#DIFFICULTY:Medium;
#METER:6;
#RADARVALUES:0.359101,0.432907,0.124304,0.504123,0.034529,364.000000,346.000000,18.000000,73.000000,0.000000,0.000000,0.000000,0.000000,0.000000,0.359101,0.432907,0.124304,0.504123,0.034529,364.000000,346.000000,18.000000,73.000000,0.000000,0.000000,0.000000,0.000000,0.000000;
#CREDIT:iamthek3n;
#NOTES:
0000
0000
0000
0000
,
0000
0000
0000
0000
,
2100
0000
3002
0000
,
2003
0000
0000
3020
0000
2030
0000
3002
,
0200
0003
0000
1000
,
0000
0301
0000
0000
,
1002
0000
0000
1000
0003
0000
0100
1000
,
0200
0000
0000
0000
0310
0000
0001
0100
,
0001
0000
0000
1000
0000
0000
0001
1000
,
0001
0000
0100
0001
0000
0000
0001
1000
,
0002
0000
0023
0000
,
2030
0000
0000
3002
0000
0203
0000
2300
,
0000
0000
0000
3000
0000
1000
0001
1000
,
0000
0010
0100
0010
0000
1000
0010
1000
,
0001
0000
0100
0001
0000
0000
1000
0001
,
0000
0000
0100
0010
1000
0000
0001
0010
,
0100
0000
0000
0100
1000
0001
0100
0000
,
0101
0000
0001
1000
0000
0000
0100
0010
,
0001
0000
0000
1000
0000
1000
0001
0100
,
0000
0001
0010
0100
0000
1000
0001
0100
,
0001
0000
0000
1000
0000
0010
1000
0001
,
0000
0100
0010
0001
0000
0001
0010
1000
,
0001
0000
0000
0100
0000
0010
0100
1000
,
0000
1000
0100
0001
0000
1000
0001
0100
,
0001
0000
1000
0200
0000
2300
0000
3002
,
0000
0100
0000
1003
0000
0000
0001
0100
,
0001
0100
0010
1000
,
0001
0100
0010
1000
,
0100
0010
0001
1000
,
0100
0010
0001
1000
,
0001
0100
0010
0200
0300
1000
0100
0002
,
0003
0100
0001
2000
3000
0010
0100
0001
,
1000
0000
0000
0100
0000
0000
1000
0000
0000
0000
0001
0000
0100
0000
0002
0000
,
0003
0002
0000
0000
0003
0000
1000
0000
0020
0000
0000
2030
0000
0000
3002
0000
,
0103
0000
1001
0000
0100
0001
1000
0010
,
0000
0100
0000
0010
1000
0001
0100
0010
,
0000
1000
0000
0001
0001
1000
0020
0000
,
0001
0000
0130
0010
0000
0010
1000
0001
,
0100
0001
0000
1000
0001
0100
0010
1000
,
0000
0100
0000
1000
0001
1000
0010
0100
,
0000
0001
0000
1000
0001
1000
0001
0000
,
0001
0000
0000
0010
0000
0000
0100
0000
0000
0000
1000
0000
0010
0000
1000
0000
,
0002
0000
0100
0000
2003
0000
0010
3020
,
0001
0000
0130
0010
1000
0000
0001
0000
,
2000
0000
0100
0000
3002
0000
0013
0020
,
0100
0000
0031
1000
0000
0010
1000
0001
,
0200
0000
1000
0000
0302
0000
1000
2003
,
0001
0000
3100
1000
0000
0001
1000
0010
,
1000
0100
0010
0001
,
0100
0000
0000
0000
0010
0000
1000
0000
0002
0000
0000
0023
0000
0000
0230
0000
,
0000
0300
1100
1000
0000
0100
0010
0001
,
0000
1000
0001
0100
0000
0010
0100
0001
,
1000
0000
0001
0000
1000
0100
0010
0001
,
0000
0010
0100
1000
0000
0010
1000
0001
,
1000
0000
0100
0000
1000
0001
0100
0001
,
0000
0010
0100
1000
0000
0001
1000
0010
,
0100
0001
1000
0010
,
2010
0000
0000
0000
0000
0000
0000
0000
3001
0000
0000
1000
0000
0000
0010
0000
,
0100
0010
0100
0010
0000
1000
0100
2200
,
3300
0220
0330
0202
0303
0001
1000
2002
,
3003
0220
0330
2020
3030
1000
0200
0000
,
0010
0000
0000
0000
1300
0000
0000
0000
0001
0000
0000
0010
0000
0000
0100
0000
,
1000
0100
1000
0100
0000
1000
0001
2002
,
3003
0220
0330
0022
0033
0010
0100
2200
,
3300
2002
3003
0202
0303
0100
0002
0000
,
0103
0000
0000
0001
0000
0000
1000
0000
0002
0000
0000
0023
0000
0000
0230
0000
,
1300
0000
0100
1000
0000
0001
1000
0001
,
0000
0000
0000
0000
0000
0100
0010
0100
,
0000
0000
0000
0000
0000
0001
0200
0000
,
0301
0000
0000
0000
0000
0000
0000
0000
2000
0000
0000
3200
0000
0000
0320
0000
,
0031
0000
0000
0000
0000
1000
0001
1000
,
0000
0000
0000
0000
0000
0010
0100
0010
,
0000
0000
0000
0000
0000
1000
0010
0000
,
0000
1000
0010
0000
0000
1000
0010
0000
;

//---------------dance-single - ----------------
#NOTEDATA:;
#CHARTNAME:X-Scale 11;
#STEPSTYPE:dance-single;
#DESCRIPTION:;
#CHARTSTYLE:;
#DIFFICULTY:Hard;
#METER:8;
#RADARVALUES:0.463675,0.536580,0.255514,0.614615,0.075964,470.000000,433.000000,37.000000,89.000000,0.000000,0.000000,0.000000,0.000000,0.000000,0.463675,0.536580,0.255514,0.614615,0.075964,470.000000,433.000000,37.000000,89.000000,0.000000,0.000000,0.000000,0.000000,0.000000;
#CREDIT:iamthek3n;
#NOTES:
0000
0000
0000
0000
,
0000
0000
0000
0000
,
0102
0000
2003
0000
,
3020
0000
0000
0230
0000
0302
0000
2003
,
0000
0000
3100
1000
0000
0010
0100
0001
,
0000
1000
0100
1000
0002
0000
0013
0100
,
1200
0000
0010
0010
0000
0000
1000
1000
,
0000
0000
0010
0320
0000
0000
0031
1000
,
2010
0000
0000
3002
0000
0000
0013
0100
,
1100
0000
1000
0001
0000
0100
0001
1000
,
0002
0000
0203
0000
,
0320
0000
0000
2030
0000
3200
0000
0320
,
0001
0000
0130
1000
0000
0001
0100
1000
,
0000
0001
0010
1000
0002
0000
0100
0000
,
2003
0000
0100
0100
3000
1000
0001
1000
,
0000
0010
0100
0001
2000
0000
0000
3001
,
0200
0000
0000
1300
0100
0001
2000
0000
,
3001
0000
0100
0001
0000
1000
0100
0010
,
0011
0000
0001
1000
0200
0300
0100
0001
,
2000
0000
3001
1000
0200
0000
0302
0000
,
1003
0010
0001
1000
0002
0000
0103
0001
,
0020
0000
1030
0010
0002
0000
2003
0000
,
3010
0000
1000
0010
0001
0010
0100
0010
,
1000
0000
0000
0000
0010
0000
1000
0001
0200
0000
0000
0000
0302
0000
0000
0000
,
0013
0000
0100
0020
0000
0032
0000
2003
,
0000
3000
1000
0200
0300
0100
0001
1000
,
0200
0000
0010
0000
2300
0000
3100
1000
,
0002
0000
0010
0000
2003
0000
3010
1000
,
0002
0000
0103
0001
2000
0000
3100
0010
,
0002
0000
1003
0020
0030
0010
0001
1000
,
0001
0010
0001
0010
1000
0010
1000
0010
,
0100
0010
0100
0010
0001
0010
0001
0010
,
1000
0001
0100
1000
0100
0010
0001
0002
,
0003
0002
0000
0000
0003
0000
0000
0000
0000
0000
1000
0001
1000
0000
1000
0000
,
1001
0000
0100
0000
0001
0000
1000
0001
0100
0000
0010
0000
0001
0000
0010
0000
,
1000
0000
0001
0000
0100
0000
0001
1000
0001
0000
0100
0000
0010
0000
0001
0000
,
0010
0000
1000
0000
0001
0000
1000
0010
0100
0000
0010
0000
1000
0000
0200
0000
,
0300
0000
0100
0000
0001
0000
1000
0000
1001
0000
0000
0001
1000
0000
0100
0000
,
0001
0000
0100
0000
0010
0000
0001
0010
0001
0000
1000
0000
0001
0000
0100
0000
,
0001
0000
1000
0000
0100
0000
0010
0100
1000
0000
0001
0000
0100
0000
0010
0000
,
1000
0000
0001
0000
0100
0000
1000
0100
0001
0000
1000
0000
0001
0000
0100
0000
,
0101
0000
0000
0110
0000
0000
1001
0000
0000
1100
0000
0000
1001
0000
0001
0000
,
0200
0000
1000
0000
0302
0000
0013
0200
,
0010
0000
1300
0020
0030
0010
0001
1000
,
0200
0000
0010
0000
2300
0000
3010
0200
,
0001
0000
0310
0200
0300
0100
1000
0001
,
0002
0000
0100
0000
0023
0000
0130
2000
,
0100
0000
3001
0200
0300
0100
1000
0001
,
1000
0100
0001
0100
1000
0010
0001
0010
,
1000
0000
0001
0000
0100
0000
0001
0000
1000
0000
0001
1000
0001
0000
0001
0000
,
0101
0000
0100
0001
1000
0000
0001
0000
1000
0000
0000
0000
0001
0000
0020
0000
,
0030
0010
1000
0200
0300
0100
0001
1000
,
0010
0000
0100
0010
0100
0000
0001
0000
1000
0000
0000
0000
0001
0000
0200
0000
,
0300
0100
1000
0020
0030
0010
0001
1000
,
0100
0000
0010
0100
0010
0000
0001
0000
0100
0000
0000
0000
0010
0000
0200
0000
,
0300
0100
1000
0020
0030
0010
0001
1000
,
0001
0000
1000
0010
1000
0000
0001
0000
0100
0000
0000
0000
0001
0000
0010
0000
,
0011
0000
0000
1010
0000
0000
1001
0000
0000
0110
0000
0000
1010
0000
0000
0000
,
1001
1000
0010
1000
0001
0010
0100
2200
,
3300
0220
0330
0202
0303
0001
1000
2002
,
3003
0220
0330
2200
3300
1000
0010
0100
,
0000
0001
0010
0100
0000
1000
0001
0100
,
1000
0100
0001
1000
0010
0100
0001
0202
,
0303
0220
0330
2002
3003
0100
1000
2200
,
3300
0202
0303
0022
0033
0001
1000
0010
,
1010
0000
0000
0011
0000
0000
0110
0000
0000
1001
0000
0000
1100
0000
0000
0000
,
1001
0000
0100
1000
0000
0000
0001
0100
,
0001
0000
1000
0001
0000
0000
0100
0010
,
0100
0000
0001
0010
0000
0000
0100
1000
,
0001
0000
0000
0000
1000
0000
0001
0000
0100
0000
0000
0001
0000
0000
1000
0000
,
0001
0000
0010
0100
0000
0000
1000
0010
,
1000
0000
0100
0010
0000
0000
0001
1000
,
0001
0000
0100
0001
0000
0000
1000
0001
,
1000
0000
0010
0100
0000
0000
0001
0100
,
0001
0000
0000
0000
;

//---------------dance-single - ----------------
#NOTEDATA:;
#CHARTNAME:X-Scale 12 (DANCERUSH Special);
#STEPSTYPE:dance-single;
#DESCRIPTION:;
#CHARTSTYLE:;
#DIFFICULTY:Challenge;
#METER:8;
#RADARVALUES:0.380805,0.459926,0.062152,0.379819,0.027623,386.000000,377.000000,9.000000,55.000000,164.000000,0.000000,0.000000,10.000000,0.000000,0.380805,0.459926,0.062152,0.379819,0.027623,386.000000,377.000000,9.000000,55.000000,164.000000,0.000000,0.000000,10.000000,0.000000;
#CREDIT:k3n -in sync-;
#NOTES:
// measure 0
0000
0000
0000
0000
,  // measure 1
0000
0000
0000
0000
,  // measure 2
2000
0000
3200
0000
,  // measure 3
0302
0000
0000
2003
0000
3020
0000
0032
,  // measure 4
0000
0003
1000
0010
0000
0000
0001
0010
,  // measure 5
0000
0000
1000
0010
0000
0000
0100
0001
,  // measure 6
1000
0000
0001
0010
0000
0000
1000
0010
,  // measure 7
0000
0000
0001
0010
0200
0000
0301
0100
,  // measure 8
2000
0000
0000
0002
3000
0000
0203
0310
,  // measure 9
0LL0
0000
0010
0100
0000
0001
1000
0000
,  // measure 10
0002
0000
0203
0000
,  // measure 11
2300
0000
0000
3002
0000
0023
0000
2030
,  // measure 12
0000
3000
0001
0100
0000
0000
1000
0100
,  // measure 13
0000
0000
0001
0100
1000
0100
0001
0000
,  // measure 14
1001
0000
1000
0100
0000
0000
0001
0100
,  // measure 15
0000
0000
1000
0100
0001
0100
0010
0001
,  // measure 16
2000
0000
0000
3010
0100
0002
0020
0033
,  // measure 17
00LL
0000
1000
0010
0000
0100
0001
0000
,  // measure 18
0101
0000
0001
0010
M100
0000
0001
0010
,  // measure 19
M100
0000
0001
1000
0020
0000
0230
0000
,  // measure 20
1300
0100
0010
0100
0002
0000
1003
0100
,  // measure 21
001M
0000
1000
0001
0200
0000
0320
0000
,  // measure 22
1030
0000
0001
0010
1000
0010
0001
1000
,  // measure 23
0020
0000
003M
0001
0100
0000
0010
0100
,  // measure 24
1000
0000
0100
0002
0000
2003
0000
3020
,  // measure 25
0001
0100
1030
L0L0
,  // measure 26
0001
MMMM
0001
MMMM
0001
0000
1000
0200
,  // measure 27
0000
0310
0100
2000
0000
3001
0100
0010
,  // measure 28
0200
0000
1000
0000
0301
0000
0001
0020
,  // measure 29
0000
1030
0010
0002
0000
0103
0001
1000
,  // measure 30
0010
0100
1000
0001
0010
0100
0001
1000
,  // measure 31
0100
0001
1000
0010
0100
1000
0001
0100
,  // measure 32
0010
0001
1000
0100
0010
2000
0002
3003
,  // measure 33
L00L
0000
0000
0000
0000
0000
0000
0000
0100
0000
0000
0001
0000
0000
1000
0000
,  // measure 34
MMMM
1000
MMMM
1000
0000
0010
0100
0001
,  // measure 35
MMMM
0001
MMMM
0001
0000
0010
0100
1000
,  // measure 36
MMMM
1000
MMMM
1000
0000
0010
0100
1000
,  // measure 37
0000
0000
0001
0000
0010
0000
0100
0000
0001
0000
0000
1000
0000
0000
0001
0000
,  // measure 38
MMMM
0001
MMMM
0001
0000
0100
0001
1000
,  // measure 39
MMMM
1000
MMMM
1000
0000
0100
1000
0001
,  // measure 40
MMMM
0001
MMMM
0001
0000
1000
0200
0000
,  // measure 41
0310
0000
0000
0100
0000
0000
1000
0000
0000
0001
0000
0000
0100
0000
0000
0000
,  // measure 42
0201
0000
1000
0000
0320
0000
0031
0010
,  // measure 43
1000
MMMM
1000
MMMM
1000
0000
0100
0010
,  // measure 44
0002
0000
0100
0000
2003
0000
3010
1000
,  // measure 45
0001
MMMM
0001
MMMM
0001
0000
0100
0001
,  // measure 46
0020
0000
1000
0000
0230
0000
0301
0100
,  // measure 47
1000
MMMM
1000
MMMM
1000
0000
0010
0000
,  // measure 48
0100
0010
0001
1000
0100
0010
1000
0001
,  // measure 49
0100
1000
0100
0001
2000
0001
0100
3001
,  // measure 50
1100
0000
0100
0000
1000
0001
0100
0020
,  // measure 51
0000
0031
0010
0200
0000
1300
0100
0010
,  // measure 52
1000
0000
0001
0000
0010
0100
1000
0200
,  // measure 53
0000
0301
0100
0020
0000
1030
0010
0001
,  // measure 54
1000
0000
0001
0000
0010
0001
0100
0020
,  // measure 55
0000
0031
0010
0200
0000
1300
0100
0001
,  // measure 56
1000
0000
0100
0000
0010
0100
1000
0001
,  // measure 57
0200
0000
0000
0000
0000
0000
0000
0000
0310
0000
0000
0100
0000
0000
0001
0000
,  // measure 58
MMMM
0001
MMMM
0001
0000
0010
0100
1000
,  // measure 59
MMMM
1000
MMMM
1000
0000
0010
0100
0001
,  // measure 60
MMMM
0001
MMMM
0001
0000
0100
0010
0001
,  // measure 61
0000
1000
0100
0010
0000
1000
0001
1000
,  // measure 62
MMMM
1000
MMMM
1000
0000
0100
1000
0001
,  // measure 63
MMMM
0001
MMMM
0001
0000
0100
0001
1000
,  // measure 64
MMMM
1000
MMMM
1000
0000
0100
0020
0000
,  // measure 65
0031
0000
0000
0010
0000
0000
1000
0000
0000
0100
0000
0000
0001
0000
1000
0000
,  // measure 66
0000
0001
0010
1000
0000
0001
0100
1000
,  // measure 67
MMMM
1000
MMMM
1000
0000
0010
1000
0001
,  // measure 68
MMMM
0001
MMMM
0001
0000
0100
0010
1000
,  // measure 69
0000
0000
0001
0000
0010
0000
0100
0000
0010
0000
0000
0001
0000
0000
1000
0000
,  // measure 70
0000
1000
0100
0001
0000
1000
0010
0001
,  // measure 71
MMMM
0001
MMMM
0001
0000
0100
0010
1000
,  // measure 72
MMMM
1000
MMMM
1000
0000
0001
0002
0000
,  // measure 73
0203
0010
0020
0000
0030
0001
0002
0303
,  // measure 74
0L0L
0000
0000
0000
;
