#TITLE:Synchronize (Acoustic);
#SUBTITLE:;
#ARTIST:Aaron Richards;
#TITLETRANSLIT:;
#SUBTITLETRANSLIT:;
#ARTISTTRANSLIT:;
#GENRE:Acoustic;
#CREDIT:;
#BANNER:Synchronize (Acoustic)-bn.png;
#BACKGROUND:Synchronize (Acoustic)-bg.png;
#LYRICSPATH:;
#CDTITLE:cdtitle.png;
#MUSIC:Synchronize (Acoustic).ogg;
#OFFSET:-0.506000;
#SAMPLESTART:62.060001;
#SAMPLELENGTH:16.000000;
#SELECTABLE:YES;
#BPMS:0.000000=62.999996
,50.000000=125.999992
,78.000000=62.999996
,79.000000=125.999992
,143.000000=62.999996
,159.000000=125.999992
,191.000000=62.999996
;
#STOPS:78.000000=0.952000
;
#BGCHANGES:-0.500=Synchronize (Acoustic).avi=1.000=1=0=0=StretchNoLoop==CrossFade==,
99999=-nosongbg-=1.000=0=0=0 // don't automatically add -songbackground-
;
#KEYSOUNDS:;
#ATTACKS:;

//---------------dance-single - ----------------
#NOTES:
     dance-single:
     X-Scale 10:
     Hard:
     7:
     0.365881,0.482430,0.092294,0.130750,0.215353,333.000000,321.000000,12.000000,17.000000,0.000000,0.000000,0.365881,0.482430,0.092294,0.130750,0.215353,333.000000,321.000000,12.000000,17.000000,0.000000,0.000000:
0000
0000
1001
0100
,
0001
0000
0000
0000
0000
0000
0100
0000
0000
0000
0010
0000
0000
0010
0000
0000
0200
0000
0000
0000
0000
0000
0000
0000
0000
0000
0000
0000
0000
0000
0000
0000
,
0000
0000
0300
0001
1000
0000
0100
0010
0200
0000
1000
0000
0000
0000
0000
0000
,
0000
0000
0300
0000
1000
0000
0100
0010
0002
0000
0000
0010
0000
0000
0103
0010
,
0200
0000
0000
0301
0101
0000
0100
0000
,
0010
0000
0000
1000
0000
0100
0000
0100
2000
0000
0000
0000
0000
0000
0000
0000
,
0000
0000
3000
1000
0001
0000
0001
0000
0200
0000
0000
0000
0000
0000
0000
0000
,
0000
0000
0300
0001
0100
0000
0001
0010
0100
0000
0000
1000
0010
0100
0001
0000
,
0002
0000
0000
0000
0000
0000
0103
0000
0101
0000
1000
0010
1000
0000
0001
0100
,
0001
0000
0100
0010
0100
0000
0100
0000
0010
1000
0100
0010
0001
0000
0001
0100
,
1000
0000
0001
0010
1000
0000
0001
0000
0011
0000
0010
0100
1000
0100
0010
0100
,
1000
0000
0000
0000
0000
0000
1000
0001
1000
0000
0000
0000
0010
0000
0000
0000
0010
0000
0000
0000
1000
0000
1000
0000
0000
0000
0010
0000
0000
0000
0200
0000
,
0000
0000
0302
0000
1000
0003
1000
0001
1000
0000
0000
0000
0001
0000
0000
0000
,
1000
0100
0010
0000
0010
0000
0100
0000
,
1000
0001
0010
0000
0001
0000
0100
0000
,
0010
1000
0100
0000
0100
0000
0010
0000
,
0001
1000
0000
1000
0100
1000
0010
0100
,
0000
0001
0010
0100
0000
1000
0010
1000
,
0000
0000
0001
0000
0100
0000
0010
0000
1000
0000
0000
0010
0000
0000
1000
0000
,
0000
0001
0010
0100
0110
0000
1001
1000
,
0000
1000
0000
1000
0010
0100
0010
1000
,
0000
1000
0000
1000
0100
0010
0001
1000
,
0000
1000
0000
1000
0002
0000
0100
0000
,
1003
0000
0001
0000
1000
0000
0000
0010
0000
0000
1000
0000
0100
0000
0010
0000
,
0000
0010
0000
0010
0001
0100
0001
0010
,
0000
0010
0000
0010
0100
1000
0001
0010
,
0000
0010
0000
0010
0200
0000
0010
0000
,
1300
0100
0001
0100
1000
0010
1010
0000
,
0100
0010
0001
0000
1000
0100
1000
0000
,
0010
0100
1000
0100
0001
0100
1001
0000
,
0100
0010
0110
0000
0010
1010
0000
0000
,
1000
0000
0001
0000
1000
0000
0010
0000
0100
0000
0010
0100
0010
0000
0000
0000
,
0001
0010
0100
0000
0001
1000
0010
0000
,
1000
0100
0010
0000
0100
1000
0001
1000
,
0001
0010
0100
0010
0100
1000
0010
1000
,
0010
0000
0100
0000
0001
0100
0001
0100
0001
0100
0001
0100
0001
0000
0000
1000
,
0010
0000
1000
0001
1000
0000
1000
0000
0100
0000
0010
0001
0010
0000
0001
0100
,
0001
0000
0000
0000
0010
0000
0000
0000
0100
0000
0000
0000
1000
0000
0000
0000
0001
0000
0000
1000
0000
0000
0100
0000
1000
0000
0020
0000
0000
0000
1000
0000
,
1000
0000
0000
0000
0130
0000
0010
0000
0100
0001
0010
0002
1000
0000
0000
0100
,
0203
0000
0000
0000
0000
0000
0300
0000
0001
0000
1000
0000
0001
0000
1000
0000
0001
0000
0000
0100
0000
0000
0010
0000
0110
0000
0000
0000
0010
0000
0000
0000
,
0000
0010
0000
0010
1000
0001
1000
0010
,
0000
0010
0000
0010
0100
1000
0100
0010
,
0000
0010
0000
0010
0200
0000
0001
0000
,
0301
0000
0100
0000
0010
0000
1000
0000
1000
0001
1000
0000
1001
0000
0001
0000
,
0000
0001
0000
0001
0100
0010
1000
0001
,
0000
0001
0000
0001
0010
0100
1000
0001
,
0000
0001
0000
0001
2000
0000
0001
0000
,
0010
0000
0000
0000
0100
0000
0000
0000
3010
0000
0000
1000
0002
0000
0000
0000
,
0000
0003
0000
0000
;

//---------------dance-single - ----------------
#NOTES:
     dance-single:
     X-Scale 9:
     Medium:
     6:
     0.316437,0.422342,0.015382,0.084603,0.146132,288.000000,286.000000,2.000000,11.000000,0.000000,0.000000,0.316437,0.422342,0.015382,0.084603,0.146132,288.000000,286.000000,2.000000,11.000000,0.000000,0.000000:
0000
0000
1000
0100
,
0010
0000
0000
0001
0000
0010
0000
0002
0000
0000
0003
0000
0000
0000
0000
0000
,
0000
0000
0000
1000
0010
0000
1000
0100
0020
0000
0000
0000
0030
0000
0000
0000
,
0000
0000
0000
0002
0000
0000
0103
0001
0100
0000
0000
0010
0000
0000
1000
0100
,
0020
0000
0000
0031
0001
0000
0100
0000
,
0001
0000
0000
0010
0000
0001
0000
0020
0000
0000
0030
0000
0000
0000
0000
0000
,
0000
0000
0000
1000
0100
0000
1000
0000
0020
0000
0000
0000
0030
0000
0000
0000
,
0000
0000
0000
0100
0001
0000
0010
0100
1000
0000
0000
0001
1000
0001
1000
0000
,
0200
0000
0000
0000
0000
0000
0310
0000
0010
0000
0100
0010
0100
0000
0010
0100
,
0010
0000
0001
1000
0001
0000
0010
0000
0100
0000
1000
0010
1000
0000
0100
0010
,
0001
0000
1000
0010
0100
0000
0010
0000
1000
0000
0100
0000
0010
0000
0001
0100
,
0001
0000
0010
0000
0100
0000
1000
0000
0010
0000
1000
0100
0010
0000
0100
0000
,
1000
0000
0001
0000
0010
0100
0010
0000
0001
0000
0000
0000
0100
0000
0000
0000
,
0001
0010
0100
1000
,
0010
1000
0001
0100
,
0010
0100
0001
0010
,
0100
0010
0000
0010
0001
1000
0010
1000
,
0000
0100
0010
0001
0000
1000
0001
1000
,
0000
0000
0001
0000
0010
0000
0100
0000
1000
0000
0000
0100
0000
0000
1000
0000
,
0000
0001
0010
0100
0100
0000
0110
0000
,
0010
0000
0001
1000
0010
1000
0001
0000
,
0100
0000
0010
1000
0001
1000
0010
0000
,
1000
0000
0100
0010
0002
0000
0010
0000
,
0003
0000
0000
0000
0001
0000
0000
0010
0000
0000
0001
0000
0010
0000
0000
0000
,
0100
0000
1000
0010
0001
0010
1000
0000
,
0100
0000
0010
0001
1000
0001
0010
0000
,
0100
0000
1000
0001
2000
0000
0010
0000
,
3000
0000
1000
0000
0100
0010
0001
0000
,
0100
0000
0001
0000
0010
0100
1000
0000
,
0010
0000
1000
0010
1000
0000
0001
0000
,
1000
0000
0100
0000
0010
0100
1000
0000
,
0001
0000
0100
0000
0001
0010
0100
0000
,
0010
0000
0001
0000
1000
0010
1000
0000
,
0100
0000
0010
0000
0001
0000
1000
0100
,
0010
0001
1000
0100
0010
0001
1000
0010
,
0100
0000
0001
0000
1000
0000
0010
0000
0100
0000
0001
0000
1000
0000
0000
0100
,
1000
0000
0010
0000
1000
0000
1000
0000
0001
0000
0010
0100
1000
0000
0000
0001
,
0010
0000
0001
0000
0100
0000
0100
0000
0010
0100
0000
0010
0100
0000
0000
0001
,
1000
0000
0001
0000
1000
0000
1000
0000
0010
0000
0100
0000
0001
0000
0000
1000
,
0100
0000
1000
0000
0010
0100
0010
0100
0010
0000
1000
0000
0001
0000
0000
0000
,
0010
0000
0100
1000
0010
1000
0100
0000
,
0010
0000
0001
0100
1000
0100
0001
0000
,
0010
0000
0001
1000
0020
0000
0001
0000
,
1030
0000
0000
0000
0010
0000
0000
0100
0000
0000
0010
0000
0100
0000
0000
0000
,
0001
0000
1000
0010
0100
0010
1000
0000
,
0100
0000
0010
0001
1000
0001
0010
0000
,
0100
0000
1000
0001
0020
0000
1000
0000
,
0100
0001
0031
0011
;

//---------------dance-single - ----------------
#NOTES:
     dance-single:
     X-Scale 5:
     Easy:
     3:
     0.195576,0.293803,0.069221,0.176897,0.003846,178.000000,169.000000,9.000000,23.000000,0.000000,0.000000,0.195576,0.293803,0.069221,0.176897,0.003846,178.000000,169.000000,9.000000,23.000000,0.000000,0.000000:
// measure 0
0000
0000
2000
0000
,  // measure 1
0100
0000
3020
0000
,  // measure 2
0000
0000
2030
0000
,  // measure 3
0000
0000
0000
0000
0000
0000
0000
0000
3002
0000
0000
0023
0000
0000
0032
0000
,  // measure 4
0203
0000
0000
0300
0020
0000
0000
0000
,  // measure 5
1000
0000
0230
0000
,  // measure 6
0000
0000
0302
0000
,  // measure 7
0000
0000
0000
0000
0000
0000
0000
0000
2003
0000
0000
3000
0200
0000
2300
0000
,  // measure 8
3020
0000
0000
0030
1000
0000
0001
0000
,  // measure 9
0100
0000
0001
0100
0001
0000
0010
0000
,  // measure 10
0100
0000
1000
0010
1000
0000
0001
0000
,  // measure 11
0100
0000
0001
0010
0001
0000
0100
0000
,  // measure 12
0010
1000
0001
0000
,  // measure 13
0100
0000
0001
0000
,  // measure 14
1000
0000
0100
0000
,  // measure 15
0010
0000
0001
0000
,  // measure 16
1000
0000
0001
0100
,  // measure 17
0010
1000
0001
0010
,  // measure 18
0100
1000
0010
1000
,  // measure 19
0001
1000
0010
1100
,  // measure 20
0010
1000
0001
1000
,  // measure 21
0100
0010
0100
1000
,  // measure 22
0010
0100
0001
0010
,  // measure 23
0100
1000
0001
1000
,  // measure 24
0010
0100
0001
1000
,  // measure 25
0001
0100
0010
0100
,  // measure 26
0001
0010
0100
1000
,  // measure 27
0001
1000
0010
2000
,  // measure 28
3000
0000
0200
0000
0300
0020
0000
0000
,  // measure 29
0031
0100
0001
0020
,  // measure 30
0030
0000
0200
0000
0300
2000
0000
0000
,  // measure 31
3001
1000
0001
0000
0100
0000
0020
0000
,  // measure 32
0030
0000
2000
0000
3000
0002
0000
0000
,  // measure 33
1003
0001
1000
0000
0100
0000
0010
0000
,  // measure 34
0001
0100
0001
0010
,  // measure 35
0100
0010
0001
1000
,  // measure 36
1001
0000
0010
0100
0110
0000
1000
0000
,  // measure 37
1001
0000
0100
0010
0110
0000
0001
0000
,  // measure 38
0011
0000
1000
0010
1010
0000
0100
0000
,  // measure 39
0110
0000
0001
0100
0101
0000
1000
0000
,  // measure 40
0010
1000
0100
0010
,  // measure 41
0100
1000
0001
0100
,  // measure 42
0001
1000
0100
0010
,  // measure 43
0001
1000
0010
1000
,  // measure 44
0001
0010
0100
0010
,  // measure 45
0001
1000
0001
0100
,  // measure 46
0001
1000
0100
0010
,  // measure 47
0100
1000
0001
1000
;

//---------------dance-single - ----------------
#NOTES:
     dance-single:
     X-Scale 1:
     Beginner:
     1:
     0.096689,0.091814,0.000000,0.000000,0.000000,88.000000,88.000000,0.000000,0.000000,0.000000,0.000000,0.096689,0.091814,0.000000,0.000000,0.000000,88.000000,88.000000,0.000000,0.000000,0.000000,0.000000:
// measure 0
0000
0000
1000
0000
,  // measure 1
0000
0000
0100
0000
,  // measure 2
0000
0000
0010
0000
,  // measure 3
0000
0000
0001
0000
,  // measure 4
1000
0000
0001
0000
,  // measure 5
0000
0000
0010
0000
,  // measure 6
0000
0000
0100
0000
,  // measure 7
0000
0000
1000
0000
,  // measure 8
0001
0000
1000
0000
,  // measure 9
0100
0000
0010
0000
,  // measure 10
0100
0000
1000
0000
,  // measure 11
0001
0000
0100
0000
,  // measure 12
0001
0000
1000
0000
,  // measure 13
0100
0000
0010
0000
,  // measure 14
0001
0000
0100
0000
,  // measure 15
0010
0000
1000
0000
,  // measure 16
0001
0000
0100
0000
,  // measure 17
0001
0000
1000
0000
,  // measure 18
0100
0000
0010
0000
,  // measure 19
0001
0000
1000
1000
,  // measure 20
0000
0010
0000
1000
,  // measure 21
0000
0001
0000
0100
,  // measure 22
0000
0001
0000
1000
,  // measure 23
0000
0100
0000
0010
,  // measure 24
0000
0100
0000
1000
,  // measure 25
0000
0001
0000
0100
,  // measure 26
0000
0001
0000
1000
,  // measure 27
0000
0100
0000
0010
,  // measure 28
0000
0000
0001
0000
0000
0001
0000
0000
,  // measure 29
0001
0000
0000
1000
,  // measure 30
0000
0000
0010
0000
0000
0010
0000
0000
,  // measure 31
0010
0000
0000
1000
,  // measure 32
0000
0000
0100
0000
0000
0100
0000
0000
,  // measure 33
0100
0000
0000
1000
,  // measure 34
0000
0000
0000
0001
,  // measure 35
0000
0000
0000
1000
,  // measure 36
0000
0100
0000
0010
,  // measure 37
0000
0001
0000
1000
,  // measure 38
0000
0010
0000
0100
,  // measure 39
0000
0001
0000
1000
,  // measure 40
0000
0010
0000
0100
,  // measure 41
0000
0001
0000
1000
,  // measure 42
0000
0100
0000
0010
,  // measure 43
0000
0001
0000
0100
,  // measure 44
0000
0010
0000
1000
,  // measure 45
0000
0001
0000
0010
,  // measure 46
0000
0100
0000
1000
,  // measure 47
0000
0001
0000
1000
;
