#VERSION:0.83;
#TITLE:Switch;
#SUBTITLE:;
#ARTIST:Dubscribe;
#TITLETRANSLIT:;
#SUBTITLETRANSLIT:;
#ARTISTTRANSLIT:;
#GENRE:Brostep;
#ORIGIN:;
#CREDIT:;
#BANNER:Switch-bn.png;
#BACKGROUND:Switch-bg.png;
#PREVIEWVID:;
#JACKET:Switch-jacket.png;
#CDIMAGE:;
#DISCIMAGE:;
#LYRICSPATH:;
#CDTITLE:cdtitle.png;
#MUSIC:Switch.ogg;
#OFFSET:-0.007000;
#SAMPLESTART:27.436001;
#SAMPLELENGTH:13.714000;
#SELECTABLE:YES;
#BPMS:0.000=140.000;
#STOPS:;
#DELAYS:;
#WARPS:;
#TIMESIGNATURES:0.000=4=4;
#TICKCOUNTS:0.000=4;
#COMBOS:0.000=1;
#SPEEDS:0.000=1.000=0.000=0;
#SCROLLS:0.000=1.000;
#FAKES:;
#LABELS:0.000=Song Start;
#BGCHANGES:;
#KEYSOUNDS:;
#ATTACKS:
;

//---------------dance-single - jumps sections are a nice homage to the DANCERUSH charts----------------
#NOTEDATA:;
#CHARTNAME:X-Scale 14;
#STEPSTYPE:dance-single;
#DESCRIPTION:jumps sections are a nice homage to the DANCERUSH charts;
#CHARTSTYLE:;
#DIFFICULTY:Hard;
#METER:9;
#RADARVALUES:0.667090,0.707520,0.459888,0.088440,0.548328,528.000000,476.000000,52.000000,10.000000,22.000000,0.000000,9.000000,0.000000,0.000000,0.667090,0.707520,0.459888,0.088440,0.548328,528.000000,476.000000,52.000000,10.000000,22.000000,0.000000,9.000000,0.000000,0.000000;
#CREDIT:;
#NOTES:
0000
0000
0000
0000
,
0000
0000
0000
0000
,
0000
0000
0000
0000
,
0000
0000
0000
0000
,
1000
0100
1100
0000
0001
0100
0101
0000
,
0010
0000
1001
0000
1000
0100
1010
0000
,
0001
0010
0011
0000
1000
0001
1001
0000
,
0010
0000
0101
0000
0001
1000
1100
0000
,
1000
0010
1000
0010
0001
0010
0001
0010
,
0100
0000
0000
0010
0000
0000
0100
0000
0000
0010
0000
0000
1000
0010
1000
0010
1000
0010
1000
0000
0000
0100
0000
0000
,
0010
0001
0010
0001
0010
1000
0010
1000
,
0010
0000
0000
0000
0000
0000
0100
0000
0000
0000
0000
0000
0010
0000
0000
0000
0000
0000
0100
0000
0000
0000
0000
0000
0010
0000
0001
0000
0010
0000
0001
0000
0000
0010
0000
0000
0001
0000
0000
0000
0000
0000
0001
0000
0000
0000
0000
0000
,
1000
0010
0100
0001
1000
0010
0100
0001
,
1000
0100
0010
0001
1000
0100
0010
0001
,
1000
0001
1000
0001
1000
0001
1000
0001
1000
0001
1000
0001
1000
0001
1000
0001
,
MMMM
MMM0
MM00
M000
,
0011
0010
0100
0010
0001
1000
0010
0001
,
0010
0000
1000
0000
0100
0000
0010
0000
0100
1000
0001
0100
0001
0000
1000
0000
,
0010
0100
0010
1000
0001
0010
1000
0010
,
0001
0000
0100
0000
0010
0000
0100
0000
1000
0100
0010
0100
0001
0010
0100
0010
,
0001
0010
1000
0010
0100
1000
0001
0010
,
0100
0000
0010
0000
0001
0000
1000
0000
0010
1000
0001
1000
0010
0000
1000
0000
,
0001
0100
0010
0100
0001
0010
0100
0010
,
0001
0000
0000
0000
0000
0000
1000
0000
0000
0000
0000
0000
0010
0000
0000
0000
0000
0000
0100
0000
0000
0000
0000
0000
0001
0000
0000
0000
0000
0000
0000
0000
0000
0001
0000
0000
1000
0000
0000
0000
0001
0000
0000
0000
1000
0000
0000
0000
,
1001
0001
0010
0001
1000
0100
0001
0100
,
1000
0010
0100
1000
0100
0001
1000
0010
,
0100
0010
1000
0001
0100
0010
0100
1000
,
0100
0001
0010
1000
0010
0100
1000
0100
,
0010
0010
0010
0010
0001
0001
0001
0001
,
1000
1000
1000
1000
0010
0010
0010
0010
,
0100
0010
0100
0010
0100
0010
0100
0010
0100
0010
0100
0010
0100
0010
0100
0010
,
4000
3000
0400
0300
0040
0030
0004
0003
0200
0000
0000
0000
0300
0000
MMMM
0000
,
1200
0000
0000
0300
2000
0000
0000
3000
1010
0000
0000
0000
0011
0000
0000
0000
,
1010
0011
1010
0011
,
4010
0000
0000
0000
0000
0000
0000
3000
1100
0000
0000
0000
0101
0000
0000
0000
,
1100
0000
0000
0000
0000
0000
0000
0000
0000
0000
0000
0000
0101
0000
0000
0000
0000
0000
0000
0000
0000
0000
0000
0000
1100
0000
0000
0000
0000
0000
0000
0000
0000
1000
0000
0000
0001
0000
0000
0000
1000
0000
0000
0000
0100
0000
0000
0000
,
0040
0000
0000
0000
0000
0000
0000
0030
0011
0000
0000
0000
1000
0000
0100
0000
,
1010
0000
0001
0010
0101
0000
1000
0100
,
1010
0000
0001
0010
0101
0000
1000
0100
,
1010
0000
0000
0000
0000
0000
0001
0100
0010
1000
0100
0010
,
0001
0000
0000
0001
0000
0100
0010
0000
1000
0000
0100
0000
0001
0100
0000
0100
,
1000
0000
0000
1000
0000
0100
0010
0000
0001
0000
0100
0010
0100
0010
0000
1000
,
0001
0000
0000
0001
0000
0100
0010
0000
0100
0000
0000
0010
1000
0010
0000
0100
,
0001
0000
0000
0010
0000
0100
0010
0000
0001
0000
1000
0010
0000
0100
0001
1000
,
0001
0100
1000
0100
0001
0100
1000
0100
,
0001
0010
1000
0010
0001
0010
1000
0010
,
0001
0100
0001
0100
0001
0100
0001
0100
0001
0100
0001
0100
0001
0100
0001
0100
,
0001
0100
1000
0100
0002
0000
M203
M300
,
2200
0000
0000
0000
0000
0000
330M
0000
0000
000M
0000
0000
1000
0000
0010
0000
0100
0000
0010
0000
1000
0000
0100
0000
,
0010
0100
1000
0001
0100
0010
0100
0001
1000
0010
0100
0010
,
2001
0000
0000
3400
0000
0000
0310
0100
1000
0001
0010
0100
,
0010
0001
1000
0010
0100
0010
1000
0001
0010
0001
0100
0010
,
0104
0000
0000
0000
0000
0000
0000
0003
1001
0000
0000
0000
0110
0000
0000
0000
,
1001
0110
1001
0110
,
1001
0110
1001
0110
,
2001
0000
0000
0000
0000
0000
0000
0000
0000
0000
0000
0000
0000
0000
0000
0000
0000
0000
0000
0000
0000
0000
0000
0000
3100
0000
0000
0000
0000
0000
1000
0000
0000
0100
0000
0000
1000
0000
0000
0000
0001
0000
0000
0000
0010
0000
0000
0000
,
M1M1
0000
0000
0M0M
0000
0000
1001
1000
0100
0001
0100
1000
,
0010
0100
0010
0001
0010
1000
0001
0100
0010
0100
0001
0010
,
0120
0000
0000
0034
0000
0000
1003
0100
0001
0100
1000
0001
,
0010
0100
0010
0001
1000
0010
0100
0010
0001
0010
1000
0100
,
0010
0100
0010
0000
0001
0000
0001
0000
0011
0000
0000
0000
0001
0000
0010
0000
,
0101
0000
1000
0100
1010
0000
0001
0010
,
0101
0000
1000
0100
1010
0000
0001
0010
,
0101
0000
0000
0000
0000
0000
0001
0100
0010
1000
0100
0010
,
0001
0000
0000
0000
;

//---------------dance-single - totally not 'air style'----------------
#NOTEDATA:;
#CHARTNAME:X-Scale 15;
#STEPSTYPE:dance-single;
#DESCRIPTION:totally not 'air style';
#CHARTSTYLE:;
#DIFFICULTY:Challenge;
#METER:10;
#RADARVALUES:0.505371,0.820723,0.902088,0.141504,0.159192,400.000000,298.000000,102.000000,16.000000,201.000000,2.000000,0.000000,4.000000,0.000000,0.505371,0.820723,0.902088,0.141504,0.159192,400.000000,298.000000,102.000000,16.000000,201.000000,2.000000,0.000000,4.000000,0.000000;
#CREDIT:;
#NOTES:
// measure 0
0000
0000
0000
0000
,  // measure 1
0000
0000
0000
0000
,  // measure 2
0000
0000
0000
0000
,  // measure 3
0000
0000
0000
0000
,  // measure 4
0001
0010
0001
0010
0001
0000
0100
0010
0100
0010
0100
0000
0001
0010
0001
0010
,  // measure 5
0001
0010
0001
0010
0001
0000
1000
0010
1000
0010
1000
0000
0001
0100
0001
0100
,  // measure 6
0001
0100
0001
0100
0001
0000
0010
0100
0010
0100
0010
0000
0001
1000
0001
1000
,  // measure 7
0001
1000
0001
1000
0001
0000
0100
0010
0100
0010
0100
0000
MMMM
0000
0000
0000
,  // measure 8
1010
0010
0001
1000
0100
0001
1000
0010
,  // measure 9
0001
0000
0000
1000
0000
0000
0100
0000
0000
0001
0000
0000
1000
0001
1000
0001
1000
0001
1000
0000
0000
1000
0000
0000
,  // measure 10
0001
0010
1000
0001
0100
1000
0001
0010
,  // measure 11
1000
0000
0000
0000
0000
0000
0001
0000
0000
0000
0000
0000
0100
0000
0000
0000
0000
0000
1000
0000
0000
0000
0000
0000
0001
0000
1000
0000
0001
0000
1000
0000
0000
0001
0000
0000
1000
0000
0000
0000
0000
0000
1000
0000
0000
0000
0000
0000
,  // measure 12
0010
0010
0010
0010
1000
1000
1000
1000
,  // measure 13
0100
0100
0100
0100
0010
0010
0010
0010
,  // measure 14
1000
0100
0010
0001
0010
0100
1000
0100
,  // measure 15
MMM1
00MM
M000
MMMM
,  // measure 16
0001
MMMM
0001
MMMM
0001
MMMM
0001
MMMM
,  // measure 17
0001
MMMM
0001
MMMM
0002
0000
0100
0000
,  // measure 18
1003
MMMM
1000
MMMM
1000
MMMM
1000
MMMM
,  // measure 19
1000
MMMM
1000
MMMM
2000
0000
0010
0000
,  // measure 20
3001
MMMM
0001
MMMM
0001
MMMM
0001
MMMM
,  // measure 21
0001
MMMM
0001
MMMM
0002
0000
0100
0000
,  // measure 22
1003
MMMM
1000
MMMM
1000
MMMM
1000
MMMM
,  // measure 23
1000
0000
0000
0000
0000
0000
MMMM
0000
0000
0000
0000
0000
1000
0000
0000
0000
0000
0000
MMMM
0000
0000
0000
0000
0000
1000
0000
0000
0000
0000
0000
0000
0000
0000
0001
0000
0000
0010
0000
0000
0000
0001
0000
0000
0000
0010
0000
0000
0000
,  // measure 24
0011
MMMM
1010
MMMM
1100
MMMM
0101
MMMM
,  // measure 25
0011
MMMM
1010
MMMM
1100
MMMM
0101
MMMM
,  // measure 26
0011
MMMM
1010
MMMM
1100
MMMM
0101
MMMM
,  // measure 27
0011
MMMM
1010
MMMM
1100
MMMM
0101
MMMM
,  // measure 28
1001
1000
0100
0001
0010
0100
1000
0100
,  // measure 29
0010
0001
0010
0100
1000
0100
0010
1000
,  // measure 30
0200
0001
0010
1300
,  // measure 31
0220
0000
0000
0000
0000
0000
0000
0330
0LL0
0000
0000
0000
0000
0000
0000
0000
,  // measure 32
1100
0101
0011
1010
,  // measure 33
1100
0101
0011
1010
,  // measure 34
1001
0000
0101
1100
,  // measure 35
1010
0011
0101
1100
,  // measure 36
0110
0000
0011
1010
,  // measure 37
1100
0101
0011
1010
,  // measure 38
0101
0011
1010
1100
,  // measure 39
2002
0000
0000
0000
0000
0000
0000
0000
0000
0000
0000
0000
0000
0000
0000
0000
0000
0000
0000
0000
0000
0000
0000
0000
0M00
0000
0000
0000
00M0
0000
0000
0000
0M00
0000
0000
0000
00M0
0000
0000
0000
0M00
0000
0000
0000
00M0
3003
0000
0000
,  // measure 40
M21M
0000
0000
0000
,  // measure 41
0002
0000
0000
0000
,  // measure 42
2000
0000
0000
0000
,  // measure 43
0020
0000
0000
3333
,  // measure 44
1100
0100
0100
0100
0010
0010
0010
0010
,  // measure 45
0001
0001
0001
0001
0100
0100
0100
0100
,  // measure 46
1000
0100
0010
0001
0010
0100
1000
0100
,  // measure 47
M010
000M
0M00
00M0
M000
0000
MMMM
MMMM
,  // measure 48
1100
0101
0011
1010
,  // measure 49
1100
0101
0011
1010
,  // measure 50
1001
0000
0011
1010
,  // measure 51
1100
0101
0011
1010
,  // measure 52
0110
0000
1010
0011
,  // measure 53
0101
1100
1010
0011
,  // measure 54
0101
1100
1010
0011
,  // measure 55
2002
0000
0000
0000
0000
0000
0000
3003
,  // measure 56
L00L
MMMM
1010
0011
,  // measure 57
0101
1100
1010
0011
,  // measure 58
1001
0000
1100
0101
,  // measure 59
0011
1010
1100
0101
,  // measure 60
1001
0000
0011
1010
,  // measure 61
1100
0101
0011
1010
,  // measure 62
0101
0011
1010
1100
,  // measure 63
2002
0000
0000
0000
0000
0000
0000
0000
0000
0000
0000
0000
0000
0000
0000
3003
,  // measure 64
M00M
0000
0000
0000
;

//---------------dance-single - ----------------
#NOTEDATA:;
#CHARTNAME:X-Scale 10;
#STEPSTYPE:dance-single;
#DESCRIPTION:;
#CHARTSTYLE:;
#DIFFICULTY:Medium;
#METER:7;
#RADARVALUES:0.445990,0.509414,0.168036,0.159192,0.088440,353.000000,334.000000,19.000000,18.000000,0.000000,0.000000,0.000000,0.000000,0.000000,0.445990,0.509414,0.168036,0.159192,0.088440,353.000000,334.000000,19.000000,18.000000,0.000000,0.000000,0.000000,0.000000,0.000000;
#CREDIT:;
#NOTES:
0000
0000
0000
0000
,
0000
0000
0000
0000
,
0000
0000
0000
0000
,
0000
0000
0000
0000
,
0001
0010
0100
0000
0010
0100
1000
0000
,
0001
0010
0100
0000
0010
0100
1000
0000
,
0001
0100
0010
0000
0100
0010
1000
0000
,
0001
0100
0010
0000
0100
0010
1000
0000
,
1001
1000
0001
1000
,
0100
0000
0010
0000
0001
0010
1000
0010
,
0001
0100
0010
0100
,
0001
0000
0010
0000
0100
1000
0001
1000
,
0100
0010
0100
0010
0001
0010
0001
0010
,
0100
0010
0100
1000
0001
1000
0001
0010
,
0100
1000
0001
0010
0100
1000
0001
0010
,
0101
0000
0000
0000
,
1001
1000
0100
0000
0010
0100
1000
0000
,
0001
0100
0010
0000
0001
0010
1000
0001
,
1000
0000
0100
0010
0001
0000
1000
0001
,
0100
0000
0010
0100
0001
0010
1000
0010
,
0001
0000
0100
0010
0001
0000
0001
0010
,
1000
0000
0001
0100
1000
0100
0010
0100
,
0001
0000
0010
0100
1000
0000
0001
1000
,
0010
0000
0000
0000
0000
0000
0100
0000
0000
0010
0000
0000
1000
0000
0000
0000
0000
0000
0100
0000
0010
0000
0100
0000
,
0010
0001
1000
0001
,
0010
0000
0001
0000
1000
0100
0001
0100
,
1000
0001
0100
0001
,
1000
0000
0001
0000
0100
0010
0001
0010
,
1000
0100
1000
0100
0010
0100
0010
0001
,
0010
0001
0010
1000
0010
1000
0010
0001
,
1000
0010
0100
0001
1000
0010
0100
0001
,
2000
3000
0002
0003
0020
0000
0030
0000
,
0101
0000
1001
1000
,
0100
1000
0100
1000
,
1100
0000
1001
0001
,
0100
0000
0000
0001
0000
0000
0100
0000
0000
0001
0100
0001
,
0100
0000
0000
0000
0110
0000
0010
0100
,
0010
0000
0100
0010
0100
0000
0010
0100
,
0010
0000
0100
0010
0100
0000
0010
0100
,
0020
0000
0000
0000
0000
0000
1030
0010
0100
0001
0100
0010
,
1000
0000
0000
0100
0000
0000
1000
0000
0001
0000
0010
0000
1000
0000
0010
0000
,
0001
0000
0000
0100
0000
0000
0001
0000
1000
0000
0001
0000
0100
0000
0001
0000
,
1000
0000
0000
0100
0000
0000
1000
0000
0010
0000
0001
0000
1000
0000
0100
0000
,
0001
0000
0000
0100
0000
0000
0001
0000
0010
0000
1000
0000
0001
0000
0100
0000
,
1000
0010
1000
0010
0001
0010
0001
0010
,
0100
0010
0100
0001
1000
0001
1000
0100
,
0010
0001
1000
0100
0010
0001
1000
0100
,
1010
0000
0000
0000
,
1001
0000
0201
1000
,
0302
0010
2003
0100
,
3010
0000
0201
1000
,
0302
0010
0203
1000
,
0310
0000
0110
1000
,
1010
0001
0011
0010
,
0101
0100
0110
0010
,
1010
0000
0000
0000
0000
0000
1000
0010
0100
0001
0100
0010
,
1000
0000
1200
0001
,
2300
0010
3002
0010
,
0103
0020
0230
1000
,
0302
0010
2003
0100
,
3010
1000
0001
1000
0010
0000
0100
0010
,
0100
0000
0010
0100
0010
0000
0100
0010
,
0100
0000
0010
0100
0010
0000
0100
0010
,
0200
0000
0000
0000
0000
0000
0301
1000
0100
0010
0100
1000
,
0001
0000
0000
0000
;

//---------------dance-single - ----------------
#NOTEDATA:;
#CHARTNAME:X-Scale 7;
#STEPSTYPE:dance-single;
#DESCRIPTION:;
#CHARTSTYLE:;
#DIFFICULTY:Easy;
#METER:5;
#RADARVALUES:0.346179,0.509414,0.397980,0.044220,0.000000,274.000000,229.000000,45.000000,5.000000,0.000000,0.000000,0.000000,0.000000,0.000000,0.346179,0.509414,0.397980,0.044220,0.000000,274.000000,229.000000,45.000000,5.000000,0.000000,0.000000,0.000000,0.000000,0.000000;
#CREDIT:;
#NOTES:
0000
0000
0000
0000
,
0000
0000
0000
0000
,
0000
0000
0000
0000
,
0000
0000
0000
0000
,
1000
0000
1100
0000
0000
0001
0101
0000
,
0100
0000
0110
0000
0000
0010
1010
0000
,
1000
0000
1001
0000
0000
0001
0101
0000
,
0100
0000
0110
0000
0000
0010
0101
0000
,
1000
0001
0100
0010
,
1000
0000
0001
0000
0100
0010
1000
0010
,
0100
0001
1000
0010
,
0100
0000
0001
0000
1000
0100
0010
0100
,
1000
0000
0001
1000
0010
0000
0100
0001
,
1000
0000
0001
1000
0010
0000
0100
0001
,
1000
0100
0010
0001
,
1001
0000
0000
0000
,
0110
0010
0001
1000
,
0100
0000
0010
0000
0001
0000
1000
0001
,
1000
0010
0100
0010
,
1000
0000
0001
0000
0010
0000
0100
0010
,
0100
1000
0001
1000
,
0100
0000
1000
0000
0001
0100
0001
0000
,
1000
0010
0100
0010
,
1000
0000
0001
0000
0010
0000
0100
0010
,
0100
1000
0001
0010
,
0100
0000
1000
0000
0001
1000
0100
1000
,
0001
0100
0010
0100
,
0001
0000
1000
0000
0100
0010
0001
1000
,
0001
0000
0010
0000
0100
0000
1000
0001
,
1000
0000
0010
0000
0100
0000
0001
1000
,
0001
0010
0100
1000
,
0001
0010
0001
0100
0002
0000
0003
0000
,
1001
0000
0110
0000
,
1001
0000
0110
0000
,
1001
0000
0110
0000
,
1001
0000
0110
0000
,
1001
0000
1000
0100
,
0010
0001
0100
0010
,
1000
0001
0010
0100
,
2000
0000
0000
0000
0000
0000
0000
3000
,
1001
0000
0000
0000
,
0010
0000
0000
0000
,
0100
0000
0000
0000
,
1000
0000
0000
0000
,
0001
0100
0001
0100
1000
0100
1000
0100
,
0010
0100
0010
0100
0001
0100
0001
0010
,
0100
1000
0001
1000
0100
1000
0001
1000
,
1001
0000
0000
0000
,
0110
0000
1001
1000
,
1001
0001
1001
1000
,
1001
0000
0110
0010
,
0110
0100
0110
0010
,
0110
0000
1001
0000
,
0110
0000
1001
0000
,
0110
0000
1001
0000
,
0220
0000
0000
0000
,
0330
0000
1001
1000
,
1001
0001
1001
1000
,
1001
0000
0110
0010
,
0110
0100
0110
0010
,
0110
0000
0000
0000
1001
0000
1000
0001
,
1000
0000
0100
0010
0100
0000
1000
0001
,
1000
0000
0100
0010
0100
0000
1000
0001
,
2000
0000
0000
0000
,
3001
0000
0000
0000
;

//---------------dance-single - ----------------
#NOTEDATA:;
#CHARTNAME:X-Scale 3;
#STEPSTYPE:dance-single;
#DESCRIPTION:;
#CHARTSTYLE:;
#DIFFICULTY:Beginner;
#METER:2;
#RADARVALUES:0.162982,0.283008,0.159192,0.000000,0.000000,129.000000,111.000000,18.000000,0.000000,0.000000,0.000000,0.000000,0.000000,0.000000,0.162982,0.283008,0.159192,0.000000,0.000000,129.000000,111.000000,18.000000,0.000000,0.000000,0.000000,0.000000,0.000000,0.000000;
#CREDIT:;
#NOTES:
0000
0000
0000
0000
,
0000
0000
0000
0000
,
0000
0000
0000
0000
,
0000
0000
0000
0000
,
0000
0001
0000
1000
,
0000
0001
0000
1000
,
0000
0100
0000
0010
,
0000
0100
0000
0010
,
0110
0000
0100
0000
,
1000
0000
0001
0000
,
1000
0000
0100
0000
,
1000
0000
0001
0000
,
0100
0000
0010
0000
,
0100
0000
0001
0000
,
0100
0000
0010
0000
,
0100
0000
0000
0000
,
1001
0000
1000
0000
,
0001
0000
0100
0000
,
0010
0000
1000
0000
,
0100
0000
0010
0000
,
0001
0000
1000
0000
,
0001
0000
0100
0000
,
0010
0000
1000
0000
,
0001
0000
0010
0000
,
0100
0000
1000
0000
,
0001
0000
1000
0000
,
0100
0000
1000
0000
,
0001
0000
1000
0000
,
0010
0000
1000
0000
,
0001
0000
1000
0000
,
0010
0000
0100
0000
,
0001
0000
0000
0000
,
1001
0000
1000
0000
,
1000
0000
1000
0000
,
1000
0000
0001
0000
,
0001
0000
0001
0000
,
0001
0000
1000
0000
,
0100
0000
0010
0000
,
0100
0000
1000
0000
,
0100
0000
0000
0000
,
0010
0000
0000
0000
,
0001
0000
0000
0000
,
1000
0000
0000
0000
,
0100
0000
0000
0000
,
1000
0000
0001
0000
,
1000
0000
0010
0000
,
0100
0000
0010
0000
,
1000
0000
0000
0000
,
1001
0000
1000
0000
,
1001
0000
0001
0000
,
1001
0000
0010
0000
,
0110
0000
0100
0000
,
0110
0000
1000
0000
,
0001
0000
1000
0000
,
0001
0000
1000
0000
,
0001
0000
0000
0000
,
1001
0000
1001
0000
,
0110
0000
1001
0000
,
0110
0000
1001
0000
,
0110
0000
1001
0000
,
0110
0000
1000
0000
,
0001
0000
1000
0000
,
0001
0000
1000
0000
,
0001
0000
0000
0000
,
1001
0000
0000
0000
;
