#TITLE:Sweet Victory;
#SUBTITLE:;
#ARTIST:David Glen Eisley;
#TITLETRANSLIT:;
#SUBTITLETRANSLIT:;
#ARTISTTRANSLIT:;
#GENRE:Stadium Rock;
#CREDIT:;
#BANNER:Sweet Victory-bn.png;
#BACKGROUND:Sweet Victory-bg.png;
#LYRICSPATH:;
#CDTITLE:cdtitle.png;
#MUSIC:Sweet Victory.ogg;
#OFFSET:0.007000;
#SAMPLESTART:25.566999;
#SAMPLELENGTH:15.000000;
#SELECTABLE:YES;
#BPMS:0.000000=122.000000
;
#STOPS:
;
#BGCHANGES:0.000=Sweet Victory.avi=1.000=1=0=0=StretchNoLoop==CrossFade==,
99999=-nosongbg-=1.000=0=0=0 // don't automatically add -songbackground-
;
#KEYSOUNDS:;
#ATTACKS:;

//---------------dance-single - ----------------
#NOTES:
     dance-single:
     X-Scale 11:
     Hard:
     7:
     0.393324,0.576603,0.211113,0.448616,0.167131,313.000000,289.000000,24.000000,51.000000,0.000000,0.000000,0.393324,0.576603,0.211113,0.448616,0.167131,313.000000,289.000000,24.000000,51.000000,0.000000,0.000000:
// measure 0
0000
0000
0000
0000
,  // measure 1
0000
0000
0000
0000
,  // measure 2
0000
0000
0000
0000
,  // measure 3
0000
0000
0000
0000
,  // measure 4
0000
0000
0000
0000
0000
0000
0001
0000
0020
0000
0030
0002
0000
0003
2000
0000
,  // measure 5
3200
0000
0000
0000
0300
0001
0100
1000
,  // measure 6
0020
0000
0000
0000
0000
0000
1030
0010
,  // measure 7
0200
0000
0000
0000
0301
0000
2000
0000
0000
3000
0200
0000
0010
0300
0002
0000
,  // measure 8
2000
0003
0000
0000
0000
0000
3001
0000
2000
0000
3020
0000
0230
0000
0302
0000
,  // measure 9
1000
0000
0000
0000
0003
0001
0010
0100
,  // measure 10
2000
0000
0000
0000
0000
3001
1000
0100
,  // measure 11
2000
0000
3010
0200
0000
0300
0001
2000
,  // measure 12
0100
0000
3000
1000
0001
0100
0010
0000
,  // measure 13
0110
0000
0000
0000
0000
0000
0100
0000
0002
0000
0003
2000
0000
3000
0002
0000
,  // measure 14
0013
0000
0000
0000
0001
0000
0010
0100
2000
0000
3000
0200
0000
0300
2000
0000
,  // measure 15
3001
0000
0000
0000
1000
0000
0100
0000
0020
0000
0030
0002
0000
0003
2000
0000
,  // measure 16
3100
0000
0000
0000
1000
0000
0001
0010
0001
0000
0000
0000
1000
0000
0010
0100
,  // measure 17
0001
0100
1000
0100
0010
0100
0001
0100
,  // measure 18
0010
0000
2000
0000
0000
0000
3001
0000
1000
0000
0000
0100
0000
0000
1000
0000
,  // measure 19
1010
0001
1000
0001
0010
0000
0011
0011
,  // measure 20
0000
1000
0000
0010
1000
0001
0100
0010
,  // measure 21
0120
0000
0000
0000
1000
0000
0001
0100
,  // measure 22
0230
0000
1000
0000
0010
0000
0002
0003
,  // measure 23
0301
0000
1000
0001
0010
0000
0100
1000
,  // measure 24
0001
0000
1000
0000
0001
0010
0100
1000
,  // measure 25
2100
0000
0000
3000
0002
0000
0013
0002
,  // measure 26
1000
0003
0001
0000
1001
0000
1000
0010
,  // measure 27
0100
0000
0000
0001
0010
0100
1000
0000
0000
0110
0000
0000
,  // measure 28
0000
0000
1000
0000
0010
0000
0001
0000
1000
0000
0100
0000
0001
0000
0010
0001
,  // measure 29
0020
0000
0000
0000
1000
0000
0100
0001
,  // measure 30
0032
0000
1000
0000
0010
0000
0200
0300
,  // measure 31
0103
0000
0001
1000
0100
0000
0010
0001
,  // measure 32
1000
0000
0001
0000
0100
0010
0001
0010
,  // measure 33
0210
0000
0001
2000
0000
3000
1000
0002
,  // measure 34
0000
0000
0000
0000
0000
0000
0000
0000
0000
0000
0000
0000
0003
0000
0301
0100
,  // measure 35
0001
0000
0000
1000
0000
0001
0010
0000
,  // measure 36
0011
0000
0000
0000
0000
0000
0000
0000
0000
1010
0000
0000
0000
0000
0000
0000
0000
0000
1001
0000
0000
0000
0000
0000
1000
0000
0000
0000
0100
0000
0000
0000
1000
0000
0000
0000
0001
0000
1000
0000
0001
0000
1000
0000
0001
0000
1000
0000
,  // measure 37
0002
0000
0000
0000
0013
0100
1000
0001
,  // measure 38
2000
0000
0010
3000
2000
0000
0001
3001
,  // measure 39
1000
0000
0000
0000
1000
0000
0001
0000
0010
0000
0000
0000
0100
0000
1000
0100
,  // measure 40
1000
0000
0000
0001
0000
0000
0100
0000
0001
0000
0100
0000
0001
0000
1000
0000
0001
0000
1000
0000
0100
0000
1000
0000
0200
0000
0000
0000
0000
0000
0010
0000
0000
0000
0000
0000
0010
0000
0000
0000
0000
0000
0010
0000
0000
0000
0000
0000
,  // measure 41
0310
0000
0100
0000
1001
0000
1000
0100
,  // measure 42
0010
0000
0001
0000
0101
0000
0100
0010
,  // measure 43
1010
0000
0000
1000
0100
0010
0001
0000
0000
0011
0000
0000
,  // measure 44
1000
0000
0001
0000
0100
0000
0010
0000
0000
0000
1000
0000
0001
0000
0000
0011
0000
0000
0010
0000
0000
0100
0000
0000
,  // measure 45
2100
0000
0000
0000
0001
0000
0100
0010
,  // measure 46
3020
0000
0001
0000
1030
0010
0100
0010
,  // measure 47
1000
0000
0100
0010
0001
2000
0000
0010
,  // measure 48
3010
0000
0000
0000
1000
0010
1000
0000
0000
0001
0010
0001
0020
0000
0000
0100
0000
0000
0000
0000
0000
0100
0000
0000
,  // measure 49
0230
0000
1300
0100
0001
0100
0010
0001
,  // measure 50
0011
0000
0010
0001
1000
1001
0000
1000
,  // measure 51
1010
0010
0000
0100
0001
0010
0110
0110
,  // measure 52
0000
0000
0000
0000
0000
1000
0000
0100
0000
0000
1000
0000
1001
0000
0002
0000
,  // measure 53
0200
0000
0000
0000
,  // measure 54
0000
0000
0000
0000
,  // measure 55
0000
0000
0000
0000
,  // measure 56
0300
0000
0000
0000
,  // measure 57
0003
0000
0000
0000
;

//---------------dance-single - ----------------
#NOTES:
     dance-single:
     X-Scale 8:
     Medium:
     5:
     0.321697,0.451255,0.131946,0.219910,0.074769,256.000000,241.000000,15.000000,25.000000,0.000000,0.000000,0.321697,0.451255,0.131946,0.219910,0.074769,256.000000,241.000000,15.000000,25.000000,0.000000,0.000000:
// measure 0
0000
0000
0000
0000
,  // measure 1
0000
0000
0000
0000
,  // measure 2
0000
0000
0000
0000
,  // measure 3
0000
0000
0000
0000
,  // measure 4
0000
0000
0000
0000
,  // measure 5
2000
0000
0000
0000
3000
0001
0010
0001
,  // measure 6
2000
0000
0000
0000
3000
0000
0010
0100
,  // measure 7
0001
0000
1000
0010
0000
1000
0010
0000
,  // measure 8
0100
0000
0000
0000
0000
0000
0001
0000
0020
0000
0030
0002
0000
2003
0000
3020
,  // measure 9
0000
0000
0000
0000
0000
1030
0010
1000
,  // measure 10
0002
0000
0000
0000
0003
0100
0001
1000
,  // measure 11
0200
0300
0100
0020
0000
0030
0010
0001
,  // measure 12
1000
0000
0000
0001
0010
0100
1000
0000
,  // measure 13
2100
0000
0000
0000
3001
0000
1000
0100
,  // measure 14
0010
0000
0000
0000
0001
0000
0000
0000
0100
0000
0000
0010
0000
0000
0100
0000
,  // measure 15
0010
0000
0000
1000
0001
1000
0100
1000
,  // measure 16
0001
0010
0100
1000
,  // measure 17
0001
0100
0001
0100
0010
1000
0010
1000
,  // measure 18
0100
0010
0100
0010
0001
1000
0001
1000
,  // measure 19
0010
0100
0010
0100
0110
0000
1000
1100
,  // measure 20
0000
0010
0000
0100
0001
1000
0010
0000
,  // measure 21
1010
0000
1000
0000
0001
0000
0010
0100
,  // measure 22
1000
0000
0001
0000
1000
0000
0100
1000
,  // measure 23
0010
0000
0001
0010
0100
0000
0001
1000
,  // measure 24
0100
0000
1000
0000
0100
0010
0001
0000
,  // measure 25
0012
0000
0000
0000
1003
0000
0010
0100
,  // measure 26
0001
1000
0010
1000
,  // measure 27
0001
0000
0000
0010
0100
0010
0100
0000
0000
1100
0000
0000
,  // measure 28
0000
1000
0010
1000
0001
1000
0010
0100
,  // measure 29
0120
0000
0001
0000
,  // measure 30
2030
0001
0100
0001
,  // measure 31
3001
0000
0010
0100
1000
0000
0001
0100
,  // measure 32
0010
0000
1000
0000
0001
0100
0010
1000
,  // measure 33
2010
0000
0000
0002
0000
0003
0100
0200
,  // measure 34
0000
0000
0000
0000
0000
0000
0000
0300
,  // measure 35
3100
0000
0000
1000
0000
1000
0001
0000
,  // measure 36
0100
0000
0000
0000
0000
0000
0000
0000
0000
0010
0000
0000
0000
0000
0000
0000
0000
0000
1000
0000
0000
0000
0000
0000
0001
0000
0000
0000
0100
0000
0000
0000
0001
0000
0000
0000
0100
0000
0000
0000
0000
0000
0000
0000
0000
0000
0000
0000
,  // measure 37
0201
0000
1000
0000
,  // measure 38
0302
0000
0100
0000
0010
0000
1003
0001
,  // measure 39
1000
0000
0100
1000
0001
0000
0100
0010
,  // measure 40
1000
0000
0001
0100
0001
0001
1000
1000
,  // measure 41
2001
0000
0000
0000
3200
0000
1300
0001
,  // measure 42
0100
0000
0010
0000
2000
0000
0000
0001
,  // measure 43
3001
0000
0000
0010
0100
0010
0100
0000
0000
1000
0000
0000
,  // measure 44
0001
0000
0100
0000
0001
0000
0100
0000
0000
0000
0010
0000
1000
0000
0000
1010
0000
0000
0000
0000
0000
0001
0000
0000
,  // measure 45
0021
0000
1000
0000
,  // measure 46
0032
0000
0010
0000
1000
0000
0103
0001
,  // measure 47
1000
0000
0100
1000
0001
0000
0100
0010
,  // measure 48
1000
0000
0001
0000
0100
0010
0100
0010
,  // measure 49
0100
0000
0001
0010
0100
0000
0010
0100
,  // measure 50
1000
0000
0001
0100
0010
0000
0100
0010
,  // measure 51
1000
0001
0000
0001
0010
0000
0011
0011
,  // measure 52
0000
0000
0000
0000
0000
1000
0000
0100
0000
0000
1000
0000
0000
0001
0000
0000
,  // measure 53
2002
0000
0000
0000
,  // measure 54
0000
0000
0000
0000
,  // measure 55
0000
0000
0000
0000
,  // measure 56
0003
0000
0000
0000
,  // measure 57
3000
0000
0000
0000
;

//---------------dance-single - ----------------
#NOTES:
     dance-single:
     X-Scale 5:
     Easy:
     3:
     0.272688,0.418598,0.175928,0.316670,0.000000,217.000000,197.000000,20.000000,36.000000,0.000000,0.000000,0.272688,0.418598,0.175928,0.316670,0.000000,217.000000,197.000000,20.000000,36.000000,0.000000,0.000000:
// measure 0
0000
0000
0000
0000
,  // measure 1
0000
0000
0000
0000
,  // measure 2
0000
0000
0000
0000
,  // measure 3
0000
0000
0000
0000
,  // measure 4
0000
0000
0000
0000
,  // measure 5
0002
0000
0003
1000
,  // measure 6
2000
0000
0000
3000
,  // measure 7
0020
0000
0030
0100
,  // measure 8
0200
0000
0000
0300
,  // measure 9
0002
0000
0003
1000
,  // measure 10
2000
0000
0000
3000
,  // measure 11
0200
0000
0300
0010
,  // measure 12
0020
0000
0031
0010
,  // measure 13
0021
0000
0000
0000
0130
0000
1000
0100
,  // measure 14
2000
0000
0001
0000
3001
0000
1000
0001
,  // measure 15
2000
0000
0010
0000
3010
0000
1000
0100
,  // measure 16
0020
0000
0001
0000
0031
0000
0010
0100
,  // measure 17
1000
0000
0001
1000
0001
0000
1000
0001
,  // measure 18
1000
0000
0010
0100
0010
0000
0100
0010
,  // measure 19
0100
0000
0001
0100
0001
0000
0100
0110
,  // measure 20
0000
0010
0000
1000
0100
1000
0001
0000
,  // measure 21
2001
0000
0010
0001
,  // measure 22
3002
0000
1000
0000
0013
0000
0100
1000
,  // measure 23
0100
0000
1000
0001
1001
0000
1000
0020
,  // measure 24
0100
0030
0010
0000
0110
0000
0100
0001
,  // measure 25
2000
0000
0000
3000
0200
0000
0310
0001
,  // measure 26
1000
0000
0001
0000
1001
0000
1000
0100
,  // measure 27
2000
3002
0023
0230
,  // measure 28
0300
1000
0100
1000
0001
0100
0000
0000
,  // measure 29
0101
0000
0100
0000
0001
0000
1000
0001
,  // measure 30
1000
0000
0010
0000
0100
0000
0001
0010
,  // measure 31
0001
0000
1000
0010
0100
0000
0010
0100
,  // measure 32
0001
0000
1000
0000
0001
0100
0000
0000
,  // measure 33
0201
0000
0000
0000
,  // measure 34
0000
0000
0000
0000
,  // measure 35
0310
0000
0000
0001
0000
1000
0001
0000
,  // measure 36
0010
0000
0000
0100
0010
0000
0100
0000
,  // measure 37
2100
0000
0001
0000
,  // measure 38
3010
0000
1000
0000
0001
0000
0010
0100
,  // measure 39
1000
0000
0001
1000
1001
0000
1000
0100
,  // measure 40
0010
0000
0000
0001
1000
0001
1000
0001
,  // measure 41
2000
0000
0100
0000
3200
0000
0310
0002
,  // measure 42
0000
2003
0000
3000
1001
0000
0001
0100
,  // measure 43
0020
2030
3002
0023
,  // measure 44
0130
0000
0010
0000
0001
0011
0000
1000
,  // measure 45
1020
0000
0100
0000
,  // measure 46
2030
0001
0001
3020
,  // measure 47
0230
0000
0301
2000
0100
3000
1000
0010
,  // measure 48
1000
0000
0000
0001
0100
0010
0000
0010
,  // measure 49
0110
0000
0100
0001
0101
0000
0001
1000
,  // measure 50
1001
0000
1000
0100
1100
1000
0000
0001
,  // measure 51
1001
1000
0010
1000
0010
0000
0100
0110
,  // measure 52
0000
0000
0000
0000
0000
0000
1000
1001
;

//---------------dance-single - ----------------
#NOTES:
     dance-single:
     X-Scale 2:
     Beginner:
     1:
     0.110583,0.139203,0.043982,0.000000,0.000000,88.000000,83.000000,5.000000,0.000000,0.000000,0.000000,0.110583,0.139203,0.043982,0.000000,0.000000,88.000000,83.000000,5.000000,0.000000,0.000000,0.000000:
0000
0000
0000
0000
,
0000
0000
0000
0000
,
0000
0000
0000
0000
,
0000
0000
0000
0000
,
0000
0000
0000
0000
,
1000
0000
0000
0000
,
0100
0000
0000
0000
,
0010
0000
0000
0000
,
0001
0000
0000
0000
,
1000
0000
0000
0000
,
0010
0000
0000
0000
,
0100
0000
0000
0000
,
0001
0000
1000
0000
,
1001
0000
0010
0000
,
0001
0000
1000
0000
,
0001
0000
0100
0000
,
0010
0000
0100
0000
,
0001
0000
1000
0000
,
0001
0000
1000
0000
,
0001
0000
0100
0010
,
0000
0000
0000
0000
,
0110
0000
0100
0000
,
0001
0000
0100
0000
,
0001
0000
0010
0000
,
0100
0000
1000
0000
,
0001
0000
1000
0000
,
0001
0000
0010
0000
,
0100
0010
0100
0010
,
0000
0000
0000
0000
,
0001
0000
1000
0000
,
0001
0000
1000
0000
,
0100
0000
0010
0000
,
0100
0000
0010
0000
,
0001
0000
0000
0000
,
0000
0000
0000
0000
,
1000
0000
0000
0000
,
0001
0000
0000
0000
,
1001
0000
1000
0000
,
0100
0000
1000
0000
,
0100
0000
0010
0000
,
0100
0000
0010
0000
,
0001
0000
0010
0000
,
0001
0000
1000
0000
,
0100
0010
0100
0010
,
0000
0000
0001
0000
,
0001
0000
0010
0000
,
0001
0000
0010
0000
,
0100
0000
0010
0000
,
0100
0000
0010
0000
,
0001
0000
1000
0000
,
0001
0000
1000
0000
,
0100
0000
0000
0110
,
0000
0000
0000
1001
;
