#TITLE:Superman;
#SUBTITLE:;
#ARTIST:Eminem;
#TITLETRANSLIT:;
#SUBTITLETRANSLIT:;
#ARTISTTRANSLIT:;
#GENRE:Hip-Hop;
#CREDIT:;
#BANNER:superman-bn.png;
#BACKGROUND:superman-bg.png;
#LYRICSPATH:;
#CDTITLE:cdtitle.png;
#MUSIC:superman.ogg;
#OFFSET:0.000000;
#SAMPLESTART:14.789001;
#SAMPLELENGTH:14.800000;
#SELECTABLE:YES;
#BPMS:0.000000=65.000000
;
#STOPS:
;
#BGCHANGES:0.000=superman.avi=1.000=1=0=0=StretchNoLoop==CrossFade==,
99999=-nosongbg-=1.000=0=0=0 // don't automatically add -songbackground-
;
#KEYSOUNDS:;
#ATTACKS:;

//---------------dance-single - ----------------
#NOTES:
     dance-single:
     :
     Hard:
     10:
     0.527126,0.526885,0.278641,0.016887,0.806370,437.000000,404.000000,33.000000,2.000000,0.000000,0.000000,0.527126,0.526885,0.278641,0.016887,0.806370,437.000000,404.000000,33.000000,2.000000,0.000000,0.000000:
// measure 0
0000
0000
0000
0000
,  // measure 1
0000
0000
0000
0000
,  // measure 2
0000
0000
0000
0000
,  // measure 3
0000
0000
0000
0000
,  // measure 4
1010
0100
1000
0100
0010
0100
1000
0100
0010
0000
0001
0000
1000
0000
0010
0000
,  // measure 5
0101
0001
0010
0001
0100
0001
0010
0100
0110
0010
0100
0010
1000
0010
0100
0000
,  // measure 6
1100
0010
1000
0010
0100
0010
1000
0010
0100
0000
0001
0000
1000
0000
0010
0000
,  // measure 7
0101
0001
0010
0001
0010
0100
1000
0100
1001
1000
0100
0010
0100
0010
0001
0000
,  // measure 8
0101
0010
0001
0010
0100
0010
0001
0010
0100
0000
1000
0000
0001
0000
0100
0000
,  // measure 9
0011
0001
0100
0010
1000
0100
1000
0000
1100
1000
0100
1000
0010
0100
0001
0000
,  // measure 10
0110
0001
0010
0001
0100
0001
0010
0001
1000
0000
0010
0000
0100
0000
0010
0000
,  // measure 11
0101
0001
0010
0001
0010
0100
1000
0000
1100
0000
0100
0010
0100
0010
0001
0000
,  // measure 12
0011
0000
0001
0010
0000
0000
0000
0000
0100
0000
1000
0000
0010
0000
0100
0010
0100
0000
0010
0001
0000
0000
0000
0001
0010
0000
0100
0010
0000
0000
0000
0000
,  // measure 13
0110
0000
0010
0000
0100
0000
1000
0100
0010
0000
0100
0010
0000
0000
0000
0010
0100
0000
0010
0000
1000
0000
0001
0000
0100
0000
0010
0000
1000
0000
0100
1000
,  // measure 14
0100
0000
0010
0000
0001
0000
0010
0000
1000
0000
0010
0000
0001
0000
0010
0000
0100
0000
0010
0000
1000
0000
0010
0100
0010
0000
1000
0000
0100
0000
0000
0000
,  // measure 15
1100
0000
1000
0100
0000
0000
0010
0000
0001
0000
0010
0000
0100
0000
0000
0000
0110
0000
0010
0100
0010
0000
0001
0000
1000
0000
0001
0000
0010
0000
0000
0000
,  // measure 16
0011
0000
0001
0010
0001
0000
0000
0000
0010
0000
0001
0100
0001
0000
0000
0000
0101
0000
0001
1000
0001
0000
0010
0100
0010
0000
0100
0001
0100
0000
0000
0000
,  // measure 17
1010
0000
0100
0000
0001
0000
0000
0000
0100
0000
0010
0000
1000
0000
0000
0000
0001
0000
0100
0000
0010
0000
1000
0000
0100
0000
0010
0000
0100
0000
0010
0001
,  // measure 18
0010
0100
1000
0000
0010
0100
1000
0000
0010
0001
1000
0000
0010
1000
0001
0000
,  // measure 19
1001
0000
0100
0000
0010
0000
0000
0000
0001
0000
0010
0000
0100
0000
0000
0000
0010
0000
0100
0001
0100
0000
0010
0000
0100
0000
0010
0000
1000
0000
0000
0000
,  // measure 20
1100
0000
0100
0000
0010
0000
0000
0100
0010
0000
0100
0000
1000
0000
0000
0000
1100
0000
1000
0000
0100
0000
0000
0010
0100
0000
1000
0000
0001
0000
0000
0000
,  // measure 21
1001
0000
1000
0000
0100
0000
0000
0000
0010
0000
0100
0000
1000
0000
0100
0010
0100
0000
0010
0000
0001
0000
0001
0010
0001
0000
1000
0100
0000
0000
0000
0000
,  // measure 22
1100
0000
0010
0000
1000
0000
0000
0000
0001
0000
0010
0000
0100
0000
0000
0000
0100
0000
1000
0000
0100
0000
1000
0100
0010
0000
0100
0000
0010
0000
0000
0000
,  // measure 23
0110
0000
0000
0100
0010
0000
0001
0010
0100
0000
0010
0000
0001
0000
0000
0000
1000
0000
0100
1000
0001
0000
0010
0000
0001
0000
1000
0000
0100
0000
0000
0000
,  // measure 24
0110
0010
0100
0010
0100
1000
0100
0010
0100
0010
0001
0010
0100
0010
0001
0000
,  // measure 25
0100
0000
0001
0100
0010
0000
1000
0000
0100
0000
0001
0000
0100
0000
1000
0000
0010
0000
0100
0000
0010
0000
0001
0000
0010
0000
0100
0000
0010
0000
0000
0000
,  // measure 26
0101
0010
0001
0010
0100
1000
0100
1000
0010
1000
0100
1000
0010
0100
0001
0000
,  // measure 27
0101
0010
0001
0010
1000
0010
0001
0010
1000
0010
0001
0010
1000
0010
0001
0000
,  // measure 28
1001
0000
1000
0000
0100
0000
1000
0000
0100
0000
0010
0100
0000
0000
0000
0000
0010
0000
0001
0000
0010
0000
0100
0000
0010
0000
0001
0010
0000
0000
0000
0000
,  // measure 29
1100
0000
1000
0000
0100
0000
1000
0000
0010
0000
0100
0010
0000
0000
0000
0000
0110
0000
0010
0000
0100
0000
0010
0000
2000
0000
3000
0000
0010
0000
1000
0000
,  // measure 30
1010
0000
0010
0000
0100
0000
0010
0000
0001
0000
0010
0100
0000
0000
0000
0000
0001
0000
1000
0000
0010
0000
0100
0000
0010
0000
0100
0010
0000
0000
0000
0000
,  // measure 31
0110
0100
0010
0001
0010
0100
1000
0000
0100
0000
0010
0100
0001
0010
0200
0000
,  // measure 32
0300
0000
0000
0000
;

//---------------dance-single - ----------------
#NOTES:
     dance-single:
     :
     Medium:
     7:
     0.308797,0.296056,0.118211,0.008444,0.113989,256.000000,242.000000,14.000000,1.000000,0.000000,0.000000,0.308797,0.296056,0.118211,0.008444,0.113989,256.000000,242.000000,14.000000,1.000000,0.000000,0.000000:
// measure 0
0000
0000
0000
0000
,  // measure 1
0000
0000
0000
0000
,  // measure 2
0000
0000
0000
0000
,  // measure 3
0000
0000
0000
0000
,  // measure 4
0101
0010
0100
0010
1000
0100
0010
0001
,  // measure 5
0010
0000
0000
0000
0100
0000
0010
0001
0010
0000
0001
0000
0100
1000
0100
0000
,  // measure 6
0110
1000
0001
0010
0001
0100
0001
0010
,  // measure 7
0100
0000
0000
0000
0010
0000
1000
0000
0010
0000
0001
0000
0100
0010
1000
0000
,  // measure 8
0110
0001
0010
0100
1000
0010
0100
0001
,  // measure 9
1000
0000
0000
0000
1000
0001
0100
0000
0010
0000
1000
0000
0100
0001
0100
0000
,  // measure 10
0110
0010
0100
0010
0001
1000
0100
0010
,  // measure 11
0001
0000
0100
0000
0010
0100
0001
0000
1000
0000
0001
0000
0100
0001
0010
0000
,  // measure 12
0011
0000
0100
0010
0100
0000
1000
0000
,  // measure 13
0100
0000
0000
0000
0001
0000
0100
0000
1000
0000
0001
0000
0100
0010
0100
0010
,  // measure 14
1001
0000
0010
0000
1000
0000
1000
0000
0001
0000
0001
0000
0010
0100
0010
0000
,  // measure 15
0001
0000
0000
0000
1000
0010
0100
0000
0001
0000
0000
0000
0001
0100
0010
0000
,  // measure 16
1010
0100
0010
0100
0001
0010
0100
0010
,  // measure 17
0100
0000
1000
0000
0100
0000
1000
0000
0010
0000
1000
0000
0100
0010
0001
0010
,  // measure 18
0011
0001
0010
0100
0010
1000
0010
0100
,  // measure 19
1000
0000
0010
0000
1000
0000
0001
0000
0010
0000
0100
0000
1000
0010
0100
0000
,  // measure 20
0101
0010
0100
0001
1000
0100
0010
0001
,  // measure 21
0010
0000
0100
0000
0001
0000
0010
0000
0100
0000
0001
0000
0010
0100
1000
0100
,  // measure 22
0110
0100
0010
0001
1000
0001
0010
0100
,  // measure 23
1000
0000
0010
0000
0100
0000
1000
0000
0010
0000
0001
0000
0010
0100
0010
0000
,  // measure 24
0110
0010
0001
0100
0010
0001
0100
1000
,  // measure 25
0001
0000
0010
0000
1000
0000
0010
0000
0100
0000
1000
0000
0100
0010
0100
0010
,  // measure 26
0110
0010
0100
1000
0010
0100
0010
0001
,  // measure 27
0010
0000
1000
0000
1000
0100
1000
0100
0010
0000
0001
0000
0010
0001
0010
0000
,  // measure 28
0101
1000
0100
0010
0001
0010
0100
1000
,  // measure 29
0100
0000
0000
0000
0000
0000
0001
0000
0000
0000
0000
0000
0100
0000
0000
0000
0000
0000
1000
0000
0000
0000
0000
0000
0100
0000
0000
0000
0000
0000
0010
0000
0000
0000
0000
0000
0002
0000
0000
0000
0000
0003
0010
0000
0000
0010
0000
0000
,  // measure 30
0011
0001
0010
0100
1000
0100
0010
0001
,  // measure 31
0100
0000
0001
0000
1000
0100
0010
0000
0100
0000
1000
0100
1000
0100
1000
0000
;

//---------------dance-single - ----------------
#NOTES:
     dance-single:
     :
     Easy:
     4:
     0.194204,0.215313,0.084437,0.084437,0.000000,161.000000,151.000000,10.000000,10.000000,0.000000,0.000000,0.194204,0.215313,0.084437,0.084437,0.000000,161.000000,151.000000,10.000000,10.000000,0.000000,0.000000:
// measure 0
0000
0000
0000
0000
,  // measure 1
0000
0000
0000
0000
,  // measure 2
0000
0000
0000
0000
,  // measure 3
0000
0000
0000
0000
,  // measure 4
1100
0000
1000
0100
0010
0000
0100
0000
,  // measure 5
0001
0000
1000
0010
0100
0000
0010
0000
,  // measure 6
0110
0000
0100
1000
0010
0000
0001
0000
,  // measure 7
0100
0000
0010
0001
0100
0000
0010
0000
,  // measure 8
0101
0000
0010
0001
1000
0000
0100
0000
,  // measure 9
0010
0000
0100
1000
0001
0000
0100
0000
,  // measure 10
0101
0000
0001
0100
1000
0000
0010
0000
,  // measure 11
0001
0000
0100
0010
0100
0000
0001
0000
,  // measure 12
1001
0000
0100
0010
0100
0000
1000
0000
,  // measure 13
0010
0000
0100
1000
0010
0000
0200
0000
,  // measure 14
0301
0100
0010
1000
0001
0000
0010
1000
,  // measure 15
0100
0000
0000
0000
0010
0000
0001
0000
0010
0000
0000
0000
0002
0000
0000
0003
,  // measure 16
1010
0000
1000
0100
1000
0000
0010
0000
,  // measure 17
0100
0000
0001
0010
0100
0000
2000
0000
,  // measure 18
3010
1000
0100
0001
0010
0100
1000
0010
,  // measure 19
0100
0000
0001
0000
0010
0000
1000
0000
0010
0000
0000
0000
0200
0000
0000
0300
,  // measure 20
1010
0000
0100
0010
1000
0000
0001
0000
,  // measure 21
1000
0000
0001
0010
0100
0000
0020
0000
,  // measure 22
1030
0000
0010
1000
0100
0000
0001
0000
,  // measure 23
0010
0000
0000
0000
0100
0000
1000
0000
0010
0000
0000
0000
2000
0000
0000
3000
,  // measure 24
1010
0000
0100
0010
0001
0000
0010
1000
,  // measure 25
0100
0000
1000
0010
0100
0000
0002
0000
,  // measure 26
1003
0000
0001
0100
1000
0000
0010
0100
,  // measure 27
1000
0000
0100
0001
0010
0000
0100
0200
,  // measure 28
0301
0000
0100
0001
0010
0000
0100
0100
,  // measure 29
1010
0000
0100
0010
0100
0000
0002
0000
,  // measure 30
0013
0000
0001
0100
1000
0000
0010
0001
,  // measure 31
0011
0000
0010
1000
0100
0000
0002
0003
;
