#TITLE:Sun Gets Down;
#SUBTITLE:;
#ARTIST:SunStroke Project;
#TITLETRANSLIT:;
#SUBTITLETRANSLIT:;
#ARTISTTRANSLIT:;
#GENRE:Euro House;
#CREDIT:;
#BANNER:SGD-bn.png;
#BACKGROUND:SGD-bg.png;
#LYRICSPATH:;
#CDTITLE:cdtitle.png;
#MUSIC:sun gets down.ogg;
#OFFSET:-0.005000;
#SAMPLESTART:45.719002;
#SAMPLELENGTH:15.238000;
#SELECTABLE:YES;
#BPMS:0.000000=125.999992
;
#STOPS:
;
#BGCHANGES:0.000=sun gets down.avi=1.000=1=0=0=StretchNoLoop==CrossFade==,
99999=-nosongbg-=1.000=0=0=0 // don't automatically add -songbackground-
;
#KEYSOUNDS:;
#ATTACKS:;

//---------------dance-single - ----------------
#NOTES:
     dance-single:
     X-Scale 11:
     Hard:
     8:
     0.514555,0.646078,0.088836,0.646078,0.234203,446.000000,435.000000,11.000000,80.000000,0.000000,0.000000,0.514555,0.646078,0.088836,0.646078,0.234203,446.000000,435.000000,11.000000,80.000000,0.000000,0.000000:
0000
0000
0000
0000
,
0000
0000
0000
0000
,
0000
0000
0000
0000
,
0000
0000
0000
0000
,
1100
0000
1001
0000
0101
0001
1000
1100
,
0000
0000
0110
0000
0000
0000
0101
0000
0000
0000
0010
0000
0100
0000
1000
0100
,
2000
3000
0002
0003
1000
0010
0100
0002
,
0003
2000
3000
0002
0003
2000
3001
0000
,
0102
0000
0000
0003
0020
0000
0000
0030
0200
0000
0000
0300
1000
0000
0020
0000
,
0000
0030
0002
0000
0000
0003
0020
0000
0000
0030
2000
0000
0001
3000
1000
0000
,
0010
0000
1000
0100
0001
0100
0010
0002
,
1000
0003
0100
0020
0030
2000
3001
1000
,
0100
0001
0100
1000
0010
0100
0001
2000
,
0000
3000
0020
0000
0000
0030
2000
0000
0000
3000
0002
0000
1000
0003
0001
0000
,
0010
1000
0010
0100
0010
0001
0010
0200
,
1000
0300
0100
1000
0001
1000
0010
1000
,
0002
0000
0203
0000
0320
0000
0031
0010
,
1000
0010
0100
0001
1000
0200
0320
0230
,
2300
0000
3020
0000
0230
0000
1300
0100
,
0010
0100
0001
1000
0010
0200
0320
0230
,
0301
0100
0001
0100
0010
1000
0010
1000
,
0001
0010
0001
0010
0100
2000
3200
2300
,
3100
1000
0100
1000
0100
1000
0100
1000
0001
0100
0001
0100
0001
0100
0001
0100
,
0002
0000
0000
1000
1003
0001
0001
1000
,
1001
0000
0000
1000
0010
0000
1000
0000
0001
0000
0000
0010
0001
0000
1000
0000
,
0100
0000
0000
0010
0100
0000
1000
0000
0002
0000
0023
0000
0032
0000
0023
0000
,
0031
0000
0000
1000
0001
0000
1000
0000
0100
0000
0000
0010
0100
0000
0010
0000
,
0001
0000
0000
0100
0001
0000
1000
0000
0020
0000
0031
0000
0020
0000
0130
0000
,
0010
0000
0000
0100
0001
0000
1000
0000
0001
0000
0000
0010
0100
0000
1000
0000
,
0001
0000
0000
1000
0100
0000
1000
0000
0200
0000
0320
0000
0230
0000
0320
0000
,
0031
0000
0000
0010
0001
0000
1000
0000
0001
0000
0000
0010
0100
0000
0010
0000
,
0001
0000
0000
1000
0010
0000
1000
0000
0200
0000
0301
0000
0200
0000
1300
0000
,
0200
0000
0000
1000
0000
0000
0010
0000
0010
0000
0000
0000
2300
0000
0000
0000
,
3002
0000
0000
1000
0000
0000
0100
0000
0100
0000
0000
0000
0013
0001
0010
0001
,
0020
0000
0000
0100
0000
0000
0001
0000
0001
0000
0000
0000
0032
0000
0000
0000
,
2003
0000
0000
0100
0000
0000
0010
0000
0010
0000
0000
0000
3100
1000
0100
1000
,
0200
0000
0000
0001
0000
0000
1000
0000
1000
0000
0000
0000
0320
0000
0000
0000
,
0032
0000
0000
1000
0000
0000
0010
0000
0010
0000
0000
0000
0103
0001
0100
0000
,
0020
0000
0000
1000
0000
0000
0001
0000
0001
0000
0000
0000
0230
0000
0000
0000
,
0302
0000
0000
1000
0000
0000
0010
0000
0010
0000
0000
0000
0003
0000
0000
0000
,
0011
0000
0100
0001
1000
0010
0001
0020
,
1030
0000
0020
0000
0130
0000
0020
0000
1030
0000
0001
0000
1000
0010
0100
0010
,
1000
0000
0001
0100
0010
0001
0010
2000
,
3100
2000
3001
2000
3010
0100
0010
1000
,
1000
0001
1000
0001
0010
0100
0010
0100
,
1000
0000
0010
0000
1000
0000
0010
0000
0100
0000
0001
0000
1000
0001
0010
0001
,
1000
0000
0001
1000
0001
0010
0100
0020
,
0001
0000
0000
0000
0000
0100
0100
0030
,
0110
0000
0100
1000
0000
0000
1000
0000
0010
0000
0001
0000
0010
0000
0100
0000
,
0010
0000
1000
0010
0000
0000
0010
0000
0100
0000
0001
0000
1000
0000
0100
0000
,
0010
0000
0001
0010
0000
0000
0010
0000
0001
0000
1000
0000
0010
0000
0100
0000
,
0010
0000
1000
0010
0000
0000
0010
0000
0001
0000
1000
0000
0100
0000
1000
0000
,
0010
0000
0100
0010
0000
0000
0010
0000
1000
0000
0001
0000
0010
0000
0100
0000
,
1000
0000
0001
0100
0000
0000
0100
0000
0010
0000
1000
0000
0001
0000
0010
0000
,
0100
0000
1000
0100
0000
0000
0100
0000
0001
0000
1000
0000
0100
0000
0010
0000
,
0001
0000
1000
0001
0000
0000
1000
0000
1000
0000
0001
0000
0001
0000
1000
0000
,
1001
0000
0000
1000
0100
0000
1000
0000
0010
0000
0000
0100
0010
0000
0100
0000
,
0001
0000
0000
0010
0001
0000
0100
0000
2000
0000
3200
0000
0320
0000
0230
0000
,
0301
0000
0000
0100
0001
0000
0100
0000
0010
0000
0000
1000
0001
0000
1000
0000
,
0100
0000
0000
0010
0100
0000
0010
0000
0002
0000
1003
0000
0002
0000
1003
0000
,
0001
0000
0000
0010
0001
0000
0100
0000
0001
0000
0000
0010
0100
0000
0010
0000
,
0100
0000
0000
1000
0010
0000
1000
0000
0200
0000
2300
0000
3002
0000
0203
0000
,
0301
0000
0000
0100
0010
0000
1000
0000
0100
0000
0000
1000
0001
0000
1000
0000
,
0100
0000
0000
0010
0100
0000
0010
0000
0002
0000
1003
0000
0002
0000
0000
0000
,
0003
0000
0000
0000
;

//---------------dance-single - ----------------
#NOTES:
     dance-single:
     X-Scale 9:
     Medium:
     7:
     0.414182,0.465176,0.088836,0.266507,0.133254,359.000000,348.000000,11.000000,33.000000,0.000000,0.000000,0.414182,0.465176,0.088836,0.266507,0.133254,359.000000,348.000000,11.000000,33.000000,0.000000,0.000000:
0000
0000
0000
0000
,
0000
0000
0000
0000
,
0000
0000
0000
0000
,
0000
0000
0000
0000
,
1000
0000
1000
0000
1000
0100
0010
0001
,
0000
0001
0000
0001
0000
0100
0010
1000
,
0001
0000
0001
0000
0001
0010
0100
1000
,
0000
1000
0000
1000
0000
0100
0010
0000
,
0110
0000
0010
0000
0001
0000
1000
0020
,
0000
2030
0000
3002
0000
0023
0000
0000
,
0130
0000
1000
0000
0001
0010
0100
2000
,
0001
3000
1000
0200
0000
0320
0001
0030
,
0010
0000
0001
0000
1000
0100
0010
0002
,
0000
2003
0000
3020
0000
2030
0000
0000
,
3001
0000
1000
0000
0100
0010
0001
2000
,
0010
3000
1000
0000
0001
0000
0010
0100
,
0110
0000
1001
0000
0110
0000
0100
0001
,
1000
0100
0010
0002
0000
0003
0000
1000
,
1100
0000
0011
0000
1100
0000
0001
1000
,
0100
0001
0100
2000
0000
0000
3000
0001
,
1000
0010
1000
0010
0100
0001
0100
0001
,
0010
0100
0010
0100
1000
0010
1000
0010
,
0100
0001
0100
0001
1000
0100
1000
0100
,
1100
0000
0000
0001
1000
0001
1000
0001
,
1001
0000
0000
1000
0000
0000
0010
0000
1000
0000
0000
0001
0000
0000
0010
0000
,
0001
0000
0000
1000
0000
0000
0010
0000
0100
0000
1000
0000
0100
0000
0001
0000
,
0100
0000
0000
0010
0000
0000
1000
0000
0001
0000
0000
0010
0000
0000
0001
0000
,
1000
0000
0000
0010
0000
0000
0100
0000
0002
0000
0003
0000
2000
0000
0000
0000
,
3001
0000
0000
0010
0000
0000
0100
0000
1000
0000
0000
0001
0000
0000
1000
0000
,
0010
0000
0000
0100
0000
0000
0001
0000
0010
0000
1000
0000
0010
0000
0100
0000
,
1000
0000
0000
0001
0000
0000
1000
0000
0100
0000
0000
1000
0000
0000
0010
0000
,
0100
0000
0000
0001
0000
0000
1000
0000
0002
0000
0003
0000
0020
0000
0000
0000
,
0130
0000
0000
1000
0000
0000
0001
0000
1000
0000
0000
0000
0100
0000
0000
0000
,
0010
0000
0000
0001
0000
0000
1000
0000
0001
0000
0000
0000
0100
0000
0010
0000
,
0100
0000
0000
0001
0000
0000
1000
0000
0001
0000
0000
0000
0010
0000
0000
0000
,
0100
0000
0000
1000
0000
0000
0001
0000
1000
0000
0000
0000
0010
0000
0100
0000
,
0010
0000
0000
1000
0000
0000
0100
0000
0010
0000
0000
0000
0001
0000
0000
0000
,
1000
0000
0000
0001
0000
0000
0010
0000
0001
0000
0000
0000
1000
0000
0010
0000
,
1000
0000
0000
0100
0000
0000
0010
0000
0001
0000
0000
0000
0100
0000
0000
0000
,
0001
0000
0000
0010
0000
0000
0100
0000
1000
0000
0000
0000
0001
0000
0100
0000
,
0002
0003
0002
0003
1000
0010
0100
0002
,
0003
0002
0003
0002
0003
0001
1000
0010
,
0200
0300
0200
0300
0100
0010
1000
0200
,
0300
0200
0300
0200
0300
0100
0010
0001
,
1000
0010
1000
0010
0100
0001
0100
0001
,
0010
0100
0010
0100
1000
0001
1000
0001
,
0010
0100
0010
0100
1000
0010
1000
0020
,
0100
0000
0000
0000
0000
1000
1030
0000
,
1010
0000
0001
0000
0010
0000
0100
1000
,
0001
1000
0010
1000
0001
0000
0010
0100
,
1000
0000
0001
0000
1000
0000
0001
0100
,
1000
0100
0010
0100
0001
0000
1000
0010
,
0100
0000
0001
0000
0010
0000
0100
1000
,
0001
1000
0010
1000
0001
0000
0010
0100
,
1000
0000
0001
0000
0010
0000
0100
1000
,
0001
0000
0010
0001
0000
0000
1000
0000
0100
0000
1000
0000
0100
0000
1000
0000
,
1100
0000
0000
0010
0000
0000
1000
0000
0001
0000
0000
0010
0000
0000
0001
0000
,
0100
0000
0000
0010
0000
0000
1000
0000
0001
0000
0100
0000
0010
0000
1000
0000
,
0001
0000
0000
0010
0000
0000
0001
0000
1000
0000
0000
0010
0000
0000
0100
0000
,
0001
0000
0000
0010
0000
0000
0100
0000
2000
0000
3000
0000
0020
0000
0000
0000
,
1030
0000
0000
0010
0000
0000
0100
0000
0001
0000
0000
0010
0000
0000
0100
0000
,
1000
0000
0000
0001
0000
0000
0010
0000
0001
0000
0100
0000
0010
0000
1000
0000
,
0001
0000
0000
0010
0000
0000
0001
0000
1000
0000
0000
0010
0000
0000
1000
0000
,
0100
0000
0000
0010
0000
0000
0001
0000
2000
0000
3000
0000
0200
0000
0000
0000
,
0300
0000
0000
0000
;

//---------------dance-single - ----------------
#NOTES:
     dance-single:
     X-Scale 5:
     Easy:
     3:
     0.301119,0.308906,0.032304,0.250355,0.000000,261.000000,257.000000,4.000000,31.000000,0.000000,0.000000,0.301119,0.308906,0.032304,0.250355,0.000000,261.000000,257.000000,4.000000,31.000000,0.000000,0.000000:
0000
0000
0000
0000
,
0000
0000
0000
0000
,
0000
0000
0000
0000
,
0000
0000
0000
0000
,
0100
1000
0001
1000
,
0010
0100
0010
1000
,
0100
0010
0001
1000
,
0001
0100
0010
1000
,
1001
0001
0010
0001
,
0100
0010
0100
0001
,
0010
0100
1000
0001
,
1000
0010
0100
0001
,
0010
0100
1000
0001
,
1000
0010
0100
0010
,
1000
0100
0010
0001
,
0100
0000
0001
0000
1000
0000
0010
1000
,
0001
0010
0100
1000
,
0001
0000
0010
0002
0000
0000
0003
1000
,
0001
1000
0010
0100
,
0001
0000
0010
0200
0000
0000
0300
1000
,
0100
1000
0001
0010
,
0100
0000
1000
0002
0000
0000
0003
1000
,
0100
1000
0002
0000
,
0013
0000
1000
0001
,
0011
1000
0001
0010
,
0001
0000
0100
0000
0010
1000
0001
1000
,
0010
0100
0001
1000
,
0100
0010
0001
2000
,
3100
1000
0010
0100
,
0010
0000
1000
0000
0001
0010
0100
0010
,
0001
1000
0100
0010
,
0100
1000
0100
2000
,
3002
1000
0010
2003
,
3200
0001
0010
2300
,
3002
0010
1000
0203
,
0320
0001
0100
2030
,
3200
0001
1000
0320
,
0032
1000
0010
2003
,
3020
0001
0100
2030
,
3200
0001
0010
2300
,
3001
0000
1000
0000
0001
0010
0100
1000
,
0000
0100
0000
1000
0000
0001
0200
0000
,
0301
0000
0001
0000
1000
0100
0010
0001
,
0000
1000
0000
0001
0000
0100
0002
0000
,
1003
0000
0001
0000
0010
0100
1000
0001
,
0000
1000
0000
0001
0000
1000
0020
0000
,
1030
0000
0100
0000
1000
0010
0100
0002
,
0000
0000
0000
0003
,
1001
0001
1000
0010
,
0100
0000
0001
2000
0010
0000
3100
1000
,
0001
0100
0010
1000
,
0100
0000
0010
0002
0100
0000
1003
0001
,
0010
0100
1000
0010
,
0100
0000
0001
0020
1000
0000
0031
0010
,
0100
1000
0002
0010
,
1003
0001
0100
0010
,
1010
0010
1000
0001
,
0010
0000
0001
0000
1000
0010
0100
0010
,
1000
0001
0100
0001
,
0010
0100
1000
0002
,
0103
0010
1000
0001
,
1000
0000
0100
0000
0010
0001
1000
0001
,
0010
0100
1000
0001
,
0100
0010
1000
1000
;

//---------------dance-single - ----------------
#NOTES:
     dance-single:
     X-Scale 1:
     Beginner:
     1:
     0.117679,0.153847,0.024228,0.000000,0.000000,102.000000,99.000000,3.000000,0.000000,0.000000,0.000000,0.117679,0.153847,0.024228,0.000000,0.000000,102.000000,99.000000,3.000000,0.000000,0.000000,0.000000:
// measure 0
0000
0000
0000
0000
,  // measure 1
0000
0000
0000
0000
,  // measure 2
0000
0000
0000
0000
,  // measure 3
0000
0000
0000
0000
,  // measure 4
1000
0000
0000
0000
,  // measure 5
0100
0000
0000
0000
,  // measure 6
0010
0000
0000
0000
,  // measure 7
0001
0000
0000
0000
,  // measure 8
1000
0000
0010
0000
,  // measure 9
1000
0000
0001
0000
,  // measure 10
0010
0000
0001
0000
,  // measure 11
1000
0000
0010
0000
,  // measure 12
1000
0000
0100
0000
,  // measure 13
0010
0000
0100
0000
,  // measure 14
1000
0000
0001
0000
,  // measure 15
0100
0000
0001
0000
,  // measure 16
1000
0000
0000
0000
,  // measure 17
0010
0000
0000
0000
,  // measure 18
0100
0000
0000
0000
,  // measure 19
0001
0000
0000
0000
,  // measure 20
1000
0000
0100
0000
,  // measure 21
0010
0000
0001
0000
,  // measure 22
0100
0000
0010
0000
,  // measure 23
1000
0000
0000
0000
,  // measure 24
1100
0000
0001
0000
,  // measure 25
1000
0000
0001
0000
,  // measure 26
0010
0000
0100
0000
,  // measure 27
1000
0000
0001
0100
,  // measure 28
0001
0000
0010
0000
,  // measure 29
0100
0000
1000
0000
,  // measure 30
0001
0000
0100
0000
,  // measure 31
0010
0000
1000
0001
,  // measure 32
1000
0000
0000
0000
,  // measure 33
0100
0000
0000
0000
,  // measure 34
0010
0000
0000
0000
,  // measure 35
0001
0000
0000
0000
,  // measure 36
1000
0000
0000
0000
,  // measure 37
0010
0000
0000
0000
,  // measure 38
0100
0000
0000
0000
,  // measure 39
0001
0000
0000
0000
,  // measure 40
1000
0000
0000
0000
,  // measure 41
0100
0000
0000
0000
,  // measure 42
1000
0000
0000
0000
,  // measure 43
0100
0000
0000
0000
,  // measure 44
0010
0000
0001
0000
,  // measure 45
0010
0000
0001
0000
,  // measure 46
1000
0000
0010
0000
,  // measure 47
1000
0000
0000
0000
,  // measure 48
1100
0000
0100
0000
,  // measure 49
0010
0000
0001
0000
,  // measure 50
1000
0000
0001
0000
,  // measure 51
0100
0000
0010
0000
,  // measure 52
0100
0000
0001
0000
,  // measure 53
0010
0000
0100
0000
,  // measure 54
1000
0000
0001
0000
,  // measure 55
1000
0000
0000
0000
,  // measure 56
0101
0000
0001
0000
,  // measure 57
1000
0000
0001
0000
,  // measure 58
0010
0000
0100
0000
,  // measure 59
0010
0000
0001
0000
,  // measure 60
1000
0000
0010
0000
,  // measure 61
0100
0000
0010
0000
,  // measure 62
1000
0000
0001
0000
,  // measure 63
0010
0000
0001
0000
;
