#TITLE:Summer;
#SUBTITLE:(Album Mix);
#ARTIST:Dennis Sheperd;
#TITLETRANSLIT:;
#SUBTITLETRANSLIT:;
#ARTISTTRANSLIT:;
#GENRE:Progressive Trance;
#CREDIT:;
#BANNER:Summer (Album Mix)-bn.png;
#BACKGROUND:Summer (Album Mix)-bg.png;
#LYRICSPATH:;
#CDTITLE:cdtitle.png;
#MUSIC:Summer (Album Mix).ogg;
#OFFSET:-0.003000;
#SAMPLESTART:45.911999;
#SAMPLELENGTH:14.545000;
#SELECTABLE:YES;
#BPMS:0.000000=132.000000
;
#STOPS:
;
#BGCHANGES:;
#KEYSOUNDS:;
#ATTACKS:;

//---------------dance-single - ----------------
#NOTES:
     dance-single:
     X-Scale 12:
     Hard:
     8:
     0.429613,0.505292,0.044885,0.098747,0.323171,335.000000,330.000000,5.000000,11.000000,0.000000,0.000000,0.429613,0.505292,0.044885,0.098747,0.323171,335.000000,330.000000,5.000000,11.000000,0.000000,0.000000:
// measure 0
0000
0000
0000
0000
,  // measure 1
0000
0000
0000
0000
,  // measure 2
0000
0000
0000
0000
,  // measure 3
0000
0000
0000
0000
,  // measure 4
0000
0000
0000
0000
,  // measure 5
0000
0000
0000
0000
1000
0000
0000
0100
0000
0000
0001
0000
0000
0100
0000
0000
,  // measure 6
1000
0000
0000
0010
0000
0000
0001
0000
0000
0010
0000
0000
1000
0000
0000
0001
,  // measure 7
0000
0000
0100
0000
0001
0000
0000
0010
0000
0000
1000
0000
0000
0010
0000
0000
,  // measure 8
0001
0000
0000
0100
0000
0000
0010
0000
0000
0100
0000
0000
0001
0000
0000
1000
,  // measure 9
0000
0100
1100
0000
1000
0001
1000
0000
,  // measure 10
0100
0000
0010
0000
0100
1000
0100
0000
,  // measure 11
0010
0000
0001
0000
1000
0001
1000
0000
,  // measure 12
0010
0000
1000
0000
0001
0100
0001
0000
,  // measure 13
1000
0000
0001
0000
0100
0001
0100
0000
,  // measure 14
0010
0000
0001
0000
0010
0100
0010
0000
,  // measure 15
1000
0000
0100
0000
0010
0001
0010
0000
,  // measure 16
1000
0000
0010
0000
0001
0100
0001
0000
,  // measure 17
0010
0000
0100
1000
0001
1000
0100
0010
,  // measure 18
0001
0000
0100
0010
0100
0001
1000
0010
,  // measure 19
1000
0000
0001
0010
1000
0010
0100
1000
,  // measure 20
0001
0000
1000
0100
0001
0100
0010
0001
,  // measure 21
1000
0000
0001
1000
0010
1000
0001
0100
,  // measure 22
0010
0100
0001
1000
0100
0001
0100
1000
,  // measure 23
0001
0000
1000
0000
0020
0000
0000
0001
0000
0000
0100
0000
0000
1000
0000
0000
,  // measure 24
0001
0000
0000
0100
0000
0000
1000
0000
0000
0001
0000
0000
0100
0000
0000
0000
,  // measure 25
1030
0010
1000
0000
1010
0000
0000
1000
0010
0000
1000
0000
0001
0000
0000
0000
,  // measure 26
1000
0000
0000
0100
0010
0000
0100
0000
1000
0000
0000
0000
0001
0000
0000
0010
,  // measure 27
0001
0000
1000
0000
0010
0000
0000
0100
0010
0000
1000
0000
0001
0000
0000
0000
,  // measure 28
0010
0000
0000
0100
0010
0000
0100
0000
1000
0000
0000
0000
0001
0000
0000
0100
,  // measure 29
0001
0000
1000
0000
0010
0000
0000
0100
0010
0000
1000
0000
0001
0000
0000
0000
,  // measure 30
1000
0000
0000
0010
1000
0000
0001
0000
0100
0000
0000
0000
0001
0000
0000
0100
,  // measure 31
0010
0000
0100
0000
0001
0000
0000
1000
0100
0000
0010
0000
0001
0000
0000
0000
,  // measure 32
0010
0000
0000
0100
0010
0000
0001
0000
1000
0000
0000
0000
0100
0000
0000
1000
,  // measure 33
0100
0000
1000
0000
0001
0000
0000
0100
0001
0000
1000
0000
0001
0010
0000
0000
,  // measure 34
0011
0000
0000
0010
0100
0000
1000
0000
0001
0100
0000
0000
0010
0000
0000
0100
,  // measure 35
0001
0000
1000
0000
0001
0000
0000
0010
0001
0000
1000
0000
0010
1000
0000
0000
,  // measure 36
1100
0000
0000
1000
0001
0000
1000
0000
0010
1000
0000
0000
0001
0000
0000
0100
,  // measure 37
0010
0000
0100
0000
0001
0000
0000
0010
0001
0000
1000
0000
0010
1000
0000
0000
,  // measure 38
0101
0000
0000
0100
0010
0000
0100
0000
0001
0010
0000
0000
0100
0000
0000
1000
,  // measure 39
0100
0000
1000
0000
0002
0000
0000
0010
0000
0000
0100
0000
0000
1000
0000
0000
,  // measure 40
0100
0000
0000
0010
0000
0000
0100
0000
0000
1000
0000
0000
0100
0000
0000
0000
,  // measure 41
1003
0001
1000
0000
0001
0000
0010
0100
0000
0000
0010
0000
0000
0001
0000
0000
,  // measure 42
2000
0010
0100
0001
,  // measure 43
0100
0000
3100
0000
0010
0000
0001
0010
0000
0000
0001
0000
0000
1000
0000
0000
,  // measure 44
0020
0001
0100
0001
,  // measure 45
1000
0000
0000
0000
0130
0000
0010
0100
0000
0000
0001
0000
0000
0010
0000
0000
,  // measure 46
0002
0010
1000
0100
,  // measure 47
1000
0000
1003
0000
0001
0000
0100
0001
0000
0000
1000
0000
0000
0100
0000
0000
,  // measure 48
0020
1000
0100
0001
,  // measure 49
0100
0000
0000
0000
0031
0000
0010
0100
0010
0000
0100
0000
1000
0001
0000
0000
,  // measure 50
0020
0000
0000
1000
0000
0000
0100
0000
0000
0001
0000
0000
1000
0000
0000
0100
,  // measure 51
0000
0000
0031
0000
0010
0000
0100
0010
0100
0000
1000
0000
0010
0100
0000
0000
,  // measure 52
0200
0000
0000
1000
0000
0000
0010
0000
0000
0001
0000
0000
1000
0000
0000
0010
,  // measure 53
0000
0000
0001
0000
0301
0000
0100
0010
0100
0000
0001
0000
0010
0100
0000
0000
,  // measure 54
0200
0000
0000
0001
0000
0000
0010
0000
0000
1000
0000
0000
0001
0000
0000
0010
,  // measure 55
0000
0000
1300
0000
0100
0000
0010
0100
0010
0000
0001
0000
1000
0001
0000
0000
,  // measure 56
0200
0001
0010
0000
,  // measure 57
0010
0320
0000
0000
,  // measure 58
0000
0000
0000
0000
,  // measure 59
0000
0030
0000
0000
;

//---------------dance-single - ----------------
#NOTES:
     dance-single:
     X-Scale 9:
     Medium:
     6:
     0.377033,0.452103,0.062839,0.008977,0.215448,294.000000,287.000000,7.000000,1.000000,0.000000,0.000000,0.377033,0.452103,0.062839,0.008977,0.215448,294.000000,287.000000,7.000000,1.000000,0.000000,0.000000:
// measure 0
0000
0000
0000
0000
,  // measure 1
0000
0000
0000
0000
,  // measure 2
0000
0000
0000
0000
,  // measure 3
0000
0000
0000
0000
,  // measure 4
0000
0000
0000
0000
,  // measure 5
0000
0000
0001
0000
0000
0100
0000
0000
,  // measure 6
1000
0000
0000
0100
0000
0000
0001
0000
,  // measure 7
0000
0000
1000
0000
0000
0100
0000
0000
,  // measure 8
0001
0000
0000
0010
0000
0000
1000
0000
,  // measure 9
0000
0000
1001
0000
1000
0010
1000
0000
,  // measure 10
0100
0000
0010
0000
0001
1000
0001
0000
,  // measure 11
0100
0000
0010
0000
1000
0001
1000
0000
,  // measure 12
0010
0000
0100
0000
0001
0100
0001
0000
,  // measure 13
1000
0000
0001
0000
0100
0010
0100
0000
,  // measure 14
0001
0000
0010
0000
0100
1000
0100
0000
,  // measure 15
1000
0000
0001
0000
0010
0001
0010
0000
,  // measure 16
0100
0000
0010
0000
0001
1000
0001
0000
,  // measure 17
1000
0000
0001
0010
0001
0000
1000
0010
,  // measure 18
1000
0000
0010
0100
0010
0000
1000
0100
,  // measure 19
1000
0000
0001
0010
0001
0000
0100
0010
,  // measure 20
0100
0000
0001
0100
0001
0000
1000
0010
,  // measure 21
1000
0000
0001
0010
0001
0010
0100
1000
,  // measure 22
0100
1000
0100
0010
0100
0010
0001
1000
,  // measure 23
0001
0000
1000
0000
0100
0000
0000
0010
0000
0000
0001
0000
0000
1000
0000
0000
,  // measure 24
0010
0000
0000
0001
0000
0000
0100
0000
0000
1000
0000
0000
0100
0000
0000
1000
,  // measure 25
0100
1000
0100
0000
1100
0000
0000
0000
1000
0000
0000
0000
0001
0000
0100
0000
,  // measure 26
0001
0000
0010
0000
0100
0000
1000
0100
,  // measure 27
1000
0000
0001
0000
0100
0000
0010
0100
,  // measure 28
0010
0000
1000
0000
0100
0000
0010
0001
,  // measure 29
0010
0000
0001
0000
1000
0000
0010
1000
,  // measure 30
0010
0000
0100
0000
0010
0000
1000
0100
,  // measure 31
1000
0000
0001
0000
0100
0000
0010
0100
,  // measure 32
0010
0000
1000
0000
0100
0000
0010
0001
,  // measure 33
0010
0000
0000
0000
0100
0000
0000
0010
0000
0000
0001
0000
0000
1000
0000
0000
,  // measure 34
0010
0000
0000
0100
0000
0000
1000
0000
0000
0100
0000
0000
0001
0000
0000
0000
,  // measure 35
1000
0000
0100
0000
1000
0000
0000
0010
0000
0000
0100
0000
0000
0010
0000
0000
,  // measure 36
0001
0000
0000
0010
0000
0000
1000
0000
0000
0100
0000
0000
0010
0000
0000
0000
,  // measure 37
0001
0000
0010
0000
0001
0000
0000
0100
0000
0000
1000
0000
0000
0010
0000
0000
,  // measure 38
0001
0000
0000
0100
0000
0000
1000
0000
0000
0100
0000
0000
0001
0000
0000
0000
,  // measure 39
1000
0001
1000
0000
1100
0000
0000
0000
,  // measure 40
0101
0000
0110
0000
,  // measure 41
0001
1000
0001
0000
1001
0000
1000
0100
0000
0000
1000
0000
0000
0001
0000
0000
,  // measure 42
0010
0000
0000
0100
0000
0000
0010
0000
0000
0001
0000
0000
1000
0000
0000
0000
,  // measure 43
0010
0000
1000
0000
0001
0000
0010
0100
0000
0000
0010
0000
0000
0001
0000
0000
,  // measure 44
1000
0000
0000
0010
0000
0000
0001
0000
0000
0010
0000
0000
1000
0000
0000
0000
,  // measure 45
0100
0000
1000
0000
0100
0000
0010
0001
0000
0000
0100
0000
0000
0010
0000
0000
,  // measure 46
0100
0000
0000
0001
0000
0000
1000
0000
0000
0010
0000
0000
0100
0000
0000
0000
,  // measure 47
0001
0000
0100
0000
0001
0000
0010
0100
0000
0000
0010
0000
0000
0001
0000
0000
,  // measure 48
1000
0000
0000
0010
0000
0000
0001
0000
0000
0010
0000
0000
1000
0000
0000
0000
,  // measure 49
0100
0000
0010
0000
0100
0000
0000
1000
0100
0000
1000
0000
0001
0000
0000
0000
,  // measure 50
0100
0000
0000
0010
0100
0000
0001
0000
1000
0000
0000
0000
0100
0000
0000
0010
,  // measure 51
0100
0000
1000
0000
0001
0000
0000
0100
0001
0000
1000
0000
0010
0000
0000
0000
,  // measure 52
0100
0000
0000
0001
0010
0000
0001
0000
1000
0000
0000
0000
0010
0000
0000
1000
,  // measure 53
0010
0000
1000
0000
0001
0000
0000
0010
0100
0000
0010
0000
0001
0000
0000
0000
,  // measure 54
1000
0000
0000
0010
1000
0000
0001
0000
0100
0000
0000
0000
0010
0000
0000
1000
,  // measure 55
0100
0000
1000
0000
0001
0000
0000
0010
0100
0000
0010
0000
0001
0000
0000
0000
,  // measure 56
1000
0000
0000
0100
1000
0000
0001
0000
0000
0100
0000
0000
0001
0000
0000
0001
,  // measure 57
0000
0001
0021
0000
0000
0000
0000
0000
,  // measure 58
0000
0000
0000
0000
,  // measure 59
0000
0030
0000
0000
;

//---------------dance-single - ----------------
#NOTES:
     dance-single:
     X-Scale 5:
     Easy:
     3:
     0.278286,0.308359,0.026931,0.017954,0.000000,217.000000,214.000000,3.000000,2.000000,0.000000,0.000000,0.278286,0.308359,0.026931,0.017954,0.000000,217.000000,214.000000,3.000000,2.000000,0.000000,0.000000:
// measure 0
0000
0000
0000
0000
,  // measure 1
0000
0000
0000
0000
,  // measure 2
0000
0000
0000
0000
,  // measure 3
0000
0000
0000
0000
,  // measure 4
0000
0000
0000
0000
,  // measure 5
0000
0001
0000
0000
,  // measure 6
0010
0000
0000
0100
,  // measure 7
0000
1000
0000
0000
,  // measure 8
0001
0000
0000
1000
,  // measure 9
0000
1001
1000
0010
,  // measure 10
1000
0010
0100
0001
,  // measure 11
0100
0001
0010
0100
,  // measure 12
0010
0100
1000
0100
,  // measure 13
1000
0100
0010
0001
,  // measure 14
0010
0001
0100
0010
,  // measure 15
0100
0010
1000
0001
,  // measure 16
1000
0001
0010
0100
,  // measure 17
0010
0100
1000
0001
,  // measure 18
0010
0001
1000
0100
,  // measure 19
0010
0100
1000
0001
,  // measure 20
0100
0010
0100
0001
,  // measure 21
1000
0000
0001
0000
0010
0000
0100
0010
,  // measure 22
0100
0000
1000
0000
0001
0000
0100
0001
,  // measure 23
0100
0000
0020
0000
0000
0001
0000
0000
,  // measure 24
0100
0000
0000
0001
0000
0000
1000
0000
,  // measure 25
0100
0030
0110
0000
0100
0000
0001
0000
,  // measure 26
1000
0100
1000
0001
,  // measure 27
0010
0100
0010
0001
,  // measure 28
1000
0010
1000
0001
,  // measure 29
0010
0100
1000
0010
,  // measure 30
0100
0001
1000
0010
,  // measure 31
1000
0001
0010
0100
,  // measure 32
0010
0001
0100
0010
,  // measure 33
1000
0000
0001
0000
1000
0000
0100
0010
,  // measure 34
0100
0000
1000
0000
0001
0000
0100
0010
,  // measure 35
0100
0000
0001
0000
0010
0000
0100
1000
,  // measure 36
0100
0000
0010
0000
0001
0000
1000
0010
,  // measure 37
1000
0000
0001
0000
0100
0000
0010
0100
,  // measure 38
0010
0000
1000
0000
0100
0000
0010
0001
,  // measure 39
0010
0000
0100
0000
0000
1000
0000
0000
,  // measure 40
0001
0000
0000
0100
0000
0000
0001
0000
,  // measure 41
0000
0000
1001
0000
1000
0000
0100
1000
,  // measure 42
0001
0100
0010
1000
,  // measure 43
0100
1000
0001
0000
0100
0000
0010
0100
,  // measure 44
0001
0000
0010
0000
0100
0000
1000
0100
,  // measure 45
0010
0000
0001
0000
1000
0000
0010
1000
,  // measure 46
0001
0000
0010
0000
0001
0000
1000
0100
,  // measure 47
0010
0000
0001
0000
1000
0000
0001
1000
,  // measure 48
0010
0000
0100
0000
0010
0000
1000
0100
,  // measure 49
1000
0000
0001
0000
0010
0000
0100
0010
,  // measure 50
0001
0000
1000
0000
0010
0000
0100
0010
,  // measure 51
1000
0000
0001
0000
0100
0000
0010
0100
,  // measure 52
0001
0000
0010
0000
0100
0000
1000
0100
,  // measure 53
1000
0000
0001
0000
0010
0000
0100
0010
,  // measure 54
0001
0000
1000
0000
0001
0000
0010
0100
,  // measure 55
1000
0000
0001
0000
1000
0000
0100
0010
,  // measure 56
0002
0000
1000
0000
,  // measure 57
1000
0003
0000
0000
;

//---------------dance-single - ----------------
#NOTES:
     dance-single:
     X-Scale 2:
     Beginner:
     1:
     0.120548,0.153506,0.017954,0.000000,0.000000,94.000000,92.000000,2.000000,0.000000,0.000000,0.000000,0.120548,0.153506,0.017954,0.000000,0.000000,94.000000,92.000000,2.000000,0.000000,0.000000,0.000000:
// measure 0
0000
0000
0000
0000
,  // measure 1
0000
0000
0000
0000
,  // measure 2
0000
0000
0000
0000
,  // measure 3
0000
0000
0000
0000
,  // measure 4
0000
0000
0000
0000
,  // measure 5
0000
0000
0000
0000
,  // measure 6
0000
0000
0000
0000
,  // measure 7
0000
0000
0000
0000
,  // measure 8
0000
0000
0000
0000
,  // measure 9
0000
1000
0000
0100
,  // measure 10
0000
1000
0000
0100
,  // measure 11
0000
0010
0000
0001
,  // measure 12
0000
0010
0000
0001
,  // measure 13
0000
0100
0000
0010
,  // measure 14
0000
0100
0000
0010
,  // measure 15
0000
1000
0000
0001
,  // measure 16
0000
1000
0000
0001
,  // measure 17
0000
0100
0000
0001
,  // measure 18
0000
0100
0000
0010
,  // measure 19
0000
1000
0000
0010
,  // measure 20
0000
1000
0000
0100
,  // measure 21
0000
0010
0000
0100
,  // measure 22
0000
0010
0000
0001
,  // measure 23
0000
1000
0000
0000
,  // measure 24
0000
0000
0000
0000
,  // measure 25
0000
1001
0000
1000
,  // measure 26
0000
0001
0000
1000
,  // measure 27
0000
0010
0000
1000
,  // measure 28
0000
0001
0000
0010
,  // measure 29
0000
0100
0000
0010
,  // measure 30
0000
0001
0000
0010
,  // measure 31
0000
0100
0000
1000
,  // measure 32
0000
0001
0000
1000
,  // measure 33
0000
0100
0000
1000
,  // measure 34
0000
0010
0000
0100
,  // measure 35
0000
0010
0000
1000
,  // measure 36
0000
0001
0000
0100
,  // measure 37
0000
0001
0000
1000
,  // measure 38
0000
0100
0000
0010
,  // measure 39
0000
0000
0001
0000
,  // measure 40
1000
0000
0001
0000
,  // measure 41
0000
1001
0000
1000
,  // measure 42
0000
0001
0000
0100
,  // measure 43
0000
0001
0000
1000
,  // measure 44
0000
0010
0000
0100
,  // measure 45
0000
0010
0000
1000
,  // measure 46
0000
0001
0000
0010
,  // measure 47
0000
0100
0000
0010
,  // measure 48
0000
0001
0000
1000
,  // measure 49
0000
0001
0000
0100
,  // measure 50
0000
0001
0000
1000
,  // measure 51
0000
0100
0000
0010
,  // measure 52
0000
0100
0000
1000
,  // measure 53
0000
0001
0000
0010
,  // measure 54
0000
0100
0000
0010
,  // measure 55
0000
0001
0000
1000
,  // measure 56
0000
0000
0100
0000
,  // measure 57
0100
0000
0000
0000
;
