#VERSION:0.83;
#TITLE:Sugarless GiRL;
#SUBTITLE:;
#ARTIST:CAPSULE;
#TITLETRANSLIT:;
#SUBTITLETRANSLIT:;
#ARTISTTRANSLIT:;
#GENRE:Electropop;
#ORIGIN:;
#CREDIT:;
#BANNER:Sugarless GiRL-bn.png;
#BACKGROUND:Sugarless GiRL-bg.png;
#PREVIEWVID:;
#JACKET:Sugarless GiRL-jacket.png;
#CDIMAGE:;
#DISCIMAGE:;
#LYRICSPATH:;
#CDTITLE:cdtitle.png;
#MUSIC:Sugarless GiRL.ogg;
#OFFSET:0.000000;
#SAMPLESTART:14.577999;
#SAMPLELENGTH:14.500000;
#SELECTABLE:YES;
#BPMS:0.000=129.471,
287.000=129.156,
292.000=123.824,
293.000=106.427,
293.500=98.182,
294.000=107.508,
294.500=93.571,
295.000=85.948,
295.500=97.172,
296.000=72.256,
296.500=65.343,
297.000=67.055,
297.500=60.903,
298.000=49.228,
298.500=46.516,
299.250=44.916,
300.000=42.235;
#STOPS:;
#DELAYS:;
#WARPS:;
#TIMESIGNATURES:0.000=4=4;
#TICKCOUNTS:0.000=4;
#COMBOS:0.000=1;
#SPEEDS:0.000=1.000=0.000=0;
#SCROLLS:0.000=1.000;
#FAKES:;
#LABELS:0.000=Song Start;
#BGCHANGES:0.000=Sugarless GiRL.mp4=1.000=1=0=1===CrossFade==,
302.500=Sugarless GiRL-bg.png=1.000=1=0=1===CrossFade==,
99999=-nosongbg-=1.000=0=0=0 // don't automatically add -songbackground-
;
#KEYSOUNDS:;
#ATTACKS:
;

//---------------dance-single - ----------------
#NOTEDATA:;
#CHARTNAME:X-Scale 11;
#STEPSTYPE:dance-single;
#DESCRIPTION:;
#CHARTSTYLE:;
#DIFFICULTY:Hard;
#METER:8;
#RADARVALUES:0.551758,0.519793,0.055077,0.234079,0.165232,561.000000,553.000000,8.000000,34.000000,2.000000,0.000000,0.000000,0.000000,0.000000,0.551758,0.519793,0.055077,0.234079,0.165232,561.000000,553.000000,8.000000,34.000000,2.000000,0.000000,0.000000,0.000000,0.000000;
#CREDIT:;
#NOTES:
// measure 0
0000
0000
0000
0000
,  // measure 1
0000
0000
0000
0000
,  // measure 2
0000
0000
0000
0000
,  // measure 3
0000
0000
0000
0000
,  // measure 4
1000
0000
0000
1000
0010
0000
0100
0000
0010
0000
0001
0000
0010
0000
1000
0000
,  // measure 5
0100
0000
0000
0100
0010
0000
0100
0000
1000
0000
0001
0000
0100
0000
0010
0000
,  // measure 6
1000
0000
0000
1000
0001
0000
0100
0000
0010
0000
0001
0000
0010
0000
0100
0000
,  // measure 7
0110
0000
0000
0000
0101
0000
0000
0000
1001
0000
1000
0000
0001
0000
1000
0100
,  // measure 8
1000
1000
0001
0100
0010
0010
1000
0001
,  // measure 9
0100
0100
1000
0100
0001
0010
0001
0010
,  // measure 10
0001
0000
1000
0001
1000
0000
0010
0000
0100
0000
0100
0000
0001
0000
0010
0000
,  // measure 11
0100
0100
0010
0001
1000
0001
1000
0001
,  // measure 12
1000
0000
0010
1000
0010
0000
0100
0000
0001
0000
0001
0000
1000
0000
0010
0000
,  // measure 13
1000
1000
0001
0100
0010
1000
0100
0010
,  // measure 14
0001
0000
0010
0001
0010
0000
0001
0000
1000
0000
1000
0000
0001
0000
0100
0000
,  // measure 15
0020
0001
0000
0100
0000
0000
0130
0010
,  // measure 16
0110
0000
0100
0010
0000
0000
0100
0000
0001
0000
1000
0000
0000
0000
1000
0000
,  // measure 17
0100
0000
1000
0010
0000
0000
0001
0000
0010
0000
1000
0000
0001
0000
1000
0000
,  // measure 18
0001
0000
0010
0100
0000
0000
0010
0000
0001
0000
1000
0000
0000
0000
1000
0000
,  // measure 19
0100
0000
1000
0100
0000
0000
0010
0000
0100
0000
1000
0000
0001
0000
0100
0000
,  // measure 20
0001
0000
0010
0001
0000
0000
0010
0000
0100
0000
0010
0000
0000
0000
0001
0000
,  // measure 21
1000
0000
0001
1000
0000
0000
0100
0000
0001
0000
0100
0000
1000
0000
0100
0000
,  // measure 22
0010
0000
0100
0010
0000
0000
0001
0000
0010
0000
0100
0000
0000
0000
0100
0000
,  // measure 23
0010
0001
0000
0001
0000
1000
0010
0010
,  // measure 24
1010
0000
0000
1000
0001
0000
0000
0000
0001
0000
0100
0000
0010
0000
0100
0000
,  // measure 25
0001
2000
0000
3010
1000
0100
0010
0001
,  // measure 26
1000
0000
0010
1000
0010
0000
0100
0000
0001
0000
0010
0000
0001
0000
0100
0000
,  // measure 27
0010
0002
0000
0013
0200
0000
0320
0000
,  // measure 28
1030
0000
0010
1000
0010
0000
0000
0000
1000
0000
0100
0000
0010
0000
0100
0000
,  // measure 29
1000
0002
0000
1003
0002
0000
0103
0001
,  // measure 30
0010
0000
0100
0010
0100
0000
1000
0000
0010
0000
1000
0000
0010
0000
0100
0000
,  // measure 31
0001
0000
0020
0000
0000
0000
0031
0000
0010
0000
0001
0100
0001
0000
0001
0100
,  // measure 32
0001
0000
0000
0001
1000
0000
0000
0000
1000
0000
0010
0000
0001
0000
0010
0000
,  // measure 33
1000
0200
0000
0310
0200
0000
1300
0100
,  // measure 34
0010
0000
0001
0010
0001
0000
0100
0000
0010
0000
1000
0000
0001
0000
1000
0000
,  // measure 35
0010
0200
0000
1300
0200
0000
0301
0100
,  // measure 36
0010
0000
1000
0010
1000
0000
0010
0000
0100
0000
0010
0000
0001
0000
0010
0000
,  // measure 37
1000
0002
0000
0013
0002
0000
0103
0001
,  // measure 38
1000
0000
0100
0010
0100
0000
1000
0000
0001
0000
0100
0000
0010
0000
1000
0000
,  // measure 39
0100
0000
1000
0000
1000
0000
0001
1000
0001
0000
0100
0001
0000
0000
0100
0010
,  // measure 40
0100
0000
0100
0000
0020
0000
0000
0030
0010
0000
1000
0000
0010
0000
0001
0000
,  // measure 41
0010
1000
0100
0010
0200
0000
0310
0100
,  // measure 42
0010
0001
1000
0010
1000
0001
0100
0001
,  // measure 43
1000
0000
0100
0000
0010
0000
0100
0000
2000
0000
0001
0000
3002
0003
0002
1003
,  // measure 44
0001
1000
1000
0100
1000
2000
0001
3001
,  // measure 45
1000
0010
0001
0020
0100
0130
0010
0100
,  // measure 46
0001
0001
1000
0001
0001
0200
0000
0320
,  // measure 47
0230
0000
0000
0000
0000
0000
0301
0100
,  // measure 48
0101
0000
0001
0100
0001
0000
1000
0000
1000
0000
0010
0000
1000
0000
0100
0000
,  // measure 49
0010
0000
0100
0010
0100
0000
1000
0000
0001
0000
1000
0000
0010
0000
0100
0000
,  // measure 50
0001
0000
0100
0001
0100
0000
0010
0000
1000
0000
0010
0000
0001
0000
0010
0000
,  // measure 51
1000
0000
0010
1000
0010
0000
0100
0000
0001
0000
0010
0000
0100
0000
0010
0000
,  // measure 52
0001
0000
0010
0001
0100
0000
0001
0000
1000
0000
0100
0000
1000
0000
0010
0000
,  // measure 53
0100
0000
0001
0100
0001
0000
0010
0000
0100
0000
0010
0000
0001
0000
1000
0000
,  // measure 54
0010
0000
1000
0010
1000
0000
0100
0000
0010
0000
0100
0000
0010
0000
0001
0000
,  // measure 55
1000
0000
0001
0100
0001
0000
0100
0000
0010
0000
1000
0000
0100
0000
1000
0100
,  // measure 56
1000
1000
0010
0100
0001
0001
0100
0010
,  // measure 57
1000
0000
1000
0010
1000
0000
0100
0000
0001
0000
0100
0000
0010
0000
0100
0000
,  // measure 58
1000
0000
1000
0001
1000
0000
0100
0000
0010
0000
0010
0000
0100
0000
1000
0000
,  // measure 59
0001
0000
0001
0100
0001
0000
0010
0000
0100
0000
0010
0000
0001
0000
1000
0000
,  // measure 60
0010
0000
0010
0100
0010
0000
1000
0000
0001
0000
0001
0000
0010
0000
0100
0000
,  // measure 61
0010
0000
0010
0001
0010
0000
0001
0000
1000
0000
0010
0000
0001
0000
0010
0000
,  // measure 62
1000
0000
1000
0100
1000
0000
0001
0000
0100
0000
0100
0000
0010
0000
1000
0000
,  // measure 63
0001
2000
3001
2000
0010
0000
3001
1000
,  // measure 64
1001
0000
0001
0100
0000
0000
0100
0000
0010
0000
1000
0000
0000
0000
1000
0000
,  // measure 65
0001
0000
1000
0001
0000
0000
0100
0000
1000
0000
0100
0000
0001
0000
0100
0000
,  // measure 66
0010
0000
1000
0010
0000
0000
1000
0000
0001
0000
0010
0000
0000
0000
0100
0000
,  // measure 67
0010
0000
0001
0010
0000
0000
0001
0000
1000
0000
0010
0000
0100
0000
0001
0000
,  // measure 68
1000
0010
0000
0100
0001
0010
0000
0001
,  // measure 69
1000
0010
0000
1000
0100
0001
0100
0010
,  // measure 70
0001
0100
0000
0001
1000
0010
0000
0010
,  // measure 71
0100
0002
0003
2000
3001
2000
3000
0002
,  // measure 72
1003
0001
1000
0001
0010
0100
0010
0100
,  // measure 73
1000
0010
1000
0010
0100
0001
0100
0001
,  // measure 74
0101
0000
0100
0000
0010
0000
0010
0000
2000
0000
0020
0000
3000
2000
0000
0030
,  // measure 75
0002
0000
0000
0000
0000
0000
0000
3003
M00M
0000
0000
0000
0000
0000
0000
0000
;

//---------------dance-single - ----------------
#NOTEDATA:;
#CHARTNAME:X-Scale 8;
#STEPSTYPE:dance-single;
#DESCRIPTION:;
#CHARTSTYLE:;
#DIFFICULTY:Medium;
#METER:6;
#RADARVALUES:0.444554,0.467814,0.082616,0.206540,0.010327,452.000000,440.000000,12.000000,30.000000,2.000000,0.000000,0.000000,0.000000,0.000000,0.444554,0.467814,0.082616,0.206540,0.010327,452.000000,440.000000,12.000000,30.000000,2.000000,0.000000,0.000000,0.000000,0.000000;
#CREDIT:;
#NOTES:
0000
0000
0000
0000
,
0000
0000
0000
0000
,
0000
0000
0000
0000
,
0000
0000
0000
0000
,
0001
0000
0010
0100
0010
0001
0010
0000
,
0001
0000
1000
0100
1000
0100
0010
0100
,
0010
0000
0001
0100
0010
1000
0001
0100
,
0101
0000
0110
0000
1010
1000
0001
1000
,
1001
0000
0001
0100
0010
0100
0001
0000
,
0100
0000
0010
0000
1000
0010
0001
0010
,
1000
0000
0100
0010
0100
0010
0100
0000
,
1000
0000
0001
0100
0010
0100
0001
0100
,
0010
0000
1000
0100
0010
0100
1000
0000
,
0001
0000
0010
0100
0010
0001
0010
0100
,
0010
0000
0001
1000
0100
1000
0001
0010
,
0200
0010
0000
0010
0000
0000
0300
0100
,
0110
0010
0000
0001
1000
0001
0000
1000
,
0010
1000
0000
0100
0010
0001
0010
0100
,
0010
0001
0000
0100
0010
0100
0000
0010
,
1000
0010
0000
1000
0100
0001
0100
1000
,
0100
0010
0000
0001
0100
0001
0000
1000
,
0100
1000
0000
0010
0100
0001
0100
0010
,
0100
0001
0000
1000
0010
1000
0000
0001
,
0010
0001
0000
0001
0000
1000
0001
1000
,
1001
0000
1000
0000
0001
0000
1000
0100
,
1000
0000
0001
0000
1000
0100
0010
0001
,
1000
0000
0010
0001
0010
0100
0010
0000
,
1000
0000
0001
0100
0002
1003
0002
0003
,
0001
0100
0001
0000
1000
0100
0010
0000
,
0100
0000
1000
0000
0002
0000
0103
0001
,
0100
0000
0001
0000
0010
0100
0010
0000
,
0001
0000
1000
0000
1000
0001
1000
0001
,
1001
0000
0010
0000
0100
0000
0001
1000
,
0001
0000
0010
0000
0020
0000
0031
0010
,
0100
0000
0010
0000
0001
1000
0001
0000
,
1000
0000
0100
0000
2000
3001
2000
3000
,
1000
0000
0010
0000
0100
0010
0100
0000
,
0001
0000
1000
0000
0020
0000
0130
0010
,
0100
0000
0001
0000
1000
0100
0010
0000
,
0100
0000
1000
0001
1000
0100
0010
0100
,
1100
2000
0001
0000
3010
1000
0100
0010
,
0100
1000
0001
0010
0002
0000
0013
0001
,
1000
0010
0100
0001
0010
0100
1000
0010
,
1000
0000
0100
0000
0010
0000
0100
0000
2000
0000
0000
0000
3002
0003
2000
3000
,
0001
1000
0010
0100
0001
0002
0000
0013
,
0001
0010
0100
0020
0000
0031
0010
0001
,
1000
1000
0001
1000
1000
0200
0000
2300
,
3020
0000
0000
0000
0000
0000
0030
0010
,
1010
0000
1000
0001
1000
0001
1000
0000
,
0010
0000
0100
0010
0100
1000
0100
0010
,
0100
0000
0001
0100
0001
0100
0001
0000
,
1000
0010
1000
0000
0001
0010
0100
0010
,
0001
0000
1000
0001
1000
0001
1000
0000
,
0100
0010
0100
0000
1000
0010
0001
0010
,
1000
0000
0001
0100
0010
0100
0001
0000
,
1000
0002
0003
0002
1003
0001
1000
0001
,
1001
1000
0000
1000
0001
1000
0000
0010
,
0100
0010
0000
0100
0001
0100
1000
0100
,
0001
0100
0000
0001
0010
0001
0000
1000
,
0001
1000
0000
0010
0100
0010
0001
0010
,
0100
0010
0000
1000
0001
1000
0000
0100
,
0010
0100
0000
1000
0100
0010
0100
0010
,
0001
0010
0000
0001
0100
0001
0000
0010
,
0100
0020
0130
0020
0000
0000
0030
0001
,
0011
0001
0000
0100
0010
0100
0000
0001
,
0010
0000
0001
0010
0000
0000
0100
0000
1000
0000
0100
0000
0001
0000
0100
0000
,
1000
0100
0000
1000
0001
1000
0000
0100
,
0010
0000
0100
0010
0000
0000
0001
0000
0100
0000
0010
0000
0100
0000
0001
0000
,
0100
0010
0000
1000
0100
1000
0000
0010
,
0100
0010
0000
0100
0001
0100
1000
0100
,
0001
0100
0000
0001
1000
0001
0000
0010
,
0100
0020
0030
0200
0300
0020
0030
0200
,
1300
0000
0100
1000
0100
0000
0010
0001
,
0010
0000
0001
0010
0100
0010
0100
1000
,
1100
0000
1000
0000
0010
0000
0010
0000
0200
0000
0020
0000
0300
0200
0000
0030
,
0002
0000
0000
0000
0000
0000
0000
0303
0M0M
0000
0000
0000
0000
0000
0000
0000
;

//---------------dance-single - ----------------
#NOTEDATA:;
#CHARTNAME:X-Scale 6;
#STEPSTYPE:dance-single;
#DESCRIPTION:;
#CHARTSTYLE:;
#DIFFICULTY:Easy;
#METER:4;
#RADARVALUES:0.336366,0.363554,0.041308,0.061962,0.003442,342.000000,336.000000,6.000000,9.000000,0.000000,0.000000,0.000000,0.000000,0.000000,0.336366,0.363554,0.041308,0.061962,0.003442,342.000000,336.000000,6.000000,9.000000,0.000000,0.000000,0.000000,0.000000,0.000000;
#CREDIT:;
#NOTES:
0000
0000
0000
0000
,
0000
0000
0000
0000
,
0000
0000
0000
0000
,
0000
0000
0000
0000
,
1000
0010
1000
0010
,
0100
0001
0100
0001
,
0010
0001
0010
0100
,
1000
0100
1000
0001
,
1001
0010
0100
0001
,
0100
0000
0010
0000
1000
0010
0100
0010
,
1000
0100
0010
0100
,
1000
0000
0001
0000
0010
0100
1000
0100
,
0010
0001
1000
0010
,
0100
0000
0001
0000
0010
0100
0010
0100
,
0010
0000
0001
0000
0100
0000
0010
0010
,
2000
0010
0000
0010
0000
0000
3000
0000
,
1010
0010
0000
0000
1000
0010
0000
1000
,
0010
1000
0000
0000
0001
0000
0010
0000
,
0100
0010
0000
0000
0100
0010
0000
0001
,
1000
0001
0000
0000
0100
0000
0010
0000
,
1000
0010
0000
0000
1000
0010
0000
1000
,
0100
1000
0000
0000
0001
0000
0100
0000
,
0001
1000
0000
0000
0001
1000
0000
0100
,
0010
0100
0000
0100
0000
0000
0010
0000
,
0110
1000
0001
1000
,
0001
0000
0100
0000
0010
0000
1000
0001
,
1000
0010
0100
0010
,
0100
0000
0001
0000
1000
0000
1000
0100
,
1000
0100
0010
0100
,
1000
0000
0001
0000
0100
0000
0100
0001
,
0100
0001
0010
0100
,
1000
0000
0100
0000
1000
0010
1000
0010
,
1000
0000
0010
0000
0100
0000
0001
0100
,
0001
0000
0010
0000
0100
0000
0010
0100
,
0010
0000
0001
0000
1000
0010
1000
0000
,
0010
0000
0100
0000
0001
0010
0001
0000
,
0100
0000
0010
0000
0100
0010
0100
0000
,
0001
0000
1000
0000
0100
0000
0010
0100
,
0010
0000
0001
0000
0001
0010
0001
0000
,
0100
0000
0001
0000
0010
0100
0010
0100
,
0110
0001
1000
0001
,
1000
0010
0001
0010
1000
0000
0010
0010
,
1000
0100
1000
0100
,
0010
0100
0010
0001
0020
0000
0031
0010
,
0001
0010
1000
0010
,
0001
1000
0100
1000
0010
0000
0010
0000
,
1000
0100
0010
0001
,
0002
0000
0000
0003
,
0011
0001
1000
0001
,
1000
0000
0001
0000
0100
1000
0100
0001
,
0010
0100
0010
0100
,
0010
0000
0100
0000
1000
0010
0100
0010
,
1000
0100
1000
0100
,
1000
0000
0100
0000
1000
0001
0010
0001
,
0100
0001
0100
0001
,
0100
0010
0000
0010
0001
0010
1000
0010
,
1000
1000
0000
0000
0010
1000
0000
0000
,
0010
1000
0000
0100
0010
0001
0010
0100
,
0010
0001
0000
0000
0010
0001
0000
0000
,
0010
0001
0000
0000
1000
0010
0001
0010
,
0100
0010
0000
0000
0100
0010
0000
0000
,
0100
0010
0000
0000
1000
0010
0100
0001
,
1000
0001
0000
0000
1000
0001
0000
1000
,
0100
1000
0000
2000
0000
0000
3000
0000
,
1100
0000
1000
0000
0010
1000
0100
0000
,
0001
0000
0010
0000
1000
0001
0010
0001
,
1000
0000
0100
0000
0010
0100
0010
0000
,
0001
0000
1000
0000
0001
0100
1000
0100
,
0010
0000
0100
0000
,
0001
0000
1000
0010
,
1000
0000
0000
0000
0100
0000
0000
0010
,
0001
0020
0030
0200
0300
0020
0030
0200
,
1300
0100
1000
0010
,
0100
0001
0010
0001
,
0100
0000
0100
0000
0010
0000
0010
0000
0100
0000
0001
0000
0000
1000
0000
0000
,
0020
0000
0000
0000
0000
0000
0000
0030
0000
0000
0000
0000
0000
0000
0000
0000
;

//---------------dance-single - ----------------
#NOTEDATA:;
#CHARTNAME:X-Scale 3;
#STEPSTYPE:dance-single;
#DESCRIPTION:;
#CHARTSTYLE:;
#DIFFICULTY:Beginner;
#METER:2;
#RADARVALUES:0.197689,0.233713,0.041308,0.034423,0.000000,201.000000,195.000000,6.000000,5.000000,0.000000,0.000000,0.000000,0.000000,0.000000,0.197689,0.233713,0.041308,0.034423,0.000000,201.000000,195.000000,6.000000,5.000000,0.000000,0.000000,0.000000,0.000000,0.000000;
#CREDIT:;
#NOTES:
0000
0000
0000
0000
,
0000
0000
0000
0000
,
0000
0000
0000
0000
,
0000
0000
0000
0000
,
0001
0000
0000
0000
,
0010
0000
0000
0000
,
0100
0000
0000
0000
,
1000
0000
0100
0000
,
1100
0000
0100
0000
,
1000
0000
0001
0100
,
0001
0000
1000
0000
,
0100
0000
0010
0001
,
0010
0000
1000
0000
,
0010
0000
0001
0100
,
0001
0000
1000
0000
,
0010
0000
0000
0100
,
0110
0000
1000
0000
,
0010
0000
0001
0010
,
0100
0000
0001
0000
,
1000
0000
0100
0010
,
0100
0000
1000
0000
,
0001
0000
0100
0010
,
0100
0000
0001
0000
,
0010
0000
0000
0010
,
0011
0000
0001
1000
,
0001
0000
0010
0100
,
0010
0000
0100
1000
,
0100
0000
1000
0001
,
1000
0000
0010
0100
,
1000
0001
0100
0100
,
0100
0001
0010
0100
,
1000
0100
1000
1000
,
1000
0010
0100
0001
,
0001
0010
0100
0010
,
0010
0001
1000
1000
,
0000
0100
0001
0001
,
0100
0000
0100
0100
,
0001
1000
0100
0010
,
0010
0001
0001
0001
,
0100
0001
0010
0000
,
0110
0001
1000
0001
,
1000
0001
1000
0000
,
1000
0100
1000
0100
,
0010
0010
0020
0031
,
0001
0010
1000
0010
,
0001
0100
0010
0010
,
1000
0100
0010
0001
,
0002
0000
0000
0003
,
0011
0000
1000
0000
,
0001
0000
0100
0001
,
0100
0000
0001
0000
,
1000
0000
0100
1000
,
0010
0000
0100
0000
,
0001
0000
1000
0010
,
0100
0000
0001
0000
,
0100
0000
0001
1000
,
0001
0000
0010
0000
,
0010
0000
0010
0010
,
0010
0000
0010
0000
,
0010
0000
1000
0001
,
0100
0000
0100
0000
,
0100
0000
1000
0100
,
1000
0000
1000
0000
,
0100
0000
0000
2000
0000
0000
3000
0000
,
1100
0000
0100
0000
,
0010
0000
1000
0010
,
1000
0000
0010
0000
,
1000
0000
0001
0100
,
0001
0000
0100
0000
,
0001
0000
1000
0010
,
1000
0000
0100
0000
,
0001
0000
1000
0000
,
0001
0000
0010
0000
,
0100
0001
0010
0001
,
0100
0010
0200
0000
,
0020
0000
0000
0000
0000
0000
0000
0330
0000
0000
0000
0000
0000
0000
0000
0000
;
