#TITLE:Strong;
#SUBTITLE:;
#ARTIST:Romy & Fred again..;
#TITLETRANSLIT:;
#SUBTITLETRANSLIT:;
#ARTISTTRANSLIT:;
#GENRE:Trance;
#CREDIT:;
#BANNER:Strong-bn.png;
#BACKGROUND:Strong-bg.png;
#LYRICSPATH:;
#CDTITLE:cdtitle.png;
#MUSIC:Strong.ogg;
#OFFSET:-0.004000;
#SAMPLESTART:46.570999;
#SAMPLELENGTH:14.328000;
#SELECTABLE:YES;
#BPMS:0.000000=134.000000
;
#STOPS:
;
#BGCHANGES:2.000=Strong.avi=1.000=1=0=1===CrossFade==,
99999=-nosongbg-=1.000=0=0=0 // don't automatically add -songbackground-
;
#KEYSOUNDS:;
#ATTACKS:;

//---------------dance-single - ----------------
#NOTES:
     dance-single:
     X-Scale 2:
     Beginner:
     2:
     0.115972,0.161321,0.006939,0.000000,0.000000,117.000000,116.000000,1.000000,0.000000,0.000000,0.000000,0.115972,0.161321,0.006939,0.000000,0.000000,117.000000,116.000000,1.000000,0.000000,0.000000,0.000000:
0000
0000
0000
0000
,
0000
0000
0000
0000
,
0000
0000
0000
0000
,
0000
0000
0000
0000
,
0000
0000
0001
0000
,
0000
0000
0000
0000
,
0000
0000
0100
0000
,
0000
0000
0000
0000
,
0000
0000
0010
0000
,
0000
0000
0000
0000
,
0000
0000
1000
0000
,
0000
0000
0000
0000
,
0000
0000
0001
0000
,
1000
0000
0001
0000
,
1000
0000
0100
0000
,
0010
0000
0100
0000
,
0010
0000
0001
0000
,
0010
0000
0001
0000
,
0010
0000
0100
0000
,
1000
0000
0100
0000
,
1000
0000
0010
0000
,
1000
0000
0010
0000
,
0100
0000
0001
0000
,
0100
0000
0001
0000
,
0100
0000
0000
0000
,
0000
0000
0000
0000
,
0000
0000
0000
0000
,
0000
0000
0001
0000
,
0010
0000
0100
0000
,
0010
0000
0001
0000
,
1000
0000
0001
0000
,
0100
0000
0001
0000
,
1000
0000
0100
0000
,
0010
0000
0001
0000
,
0100
0000
0010
0000
,
0000
0000
0000
1000
,
0000
0001
0000
1000
,
0000
0001
0000
0100
,
0000
0001
0000
0100
,
0000
0001
0000
1000
,
0000
0001
0000
1000
,
0000
0100
0000
1000
,
0000
0100
0000
0010
,
0000
0100
0000
0010
,
0000
0001
0000
0010
,
0000
0001
0000
0100
,
0000
0001
0000
0100
,
0000
0001
0000
1000
,
0000
0001
0000
1000
,
0000
0100
0000
0100
,
0000
0010
0000
0010
,
0000
0000
0001
0000
,
0000
0000
0010
0000
,
0000
0000
0100
0000
,
0000
0000
1000
0000
,
0000
0000
0010
0000
,
0000
0000
0100
0000
,
0000
0000
0001
0000
,
0000
0000
1000
0000
,
0000
0000
0001
0000
,
0000
0000
0000
0000
,
0000
0000
1001
0000
,
0100
0000
0001
0000
,
1000
0000
0001
0000
,
0100
0000
0001
0000
,
0010
0000
0100
0000
,
0010
0000
0001
0000
,
0010
0000
0100
0000
,
1000
0000
0001
0000
,
1000
0000
0010
0000
,
1000
0000
0001
0000
,
0100
0000
0010
0000
,
0100
0000
0001
0000
,
1000
0000
0100
0000
,
0010
0000
0100
0000
,
1000
0000
0001
0000
,
0100
0000
0001
0000
,
1000
0000
0001
0000
;

//---------------dance-single - ----------------
#NOTES:
     dance-single:
     X-Scale 5:
     Easy:
     3:
     0.206173,0.270602,0.000000,0.506512,0.000000,208.000000,208.000000,0.000000,73.000000,0.000000,0.000000,0.206173,0.270602,0.000000,0.506512,0.000000,208.000000,208.000000,0.000000,73.000000,0.000000,0.000000:
0000
0000
0000
0000
,
0000
0000
0000
0000
,
0000
0000
0000
0000
,
0000
0000
0000
0000
,
0000
0000
1000
0000
,
0000
0000
0000
0000
,
0001
0100
0001
0000
,
0000
0000
0010
0000
,
0000
0000
0100
0000
,
0000
0000
0000
0000
,
1000
0001
1000
0000
,
0000
0100
0000
0000
,
0000
0000
0001
0000
,
1000
0000
0010
0000
,
1000
0000
0001
0000
,
1000
0000
0010
0000
,
1000
0000
0001
0000
,
0010
0000
0100
0000
,
0010
0000
0001
0000
,
0010
0000
0100
0000
,
0010
0000
0001
0000
,
1000
0000
0010
0000
,
0100
0000
0001
0000
,
0010
0000
0100
0000
,
2000
0000
0000
0002
0000
0000
0000
0000
,
0000
0000
0000
0003
,
3001
0000
0000
0000
1000
0000
0000
0200
,
0000
0320
0000
0032
0010
0000
1003
0000
,
0001
0100
0001
0010
,
0100
0010
0001
1000
,
0001
0100
0001
1000
,
0100
0010
0001
0010
,
0100
1000
0001
0100
,
0010
0100
0001
1000
,
0002
0000
0023
0000
0230
0000
1300
0002
,
0000
0203
0000
0302
0000
0000
0023
0000
,
0230
2300
3002
0203
,
0302
2003
3200
0000
,
0310
0000
0100
0000
,
1000
0000
0000
0000
0001
0000
0100
0002
,
0000
0023
0230
2300
,
3002
0203
0320
0000
,
0130
0000
0010
0000
,
1000
0000
0001
0200
,
0302
0023
0230
0320
,
0032
2003
3200
0000
,
0310
0000
0100
0000
,
1000
0000
0001
0200
,
0320
2030
3002
0023
,
0230
2300
3002
0000
,
0203
0000
0320
0000
2030
0000
3001
0200
,
0000
0302
0003
0002
1003
0000
0000
0000
,
0100
0000
0010
0000
,
0001
0000
0100
0000
,
0010
0000
1000
0000
,
0001
0010
0100
0000
,
0010
0000
0001
0000
,
1000
0001
0100
0000
,
0001
0000
1000
0000
,
0010
0100
0002
0000
,
0023
0000
0230
0000
2300
0000
3001
0200
,
0000
0320
0000
0000
0000
0000
1000
0000
,
2030
0010
0000
3001
,
1000
0000
0010
1000
0010
0000
0100
0000
,
0000
0010
0000
1000
,
0100
0000
0010
0100
0010
0000
0001
0000
,
0000
1000
0000
0001
,
0100
0000
0010
0100
0010
0000
1000
0000
,
0002
0000
0203
0000
0320
0000
1030
0200
,
0000
2300
0000
3002
0000
0000
0203
0000
,
0320
0000
0230
0320
,
2030
0000
3001
1000
,
0010
1000
0001
0010
,
0100
0010
0001
2000
,
3200
0000
2300
3200
,
0320
0000
0031
1000
,
0001
0010
0100
0010
,
0001
2000
0002
0000
,
3003
0000
0000
0000
;

//---------------dance-single - ----------------
#NOTES:
     dance-single:
     X-Scale 10:
     Medium:
     7:
     0.358820,0.460024,0.006939,0.756298,0.253256,362.000000,361.000000,1.000000,109.000000,0.000000,0.000000,0.358820,0.460024,0.006939,0.756298,0.253256,362.000000,361.000000,1.000000,109.000000,0.000000,0.000000:
0000
0000
0000
0000
,
0000
0000
0000
0000
,
0000
0000
0000
0000
,
0000
0000
0000
0000
,
0000
0000
2000
0000
,
3200
0000
0310
0002
0000
0000
0003
0000
,
0200
0320
0230
0000
,
0000
0000
0002
0000
,
0300
0000
0000
0000
0023
0000
0000
0230
,
0000
2300
3002
0000
,
0203
0320
0230
0000
,
0000
0002
0000
0000
,
0300
0000
1003
0010
,
1000
0000
0000
0100
0000
0000
0010
0000
0010
0000
0000
0000
0001
0000
0000
0000
,
1000
0000
0000
0001
0000
0000
0010
0000
0010
0000
0000
0000
0100
0000
0000
0000
,
1000
0000
0000
0001
0000
0000
0001
0000
0100
0000
0000
0000
0010
0000
0000
0000
,
1000
0000
0000
0100
0000
0000
0100
0000
0010
0000
0000
0000
0001
0000
0000
0000
,
0200
0302
2003
0100
,
3001
0000
0000
0010
0000
0000
0010
0000
0100
0000
0000
0000
0010
0000
0000
0000
,
0002
0000
2003
0000
0000
3020
0000
0000
,
1030
0000
0000
0001
0000
0000
0001
0000
0100
0000
0000
0000
0010
0000
0000
0000
,
0200
0302
0100
2003
,
0100
0000
0000
0000
3001
0000
1000
0000
0001
0000
0000
0100
0000
0000
0100
0000
,
0001
0000
0000
0010
0000
0000
0010
0000
0100
0000
0000
1000
0000
0000
1000
0000
,
0001
0100
0000
0001
0100
0000
0020
0000
0000
0000
0000
0000
0000
0000
0000
0000
,
0000
0000
0000
0000
,
2030
0000
3200
0000
0302
0000
1003
0020
,
0000
0230
0000
2300
0100
0000
3001
1000
,
0001
0000
0010
0100
1000
0000
0001
0100
,
0000
0100
0000
0001
0000
0000
0001
0000
1000
0000
0000
0000
0001
0000
0010
0000
,
0100
0000
0010
0100
1000
0000
0001
1000
,
0010
0000
0000
1000
0000
1000
0001
0000
0020
0000
0000
0000
0130
0000
0010
0000
,
0002
0000
0013
0100
2000
0000
3001
1000
,
0200
0000
0301
0100
2000
0000
3010
1000
,
0002
0000
0203
0000
0320
0000
0031
0020
,
0000
2030
0000
3002
0100
0000
2003
0000
,
3200
0302
0023
2030
,
3002
0203
0320
0001
,
1030
0010
1000
0000
0100
0010
0001
0100
,
0010
0000
0100
0010
0000
0010
1000
0000
0001
0000
0000
0000
0010
0000
0200
0000
,
1000
0320
0032
2003
,
3020
0032
0203
0010
,
1300
0000
0000
0100
0000
0100
1000
0000
0001
0000
0100
0000
0001
0000
0010
0000
,
0000
0010
0000
0010
0000
0100
0010
0000
0001
0000
1000
0000
0020
0000
0000
0000
,
0032
0023
2030
3200
,
0302
0023
2030
0100
,
3001
0000
0000
0010
0000
0000
0100
0000
1000
0000
0000
0010
0000
0000
0100
0000
,
0000
0001
0000
1000
0000
1000
0010
0000
1000
0000
0001
0000
0200
0000
0000
0000
,
0320
0032
0023
2030
,
3200
0320
0032
0100
,
2003
0000
3020
0000
0032
0000
0103
2000
,
0000
0000
0002
0000
0000
0000
3003
0000
1001
0000
0000
1000
0000
0000
1000
0000
,
0010
0000
0000
0100
0000
0000
0100
0000
0001
0000
0000
0010
0000
0000
0100
0000
,
0000
0100
0000
1000
0000
0000
0001
0000
0100
0000
0000
0001
0000
0000
0001
0000
,
0010
0000
0000
0100
0000
0000
0100
0000
1000
0000
0000
0001
0000
0000
0100
0000
,
0000
0100
0000
0001
0000
0000
1000
0000
0001
0000
0000
0010
0000
0000
0100
0000
,
1000
0000
0000
0010
0000
0000
0100
0000
0001
0000
0000
0100
0000
0000
0001
0000
,
0000
1000
0000
1000
0000
0000
0010
0000
0100
0000
0000
0010
0000
0000
1000
0000
,
0100
0000
0000
0010
0000
0000
0001
0000
1000
0000
0000
0001
0000
0000
0010
0000
,
0000
0010
0000
0100
0000
0000
1000
0000
0002
0000
0000
0000
0000
0000
0000
0000
,
0203
0000
2300
0000
3002
0000
1003
0200
,
0000
0302
0000
0000
1000
0000
0010
0000
,
0203
0000
1000
0000
0301
0000
0100
0001
,
1000
0000
0001
0100
0000
0000
0010
0000
0100
0000
0000
0001
0000
1000
0001
0000
,
0010
0000
0000
0100
0000
1000
0100
0000
1000
0000
0000
0001
0000
0100
0001
0000
,
0000
0001
0000
1000
0000
0010
0100
0000
0010
0000
0000
1000
0000
1000
0010
0000
,
1000
0000
0000
0001
0000
0001
0100
0000
0010
0000
0000
1000
0000
1000
0100
0000
,
0000
0100
0000
0010
0000
0010
0001
0000
0100
0000
0000
0001
0000
0001
1000
0000
,
0020
0000
0032
0000
0203
0000
1300
0020
,
0000
2030
0000
3200
0010
0000
2300
0000
,
3002
0100
2003
3002
,
0023
0000
0000
0100
0000
0000
0130
0000
0010
0000
0000
0000
0001
0000
1000
0000
,
0002
0003
0002
0003
0100
0000
0010
1000
,
0020
0030
0020
0030
2000
0000
3200
0000
,
0320
1000
0032
2003
,
3020
0000
0000
0100
0000
0000
0130
0000
0010
0000
0000
1000
0000
0000
0001
0000
,
0001
0000
0000
0010
0000
0000
0100
0000
0100
0000
0000
1000
0000
0000
0002
0000
,
0000
2003
0000
3002
0000
0000
0000
0000
,
0003
0000
0000
0000
;

//---------------dance-single - ----------------
#NOTES:
     dance-single:
     X-Scale 12:
     Hard:
     8:
     0.463889,0.595325,0.020816,0.451004,0.416311,468.000000,465.000000,3.000000,65.000000,0.000000,0.000000,0.463889,0.595325,0.020816,0.451004,0.416311,468.000000,465.000000,3.000000,65.000000,0.000000,0.000000:
// measure 0
0000
0000
0000
0000
,  // measure 1
0000
0000
0000
0000
,  // measure 2
0000
0000
0000
0000
,  // measure 3
0000
0000
0000
0000
,  // measure 4
0000
1000
0100
0010
0001
0100
0010
1000
,  // measure 5
0000
0001
0000
0000
0100
0000
0002
0000
0000
0000
0000
0000
0000
0000
0000
0000
,  // measure 6
0003
1000
0000
1000
0000
2000
0000
0000
,  // measure 7
0000
0000
0000
0000
0000
0002
0000
0000
,  // measure 8
0000
0000
3000
0000
0103
0002
0000
0203
,  // measure 9
0000
0000
0000
0000
0000
0000
0320
0000
0000
2030
0000
0000
0000
0000
0000
0000
,  // measure 10
3100
0100
0020
0000
,  // measure 11
0000
0200
0000
0030
,  // measure 12
0300
0010
0100
2000
0100
0000
0001
0000
,  // measure 13
0010
0001
0100
0001
,  // measure 14
0010
0000
0000
0000
3001
0000
1000
0000
0010
0000
0000
0001
0000
0000
1000
0000
,  // measure 15
0001
0000
0000
0010
0000
0000
1000
0000
0010
0000
0000
0100
0000
0000
0001
0000
,  // measure 16
1000
0000
0000
0100
0000
0000
0001
0000
1000
0000
0000
0010
0000
0000
0100
0000
,  // measure 17
2000
3002
0203
1000
,  // measure 18
0301
0000
0000
0001
0000
0000
1000
0000
0010
0000
0000
0100
0000
0000
0001
0000
,  // measure 19
0200
0000
0302
0000
0010
0023
1000
0000
,  // measure 20
0001
0000
0000
0000
0130
0000
0010
0000
0001
0000
0000
0100
0000
0000
0100
0000
,  // measure 21
0002
0203
1000
0302
,  // measure 22
0100
0000
0000
0000
1003
0000
0001
0000
0100
0000
0000
0100
0000
0000
0100
0000
,  // measure 23
0001
0000
0000
0001
0000
0000
0001
0000
1000
0000
0000
0010
0000
0000
0100
0000
,  // measure 24
0010
0100
0000
0001
1000
0000
0010
0000
0000
0010
0000
0000
0010
0000
0000
0020
,  // measure 25
0000
0000
0000
0000
,  // measure 26
0032
0000
0023
0000
2030
0000
3001
0200
,  // measure 27
0000
0000
0320
0000
0000
0000
2030
0000
0001
0000
0000
0001
3000
1000
0001
0000
,  // measure 28
0010
0000
0000
0100
0000
0100
1000
0000
0001
0000
0000
0100
0000
0100
0001
0000
,  // measure 29
0000
0001
0000
1000
0000
0000
0010
0000
1000
0000
0000
0100
0000
0100
0001
0000
,  // measure 30
0100
0000
0000
1000
0000
1000
0001
0000
0100
0000
0000
0001
0000
0001
1000
0000
,  // measure 31
0000
0001
0000
0100
0000
0100
0010
0000
1000
0000
0000
0010
0000
0010
1000
0000
,  // measure 32
0100
0000
0000
0010
0000
0010
0001
0000
0100
0000
0000
0001
0000
0001
0010
0000
,  // measure 33
0010
0000
0000
0100
0000
0000
0010
0000
0001
0000
0100
0000
1000
0000
0001
0000
,  // measure 34
1000
0100
0001
1000
0002
0000
0103
0020
,  // measure 35
0000
2030
0000
3002
1000
0000
0013
0000
,  // measure 36
0001
1000
0010
0000
1000
0001
1000
0100
,  // measure 37
0000
0010
0000
0010
0000
0100
0010
0000
0001
0000
0000
0000
1000
0000
0001
0000
,  // measure 38
0100
0000
0000
0001
0000
0001
1000
0000
0100
0000
0010
0000
0001
0000
1000
0000
,  // measure 39
0000
1000
0000
0001
0000
0001
0100
0000
0001
0000
0000
0000
0001
0000
0010
0000
,  // measure 40
0100
0010
0001
0000
1000
0000
0001
0100
,  // measure 41
0000
0100
0000
0001
0000
0001
1000
0000
0001
0000
0100
0000
0010
0000
0000
0000
,  // measure 42
0010
1000
0100
0000
0010
0100
1000
0001
,  // measure 43
0000
0001
0000
0100
0010
0100
0010
0100
0010
0000
0000
0010
1000
0000
0001
0000
,  // measure 44
0100
0000
0000
0010
0100
0000
0001
0000
0010
0000
0000
0010
0100
0000
1000
0000
,  // measure 45
0000
1000
0000
0001
0000
0100
0001
0000
0010
0000
0001
0000
0100
0001
0000
0000
,  // measure 46
1000
0000
0001
0000
0100
0001
0000
0000
0010
0000
0100
0000
1000
0000
0001
0000
,  // measure 47
0000
0001
0000
0100
0000
0100
0001
0000
0010
0000
0000
0000
0100
0000
0010
0000
,  // measure 48
0001
0000
1000
0100
0010
0000
1000
0010
,  // measure 49
0001
0000
0000
0000
1000
0000
0001
0000
0100
0000
0000
0100
0000
0000
0100
0000
,  // measure 50
0020
0000
0032
0000
0023
0000
1030
0200
,  // measure 51
0000
0320
0030
0010
2001
0000
3100
0010
,  // measure 52
0002
0000
0013
0100
2000
0000
3010
0100
,  // measure 53
0000
0100
0000
0001
0000
0000
0010
0000
0200
0000
0000
0000
0301
0000
0100
0000
,  // measure 54
2000
0000
3010
0100
0002
0000
0103
0001
,  // measure 55
0000
1000
0000
1000
0000
0000
0001
0000
0200
0000
0000
0000
0301
0000
1000
0000
,  // measure 56
0020
0000
0031
0010
2000
0000
3010
1000
,  // measure 57
0000
1000
0000
0001
0000
0000
0010
0000
0200
0000
0000
0000
0310
0000
0100
0000
,  // measure 58
2000
0000
3010
1000
0002
0000
0103
0001
,  // measure 59
0000
0001
0000
1000
0000
0000
0010
0000
0100
0010
0100
0010
0100
0010
0100
0010
,  // measure 60
0200
0000
0302
0000
0023
0000
0130
1000
,  // measure 61
0100
0000
0001
0000
0100
0000
1000
0000
1100
0000
0000
1000
0000
0100
1000
0000
,  // measure 62
0100
0000
0000
0010
0000
0001
0010
0000
0001
0000
0000
1000
0000
0010
1000
0000
,  // measure 63
0000
1000
0000
0001
0000
0100
0001
0000
0010
0000
0000
0100
0000
0100
0010
0000
,  // measure 64
0001
0000
0000
1000
0000
1000
0010
0000
0100
0000
0000
0001
0000
0001
1000
0000
,  // measure 65
0100
1000
0000
0001
0100
0001
0100
0000
0001
0000
1000
0100
0000
0100
0010
0000
,  // measure 66
0001
0000
0100
0001
0000
0001
1000
0000
0010
0000
0100
0010
0000
0010
1000
0000
,  // measure 67
0000
1000
0000
0001
0000
0100
0001
0000
1000
0000
0000
0100
0000
0100
0010
0000
,  // measure 68
0001
0000
0000
0001
0100
0000
0001
0000
1000
0000
0000
0000
0100
0000
0001
0000
,  // measure 69
0100
1000
0100
0010
0011
1000
0002
0100
,  // measure 70
2003
0000
0000
0010
0000
0000
0010
0000
3001
0000
1000
0000
0020
0000
0100
0000
,  // measure 71
0030
0100
0000
0100
0010
0000
1000
0000
0100
0000
0001
0000
0100
0000
1000
0000
,  // measure 72
2000
0000
0100
0000
3002
0000
0100
0000
1003
0000
0000
0100
0010
0000
0001
0000
,  // measure 73
0002
0000
0100
0000
2003
0000
0100
0000
3001
0000
0000
0010
0100
0000
0010
0000
,  // measure 74
0002
0000
0000
1000
0000
0000
0103
0000
0100
0000
0001
0000
2000
0000
0000
0000
,  // measure 75
3200
0000
0000
0010
0000
0000
1300
0000
0100
0000
0000
0010
0000
0010
0100
0000
,  // measure 76
2000
0000
0100
0000
3002
0000
0100
0000
1003
0000
0000
0001
0100
0000
0001
0000
,  // measure 77
0002
0100
2003
0020
3000
0000
0000
0000
,  // measure 78
0030
0000
0000
0000
;
