#TITLE:Still Think About My Roof;
#SUBTITLE:;
#ARTIST:Bishu;
#TITLETRANSLIT:;
#SUBTITLETRANSLIT:;
#ARTISTTRANSLIT:;
#GENRE:Disco Hyperpop;
#CREDIT:;
#BANNER:Still Think About My Roof-bn.png;
#BACKGROUND:Still Think About My Roof-bg.png;
#LYRICSPATH:;
#CDTITLE:cdtitle.png;
#MUSIC:Still Think About My Roof.ogg;
#OFFSET:-0.006000;
#SAMPLESTART:41.148998;
#SAMPLELENGTH:13.714000;
#SELECTABLE:YES;
#BPMS:0.000000=140.000000
;
#STOPS:
;
#BGCHANGES:0.000=Still Think About My Roof.avi=1.000=1=0=0=StretchNoLoop==CrossFade==,
99999=-nosongbg-=1.000=0=0=0 // don't automatically add -songbackground-
;
#KEYSOUNDS:;
#ATTACKS:;

//---------------dance-single - ----------------
#NOTES:
     dance-single:
     X-Scale 3:
     Beginner:
     2:
     0.153554,0.198751,0.010140,0.121684,0.000000,106.000000,105.000000,1.000000,12.000000,0.000000,0.000000,0.153554,0.198751,0.010140,0.121684,0.000000,106.000000,105.000000,1.000000,12.000000,0.000000,0.000000:
0000
0000
0000
0000
,
0000
0000
0000
0000
,
0000
0000
0000
0000
,
0000
0000
0000
0000
,
1000
0000
0000
0000
0000
0000
0000
0001
,
0000
0000
1000
0000
,
0000
0010
0000
0000
0000
0000
0000
0100
,
0000
0000
0000
0001
0000
0000
0000
0000
,
1001
0000
0000
0000
,
0100
0000
1000
0000
,
0001
0000
1000
0000
,
0010
0000
2000
3200
,
0320
0030
0001
0000
,
0100
0000
0001
0000
,
1000
0000
0100
0000
,
0020
0230
2300
3000
,
0001
0000
0000
0000
0000
0000
0000
1000
,
0000
0000
0001
0000
,
2000
0000
0000
0000
3000
0000
0000
0100
,
0000
0000
0010
0000
,
0001
0000
0100
0000
,
0010
0000
1000
0000
,
0100
0000
0010
0000
,
0001
0000
0000
0000
,
1000
0000
0000
0000
0001
0000
0000
1000
,
0000
0000
0001
0000
,
0100
0000
0000
0000
0001
0000
0000
0010
,
0000
0000
0100
0000
,
0010
0000
0000
0000
0100
0000
0000
1000
,
0000
0000
0001
0000
,
1000
0000
0000
0000
0001
0000
0000
0100
,
0000
0000
0001
0000
,
1000
0000
0000
0000
0000
0010
0000
1000
,
0000
0001
0000
0000
0200
0000
0302
0000
,
1003
0000
0000
0000
0000
0001
0000
0010
,
0000
0100
0000
0000
2000
0000
3002
0000
,
0103
0000
0000
0000
0000
0001
0000
1000
,
0000
0001
0000
0000
0010
0000
0000
0000
,
0000
0100
0000
0000
0010
0000
0000
0001
,
0000
1000
0001
0000
,
0100
0000
0000
0000
0000
0000
0000
0001
,
0000
0000
1000
0000
,
0200
0000
0000
0000
0300
0000
0000
1000
,
0000
0000
0001
0000
,
0100
0000
0001
0000
,
1000
0000
0100
0000
,
0010
0000
0100
0000
,
1000
0000
0001
0000
,
0100
0000
0001
0000
,
1000
0000
0001
0000
,
0010
0000
0100
0000
,
0010
0000
0001
0000
,
1000
0000
0000
0000
0010
0000
0000
1000
,
0000
0000
0001
0000
,
0100
0000
0000
0000
0001
0000
0000
1000
,
0000
0000
0001
0000
,
0100
0000
0000
0000
;

//---------------dance-single - ----------------
#NOTES:
     dance-single:
     X-Scale 6:
     Easy:
     4:
     0.283930,0.342237,0.152105,0.385333,0.000000,196.000000,181.000000,15.000000,38.000000,0.000000,0.000000,0.283930,0.342237,0.152105,0.385333,0.000000,196.000000,181.000000,15.000000,38.000000,0.000000,0.000000:
// measure 0
0000
0000
0000
0000
,  // measure 1
0000
0000
0000
0000
,  // measure 2
0000
0000
0000
0000
,  // measure 3
0000
0000
0000
0000
,  // measure 4
0001
0000
0000
0000
0000
1000
0000
0100
,  // measure 5
0000
1000
0000
0000
0001
0000
1000
0000
,  // measure 6
0000
0001
0000
0000
0000
0100
0000
0010
,  // measure 7
0000
0000
0000
1000
0000
0000
0000
0000
,  // measure 8
1001
0000
1000
1000
0000
0000
0000
0000
,  // measure 9
0110
0010
0100
0001
,  // measure 10
0010
0001
1000
0010
,  // measure 11
1000
0001
0010
0100
,  // measure 12
2000
3000
2000
3000
1001
0000
0000
0001
,  // measure 13
0020
0000
0032
0000
1003
0100
0020
0000
,  // measure 14
0032
0003
0002
0003
1001
0000
0000
1000
,  // measure 15
0020
2030
3002
0023
,  // measure 16
0130
0000
0000
0000
0000
1000
0000
0001
,  // measure 17
0000
1000
0000
0000
0010
0100
0010
0000
,  // measure 18
0000
1000
0000
0000
0000
0100
0000
0010
,  // measure 19
0000
0100
0000
0000
1000
0001
1000
0000
,  // measure 20
0001
0000
0000
0000
0000
0100
0000
0001
,  // measure 21
0000
0100
0000
0000
0010
0100
0010
0000
,  // measure 22
1000
0100
0000
0000
0000
1000
0000
0001
,  // measure 23
0000
0100
0000
0000
0000
0000
0000
2000
,  // measure 24
0000
0000
0000
3000
1100
0000
0000
1010
,  // measure 25
0000
1000
1001
0000
,  // measure 26
0011
0000
1001
0000
,  // measure 27
2000
0000
3010
1000
0200
0000
0320
0000
,  // measure 28
0032
0000
0003
0000
0011
0000
0000
1001
,  // measure 29
0000
1000
1100
0000
,  // measure 30
1010
0000
0110
0000
,  // measure 31
0002
0000
0103
0001
2000
0000
3020
0000
,  // measure 32
2030
0000
3000
0000
0000
0100
0000
0010
,  // measure 33
0000
0001
0000
0000
2000
0000
3020
0000
,  // measure 34
1030
0001
0000
0000
0000
0010
0000
0100
,  // measure 35
0000
1000
0000
0000
0002
0000
0203
0000
,  // measure 36
0301
0000
0000
0000
0000
1000
0000
0010
,  // measure 37
0000
1000
0000
0000
0001
0000
0010
0000
,  // measure 38
0001
0010
0000
0000
0001
0000
0000
1000
,  // measure 39
0000
0000
0010
1000
0000
0000
0100
0000
,  // measure 40
0010
0000
0000
0000
0000
0100
0000
1000
,  // measure 41
0000
0100
0000
0000
0010
0000
0001
0000
,  // measure 42
0000
1000
0000
0000
0000
0001
0000
0100
,  // measure 43
0000
0001
0000
0000
1000
0010
1000
0000
,  // measure 44
0001
0000
0000
0000
0000
0010
0000
0100
,  // measure 45
0000
1000
0000
0000
0001
0000
0100
0000
,  // measure 46
0001
1000
0000
0000
0000
0100
0000
0010
,  // measure 47
0000
0001
0010
0100
1000
0000
0001
0000
,  // measure 48
1001
0002
0103
0020
,  // measure 49
1030
0200
0310
0002
,  // measure 50
1003
0200
0310
0002
,  // measure 51
0023
0000
0130
0010
0002
0000
2003
0000
,  // measure 52
3100
0000
0010
0000
0001
0000
0000
1000
,  // measure 53
0000
0000
0010
1000
0010
0000
0200
0000
,  // measure 54
0301
0000
0010
0000
0100
0000
0000
1000
,  // measure 55
0020
0000
1030
0100
0020
0000
0032
0000
,  // measure 56
2003
3000
0000
0000
;

//---------------dance-single - ----------------
#NOTES:
     dance-single:
     X-Scale 10:
     Medium:
     7:
     0.418651,0.484835,0.152105,0.405614,0.045632,289.000000,274.000000,15.000000,40.000000,0.000000,0.000000,0.418651,0.484835,0.152105,0.405614,0.045632,289.000000,274.000000,15.000000,40.000000,0.000000,0.000000:
// measure 0
0000
0000
0000
0000
,  // measure 1
0000
0000
0000
0000
,  // measure 2
0000
0000
0000
0000
,  // measure 3
0000
0000
0000
0000
,  // measure 4
2000
0000
0000
0000
0000
3020
0000
2030
,  // measure 5
0000
3002
0000
0003
0001
0010
0001
0010
,  // measure 6
0000
0200
0000
0000
0000
1300
0100
0020
,  // measure 7
0000
0000
0000
0032
0000
0000
1000
1003
,  // measure 8
1001
0001
1000
1000
,  // measure 9
1100
0000
1000
0000
0001
0100
0001
0000
,  // measure 10
0010
0100
1000
0000
0010
0000
1000
0100
,  // measure 11
0010
0000
0001
0000
1000
0000
0010
1000
,  // measure 12
0001
0100
0001
0000
0101
0100
0000
0001
,  // measure 13
0000
1000
0100
0010
0001
0000
2000
0000
,  // measure 14
3010
1000
0001
0000
1001
0000
0001
1000
,  // measure 15
0020
0230
2300
3200
,  // measure 16
0310
1000
0001
0000
0100
0000
0001
0000
,  // measure 17
1000
0000
0100
0010
0001
0000
1000
0000
,  // measure 18
0020
0000
0001
0000
0130
0010
0100
0001
,  // measure 19
0000
1000
0000
0010
1000
0100
2000
0000
,  // measure 20
0010
0000
3001
0000
1000
0100
0020
0000
,  // measure 21
1000
0000
0031
0000
0010
0001
0200
0000
,  // measure 22
1000
0000
0310
0000
0100
0010
2000
0000
,  // measure 23
0002
3000
1003
0100
0020
0000
0032
0000
,  // measure 24
0103
0000
0000
0000
0010
0000
0000
0000
0110
0000
0000
1000
0000
0000
0000
0000
,  // measure 25
0001
0000
0000
0000
0001
0000
0100
0000
0001
0000
0000
1000
0000
0000
0000
0000
,  // measure 26
1001
0000
0000
0000
1000
0000
0000
0000
1100
0000
0000
0100
0000
0000
0000
0000
,  // measure 27
0010
0000
0100
1000
0001
0000
0020
0000
,  // measure 28
0130
0000
0010
0000
0100
0000
0000
0000
1001
0000
0000
0001
0000
0000
0000
0000
,  // measure 29
0100
0000
0000
0000
0001
0000
0010
0000
0001
0000
0000
1000
0000
0000
0000
0000
,  // measure 30
0100
0000
0010
0000
0100
0000
0000
0000
1010
0000
0000
1000
0000
0000
0000
0000
,  // measure 31
0001
0000
0100
0001
1000
0000
0001
0000
,  // measure 32
1001
0000
1000
0000
0010
1000
0000
0001
,  // measure 33
0000
0100
0010
0100
0002
0000
0023
0000
,  // measure 34
0031
0100
0000
0000
1001
1000
0000
0010
,  // measure 35
1000
0001
1000
0000
0200
0000
0320
0000
,  // measure 36
0031
0010
0001
0000
0101
0001
0000
1000
,  // measure 37
0000
0010
0000
1000
0001
0000
0100
0001
,  // measure 38
1000
0100
0010
0000
0001
0100
0001
0000
,  // measure 39
0010
0100
1000
0001
0200
0000
0302
0000
,  // measure 40
1003
0000
0010
0000
1000
0000
0001
0010
,  // measure 41
2000
0000
3010
0100
2000
0000
3002
0000
,  // measure 42
0203
0000
1000
0000
0310
0100
0001
0000
,  // measure 43
1000
0000
0100
0010
0001
0000
2000
0000
,  // measure 44
0100
0000
3001
0000
0010
0100
2000
0000
,  // measure 45
0010
0000
3001
0000
0010
0001
2000
0000
,  // measure 46
0001
0000
3100
0000
0001
0010
0100
0000
,  // measure 47
0200
0000
0310
0100
2000
0000
3002
0000
,  // measure 48
1003
0100
0010
0100
0001
0100
0010
0100
,  // measure 49
1000
0010
0001
0010
1000
0010
0001
0010
,  // measure 50
1000
0100
0010
0100
1000
0100
0010
0100
,  // measure 51
1000
0010
0100
0001
0010
1000
0010
0001
,  // measure 52
1000
0000
1000
0000
1000
0000
0000
0000
1001
0000
0000
0001
0000
0000
0011
0000
,  // measure 53
0010
0000
0000
0000
0001
0000
1000
0000
0001
0000
0100
0010
0000
0000
0000
0000
,  // measure 54
1000
0000
1000
0000
1000
0000
0000
0000
1010
0000
0000
0010
0000
0000
1000
0000
,  // measure 55
0001
0000
0100
0001
2000
0000
3002
0000
,  // measure 56
2003
3000
0000
0000
;

//---------------dance-single - ----------------
#NOTES:
     dance-single:
     X-Scale 16:
     Hard:
     11:
     0.627253,0.941151,0.395473,0.354912,0.324491,433.000000,394.000000,39.000000,35.000000,0.000000,0.000000,0.627253,0.941151,0.395473,0.354912,0.324491,433.000000,394.000000,39.000000,35.000000,0.000000,0.000000:
// measure 0
0000
0000
0000
0000
,  // measure 1
0000
0000
0000
0000
,  // measure 2
0000
0000
0000
0000
,  // measure 3
0000
0000
0000
0000
,  // measure 4
0000
1000
1000
1000
0001
0001
0001
1000
,  // measure 5
0100
0010
0001
0000
0001
0010
0100
1000
,  // measure 6
0000
0010
0010
0010
1000
1000
1000
0001
,  // measure 7
0100
0010
1000
0000
1000
0010
0100
0001
,  // measure 8
0101
0000
0001
1000
0040
0030
0040
0030
,  // measure 9
1010
0001
1000
0000
0010
1000
0001
0100
,  // measure 10
0001
0010
0100
0000
1000
0000
0010
0100
,  // measure 11
2000
0000
0000
0000
3200
0000
0000
0000
0302
0000
0000
0000
1003
0000
1000
0010
,  // measure 12
1000
0000
0000
0001
0000
0000
0001
0000
0000
0040
0000
0000
0130
0000
0000
1000
0100
1000
0100
0000
0000
1100
0000
0000
,  // measure 13
1000
0000
0001
0000
0100
0000
0001
0000
0001
0000
0000
1000
0040
0000
0000
0000
,  // measure 14
0130
0001
0001
0000
0101
0000
0000
0011
,  // measure 15
0002
0023
0230
4300
,  // measure 16
3000
1000
0200
0000
0302
0000
1003
0010
,  // measure 17
0002
0000
1003
0010
0200
0000
0302
0000
,  // measure 18
0013
0100
0001
0100
1000
0001
0100
1000
,  // measure 19
0001
0000
0010
0000
1000
0000
0001
0000
1000
0000
0001
1000
0001
0200
0000
0000
,  // measure 20
0010
0000
0010
0000
0301
0000
0001
0000
1000
0000
0100
0010
0100
2000
0100
0000
,  // measure 21
0001
0000
0001
0000
3010
0000
0010
0000
1000
0000
0010
1000
0001
1000
0000
0000
,  // measure 22
0001
1000
0001
1000
0001
1000
0001
1000
0010
0100
0010
0100
0010
0100
0010
0100
,  // measure 23
0001
0010
0001
0010
0001
0010
0001
0010
0100
1000
0100
1000
0100
1000
0100
1000
,  // measure 24
0001
0000
0010
0000
0010
0000
0000
0000
1001
0000
0100
0001
0000
0000
0101
0000
,  // measure 25
0100
0000
0010
0000
1000
0000
0001
0000
0010
0000
0100
1000
0000
0000
0000
0000
,  // measure 26
1100
0000
0001
0000
1000
0000
0000
0000
1001
0000
0100
0001
0000
0000
0101
0000
,  // measure 27
0200
0000
0301
0010
0200
0000
4300
0000
,  // measure 28
3100
0000
0100
0000
0100
0000
0000
0000
1001
0000
0001
0010
0000
0000
0011
0000
,  // measure 29
0010
0000
0001
0000
1000
0000
0010
0000
0100
0000
0001
0010
0400
0000
0000
0000
,  // measure 30
0310
0000
0010
0000
0010
0000
0000
0000
1001
0000
0100
1000
0000
0000
1100
0000
,  // measure 31
2000
0000
3001
0010
0002
0000
4003
0000
,  // measure 32
3020
0000
0031
0010
0200
0000
0302
0000
,  // measure 33
0023
0000
1030
0010
0002
0000
0203
0000
,  // measure 34
0310
0100
0001
0010
0011
0000
1010
1000
,  // measure 35
0010
1000
0001
0000
1002
0000
4003
0001
,  // measure 36
3001
1000
1000
0100
1000
0001
0100
0101
,  // measure 37
0001
0100
0010
0000
1000
0100
0000
0000
1001
0000
0000
0000
0004
1000
0000
0000
,  // measure 38
1003
0010
0001
0000
1000
0100
0001
0101
,  // measure 39
0001
1000
0010
1000
0002
0000
0043
0000
,  // measure 40
0030
0001
2000
0000
3020
0000
1030
0001
,  // measure 41
0200
0000
0310
0100
2000
0000
3200
0000
,  // measure 42
0301
0100
0010
1000
0100
0001
0100
0010
,  // measure 43
0001
0000
1000
0000
0001
0000
0010
0000
0100
0000
1000
0001
0100
0002
0000
0000
,  // measure 44
1000
0000
1000
0000
0013
0000
0010
0000
0001
0000
0010
0100
0010
0002
0010
0000
,  // measure 45
1000
0000
1000
0000
0013
0000
0010
0000
0001
0000
0001
1000
0100
1000
0000
0000
,  // measure 46
0001
1000
0001
1000
0001
1000
0001
1000
0100
0010
0100
0010
0100
0010
0100
0010
,  // measure 47
0001
0100
0001
0100
0001
0100
0001
0100
0010
1000
0010
1000
0010
1000
0010
1000
,  // measure 48
0001
0000
0010
0000
1000
0000
0010
0000
0011
0000
0000
0101
0000
0000
1001
0000
,  // measure 49
1001
0000
1000
0000
0010
0000
0100
0000
0110
0000
0000
1001
0000
0000
1010
0000
,  // measure 50
1010
0000
1000
0000
0001
0000
0010
0000
0011
0000
0000
0110
0000
0000
1100
0000
,  // measure 51
1100
0000
0100
0000
1000
0000
0001
0000
1001
0000
0000
0110
0000
0000
0101
0000
,  // measure 52
0101
0000
0001
0000
0001
0000
0000
0000
1001
0000
1000
0100
0000
0000
1000
0000
,  // measure 53
0001
0000
0000
0000
0011
0000
0010
0000
0100
0000
1000
0100
4000
0000
0000
0000
,  // measure 54
3001
0000
0001
0000
0001
0000
0000
0000
0101
0000
0001
1000
0000
0000
0001
0000
,  // measure 55
0020
0000
1030
0010
0002
0000
4003
0000
,  // measure 56
3020
0030
0000
0000
;
