#TITLE:Spinning Around;
#SUBTITLE:;
#ARTIST:Kylie Minogue;
#TITLETRANSLIT:;
#SUBTITLETRANSLIT:;
#ARTISTTRANSLIT:;
#GENRE:Disco Pop;
#CREDIT:;
#BANNER:Spinning Around-bn.png;
#BACKGROUND:Spinning Around-bg.png;
#LYRICSPATH:;
#CDTITLE:cdtitle.png;
#MUSIC:Spinning Around.ogg;
#OFFSET:-0.008000;
#SAMPLESTART:16.007999;
#SAMPLELENGTH:16.000000;
#SELECTABLE:YES;
#BPMS:0.000000=120.000000
;
#STOPS:
;
#BGCHANGES:0.000=Spinning Around.avi=1.000=1=0=0=StretchNoLoop==CrossFade==,
99999=-nosongbg-=1.000=0=0=0 // don't automatically add -songbackground-
;
#KEYSOUNDS:;
#ATTACKS:;

//---------------dance-single - ----------------
#NOTES:
     dance-single:
     X-Scale 11:
     Hard:
     8:
     0.392079,0.403212,0.203300,0.237184,0.000000,324.000000,300.000000,24.000000,28.000000,0.000000,0.000000,0.392079,0.403212,0.203300,0.237184,0.000000,324.000000,300.000000,24.000000,28.000000,0.000000,0.000000:
0000
0000
0000
0000
,
0000
0000
0000
0000
,
0000
0000
0000
0000
,
0000
0000
0000
0000
,
2000
0000
0000
0200
,
3000
0300
0000
0000
,
0020
0000
0000
0000
,
0032
0000
0000
0000
0100
0100
1000
1003
,
1001
0000
1000
0000
0001
0100
1000
0020
,
0001
0000
0130
0010
0001
1000
0010
0200
,
1000
0000
0301
0000
0100
0010
1000
0001
,
0010
0100
0010
0001
1000
0010
0100
0000
,
0110
0000
0010
1000
0100
0001
0010
2000
,
0100
0000
3001
0000
1000
0010
0100
0002
,
1000
0000
0013
0000
0100
1000
0001
0100
,
1000
0100
0001
0010
0100
1000
0001
0000
,
1001
1000
0001
0100
0000
0010
1000
0001
,
0100
0000
0010
0100
0001
0010
0100
0010
,
0001
0000
1000
0010
0100
0010
0001
0010
,
1000
1100
0101
1100
,
1000
0001
1000
0100
0010
0000
0100
1000
,
0001
0100
0010
0000
1000
0100
0010
0001
,
0200
0000
0301
0100
1000
0100
0001
1000
,
0001
0000
1100
0000
0101
0000
1100
2000
,
0000
3100
0010
0001
0000
0100
0001
1000
,
0010
1000
0001
0010
1000
0000
0010
0100
,
1000
0000
0001
0010
1000
0010
0001
0200
,
0001
0300
0101
0000
1100
0000
0101
0000
,
0001
0100
0010
1000
0100
0010
0001
0000
,
1000
0001
0100
0001
1000
0000
0100
0010
,
0100
0000
1000
0010
0001
0010
1000
0002
,
0100
0000
0000
0000
0000
2000
3003
0000
,
1001
0000
1000
0000
0001
0100
1000
0020
,
0001
0000
0130
0010
0001
0100
0010
0200
,
1000
0000
0301
0000
0100
0010
1000
0001
,
0010
0100
1000
0001
0100
0001
1000
0000
,
1100
0000
1000
0001
0100
1000
0010
0002
,
0100
0000
1003
0000
0010
0100
0001
0020
,
1000
0000
0031
0000
0010
0001
1000
0100
,
0001
0100
1000
0010
0001
0010
1000
0000
,
1020
0000
0001
0000
1030
0010
0100
0010
,
1000
0000
0100
0010
0001
1000
0001
0000
,
0200
0000
0010
0000
0301
0100
1000
0100
,
0001
1000
0101
1100
,
0101
0100
0010
0100
0001
0000
0010
0100
,
1000
0001
0100
0010
1000
0100
0020
0000
,
0032
0000
0100
0000
0013
0000
0001
0010
,
0100
1000
1100
0000
0101
0000
1100
0000
,
1000
0001
0100
0001
0000
0010
0100
1000
,
0000
0001
1000
0000
0100
0010
0002
0000
,
2003
0000
3010
1000
0000
0001
0010
0100
,
0000
0010
0001
0000
1000
0100
0020
0000
,
0032
0000
0003
0000
1000
0100
0001
0020
,
1000
0000
0130
0000
0010
1000
0002
0000
,
0023
0000
0130
1000
0000
0001
0100
0010
,
0000
1000
0001
0000
0101
0000
1100
0000
,
0101
0000
0000
0000
;

//---------------dance-single - ----------------
#NOTES:
     dance-single:
     X-Scale 9:
     Medium:
     6:
     0.358196,0.379494,0.186359,0.254125,0.008471,296.000000,274.000000,22.000000,30.000000,0.000000,0.000000,0.358196,0.379494,0.186359,0.254125,0.008471,296.000000,274.000000,22.000000,30.000000,0.000000,0.000000:
0000
0000
0000
0000
,
0000
0000
0000
0000
,
0000
0000
0000
0000
,
0000
0000
0000
0000
,
0011
0000
0000
2000
,
0000
3000
0000
0000
,
0110
0000
0000
0000
,
2000
0000
0001
0100
,
3001
0000
1000
0000
0001
0100
1000
0100
,
0001
0000
1000
0000
0001
0100
1000
0100
,
0001
0000
1000
0000
0010
0100
0010
0000
,
1000
0001
1000
0000
0100
0010
0001
0000
,
0020
0000
0130
0000
1000
0010
0001
0010
,
1000
0000
0001
0000
1000
0100
0001
0100
,
1000
0000
0001
0000
0100
0010
0100
0000
,
0001
0010
0001
0000
1000
0001
0100
0000
,
0202
0303
0001
0100
0000
0010
0100
0001
,
0000
1000
0100
0020
0000
0000
0230
0000
,
1300
0000
0001
0000
0100
0010
1000
0002
,
0010
0000
0100
0003
0011
0000
1100
0000
,
0011
0000
0001
0010
1000
0010
0001
0010
,
0000
0100
1000
0002
0000
0000
0203
0000
,
0310
0000
0100
0000
0001
0010
0100
2000
,
0001
0000
0010
0000
3001
0000
1000
0200
,
0000
0310
0100
1000
0000
0001
0100
0010
,
0000
0100
0000
0000
0001
0000
1000
0000
0100
0000
0000
0000
0100
0000
0010
0000
,
0001
0000
0100
0000
0001
0010
1000
0100
,
0001
1000
1001
0110
,
1001
0000
1000
0001
0100
0001
1000
0100
,
0000
0010
0000
0000
0001
0000
1000
0000
0020
0000
0000
0000
0230
0000
0000
0000
,
0301
0000
0100
0010
1000
0100
0010
0002
,
0000
0000
0000
0000
0003
0002
0003
0000
,
0011
0000
0010
0000
0001
0100
1000
0010
,
0001
0000
1000
0000
0001
0100
1000
0010
,
0001
0000
1001
0000
1000
0010
0100
0010
,
0001
0010
0100
0010
1000
0001
0020
0000
,
0230
0000
0310
0001
1000
0100
0001
0010
,
1000
0000
0001
0000
1000
0010
0001
0100
,
1000
0000
1001
0000
0001
0100
0010
1000
,
0100
0001
0100
1000
0010
0100
0002
0000
,
2003
0000
0001
0000
3100
1000
0001
0000
,
0100
0001
1000
0000
0100
0010
0002
0000
,
2003
0000
0010
0000
3001
0000
1000
0020
,
0001
0100
1030
1010
,
1000
0001
0010
0002
1000
0000
0013
0001
,
0000
1000
0010
0100
0010
1000
0002
0000
,
2003
0000
0100
0000
3001
0000
0010
0200
,
1000
0310
0110
1001
,
0110
0000
0100
0001
1000
0000
0100
0010
,
0001
0000
1000
0001
0100
0000
0010
0100
,
0001
0000
0010
0100
1000
0000
0100
0010
,
0001
0000
1000
0001
0011
0000
1100
0000
,
0011
0000
0001
0000
1000
0010
0100
0020
,
0001
0000
1030
0000
0100
0010
0002
0000
,
2003
0000
3010
0000
1000
0001
0100
0000
,
0010
0100
0001
0000
0101
0000
1010
0000
,
0101
0000
0000
0000
;

//---------------dance-single - ----------------
#NOTES:
     dance-single:
     X-Scale 5:
     Easy:
     3:
     0.246865,0.284620,0.033883,0.127063,0.000000,204.000000,200.000000,4.000000,15.000000,0.000000,0.000000,0.246865,0.284620,0.033883,0.127063,0.000000,204.000000,200.000000,4.000000,15.000000,0.000000,0.000000:
0000
0000
0000
0000
,
0000
0000
0000
0000
,
0000
0000
0000
0000
,
0000
0000
0000
0000
,
0001
0000
0000
0000
,
0000
0000
0000
0000
,
1000
0000
0000
0000
,
0001
0000
0000
0000
,
1001
1000
0010
0100
,
0001
1000
0010
0100
,
0001
0010
0100
1000
,
0001
0010
0100
1000
,
0001
0100
0010
1000
,
0001
0100
0010
1000
,
0100
0010
0001
1000
,
0100
0010
0001
1000
,
1001
0000
0001
0100
0000
0010
0000
1000
,
0000
0100
0010
0002
0000
0000
0203
0000
,
0310
0000
1000
0000
0001
0000
1000
0200
,
0010
1300
0001
1000
,
0001
0000
0100
0000
0010
0100
0010
2000
,
0000
3200
0000
0320
0000
0000
0032
0000
,
1003
0000
0001
0000
0010
0000
0100
2000
,
0001
0000
0010
0000
3001
0000
1000
0200
,
0000
0310
0100
1000
0001
0000
1000
0000
,
0001
0000
0010
0100
1000
0000
0001
0000
,
1000
0000
0100
0000
0010
0000
0100
1000
,
0001
1000
0001
1000
,
0100
0000
0010
0100
1000
0000
0001
0000
,
1000
0000
0010
1000
0001
0000
0010
0000
,
0100
0000
1000
0000
0001
0100
0010
0000
,
2000
0000
0000
0000
0000
0000
0000
3000
,
1001
1000
0010
0100
,
0001
1000
0010
0100
,
0001
0010
0100
1000
,
0001
0010
0100
1000
,
0001
0100
0010
1000
,
0001
0100
0010
1000
,
0100
0010
0001
1000
,
0100
0010
0001
1000
,
1002
0000
0000
0000
0013
0000
0000
0100
,
0000
0010
0001
1000
0001
0000
0010
0000
,
0200
0000
1300
0002
,
0000
0103
0001
1000
,
0001
0010
0100
0010
,
0001
0000
1000
0000
0010
1000
0001
0000
,
0200
0000
0310
2000
,
0000
3001
1000
0001
,
1000
0000
0000
0100
0000
0010
0000
0100
,
0000
0010
0000
0000
0001
1000
0010
0000
,
1000
0000
0000
0010
0000
0100
0000
0010
,
0000
0100
0000
0000
0001
0100
0001
0000
,
1000
0000
0000
0100
0000
0010
0000
0100
,
0000
0010
0000
0000
0001
1000
0010
0000
,
0100
0000
0000
0010
0000
0100
0000
0010
,
0000
0100
0000
0000
0001
0000
1000
0000
,
0001
0000
0000
0000
;

//---------------dance-single - ----------------
#NOTES:
     dance-single:
     X-Scale 2:
     Beginner:
     1:
     0.122222,0.142310,0.000000,0.000000,0.000000,101.000000,101.000000,0.000000,0.000000,0.000000,0.000000,0.122222,0.142310,0.000000,0.000000,0.000000,101.000000,101.000000,0.000000,0.000000,0.000000,0.000000:
0000
0000
0000
0000
,
0000
0000
0000
0000
,
0000
0000
0000
0000
,
0000
0000
0000
0000
,
1000
0000
0000
0000
,
0000
0000
0000
0000
,
0001
0000
0000
0000
,
0000
0000
0000
0000
,
1000
0000
0100
0000
,
0001
0000
0010
0000
,
1000
0000
0001
0000
,
0100
0000
0001
0000
,
1000
0000
0010
0000
,
0001
0000
0100
0000
,
1000
0000
0001
0000
,
0100
0000
0001
0000
,
0000
1000
0000
0100
,
0000
0010
0000
0001
,
0000
1000
0000
0100
,
0000
0010
0000
0001
,
0000
1000
0000
0010
,
0000
0100
0000
0001
,
0000
1000
0000
0010
,
0000
0100
0000
0001
,
0000
1000
0000
0100
,
0000
0010
0000
0001
,
0000
0100
0000
0010
,
0000
1000
0000
0001
,
0000
1000
0000
0001
,
0000
0100
0000
0001
,
0000
0010
0000
0100
,
0000
0000
0000
0000
,
1000
0000
0100
0000
,
0001
0000
0010
0000
,
1000
0000
0001
0000
,
0100
0000
0001
0000
,
1000
0000
0010
0000
,
0001
0000
0100
0000
,
1000
0000
0001
0000
,
0100
0000
0001
0000
,
1000
0000
0100
0000
,
1000
0000
0100
0000
,
0010
0000
0001
0000
,
0010
0000
0001
0000
,
1000
0000
0010
0000
,
1000
0000
0010
0000
,
0100
0000
0001
0000
,
0100
0000
0001
0000
,
1000
0000
0000
0100
0000
0000
0000
0100
,
0000
0000
0001
0010
,
0001
0000
0000
0100
0000
0000
0000
0100
,
0000
0000
1000
0100
,
1000
0000
0000
0010
0000
0000
0000
0010
,
0000
0000
0001
0100
,
0001
0000
0000
0010
0000
0000
0000
0010
,
0000
0000
1000
0100
,
1000
0000
0000
0000
;

//---------------dance-single - ----------------
#NOTES:
     dance-single:
     X-Scale 13:
     Challenge:
     9:
     0.493729,0.474367,0.169417,0.152475,0.160946,408.000000,388.000000,20.000000,18.000000,0.000000,0.000000,0.493729,0.474367,0.169417,0.152475,0.160946,408.000000,388.000000,20.000000,18.000000,0.000000,0.000000:
// measure 0
0000
0000
0000
0000
,  // measure 1
0000
0000
0000
0000
,  // measure 2
0000
0000
0000
0000
,  // measure 3
0000
0000
0000
0000
,  // measure 4
1000
0000
0100
1000
0000
0000
0001
0000
0010
0001
0000
0000
1000
0000
0001
0000
,  // measure 5
1000
0000
0100
0010
0000
0000
0001
0000
0100
0001
0000
0000
0010
0100
0000
0000
,  // measure 6
1000
0000
0100
1000
0000
0000
0001
0000
0010
0001
0000
0000
1000
0000
0001
1000
,  // measure 7
0001
0000
0010
0100
1000
0000
0000
0001
0010
0000
0010
0000
0001
0000
0001
0000
,  // measure 8
0011
0000
0000
0001
0010
0000
0100
0000
1000
0000
0010
0000
0001
0000
0100
0000
,  // measure 9
1000
0000
0100
0010
0100
0000
1000
0000
0001
0000
0010
0000
0100
0000
2000
0000
,  // measure 10
0001
0000
3010
0000
1000
0100
0010
1000
,  // measure 11
0010
0001
0100
1000
0100
0001
0020
0000
,  // measure 12
0130
0000
0000
0010
0001
0000
1000
0000
0100
0000
0001
0000
0010
0000
1000
0000
,  // measure 13
0001
0000
0100
0010
0100
0000
0001
0000
0010
0000
1000
0000
0010
0000
0002
0000
,  // measure 14
0100
0000
1003
0000
0100
0010
0001
1000
,  // measure 15
0100
0100
0100
0010
0001
0100
0010
1000
,  // measure 16
0001
0010
0100
2000
0000
3100
0010
0002
,  // measure 17
0000
1003
0001
0100
0010
0100
0110
0000
,  // measure 18
1001
0000
1000
0000
0100
0000
0010
0100
0010
0000
0001
0000
1000
0000
0001
0000
,  // measure 19
0100
0010
0110
0000
1100
0000
0011
0000
,  // measure 20
0101
0001
1000
0100
0001
0100
0010
0001
,  // measure 21
0100
1000
0100
0020
0001
0000
1030
0001
,  // measure 22
1000
0000
0100
0000
0010
0000
0001
0010
0001
0000
0100
0000
0010
0000
0100
0000
,  // measure 23
0001
0000
0000
0010
0100
0000
0000
0010
0001
0000
0000
1000
0010
0000
1000
0000
,  // measure 24
0001
0100
0010
0100
0001
0010
0100
1000
,  // measure 25
0000
0001
0000
0000
1000
0000
0100
0000
0020
0000
0000
0000
1030
0000
0010
0000
,  // measure 26
0001
0000
0100
0001
0000
0000
0010
0000
0100
1000
0000
0000
0001
0000
1000
0000
,  // measure 27
0001
0000
0010
0100
0000
0000
1000
0000
0010
1000
0000
0000
0100
0000
0010
0000
,  // measure 28
0001
0100
1000
0100
0001
0010
0100
1000
,  // measure 29
0000
0001
0000
0000
0100
0000
0010
0000
2000
0000
0000
0000
3001
0000
0010
0000
,  // measure 30
0100
0000
1000
0100
0000
0000
1000
0000
0001
0100
0000
0000
0010
0000
1000
0010
,  // measure 31
1000
0000
0001
0010
0100
0000
0000
0100
1000
0000
0001
0000
0100
0000
0001
0000
,  // measure 32
1001
0000
0000
1000
0100
0000
1000
0000
0001
0000
0100
0000
1000
0000
0010
0000
,  // measure 33
0001
0000
0100
0010
0100
0000
0001
0000
0010
0000
0100
0000
1000
0000
0002
0000
,  // measure 34
0010
0000
1003
0000
0100
0010
0001
1000
,  // measure 35
0100
0001
0100
1000
0010
0100
0001
0000
,  // measure 36
0101
0000
0000
0100
0010
0000
0100
0000
0001
0000
0010
0000
1000
0000
0100
0000
,  // measure 37
0001
1000
0100
0010
0001
0010
0100
2000
,  // measure 38
0001
0000
3010
0000
1000
0001
0100
0010
,  // measure 39
1000
0001
0010
0100
0010
0001
0020
0000
,  // measure 40
0230
0000
1000
0000
0301
0100
1000
0001
,  // measure 41
0000
0100
0010
0100
0001
0010
0200
0000
,  // measure 42
2300
0000
0001
0001
3000
1000
0001
0010
,  // measure 43
0100
1000
0001
0000
1000
0010
1000
0002
,  // measure 44
0013
0000
0100
0000
1000
0000
0001
1000
0001
0000
0010
0000
0100
0000
0010
0000
,  // measure 45
0001
1000
0010
0100
0010
0001
0010
2000
,  // measure 46
3001
0000
0010
0000
0100
0000
1000
0100
1000
0000
0001
0000
0010
0000
0100
0000
,  // measure 47
0010
0001
0011
0000
1001
0000
1010
2000
,  // measure 48
3001
0010
0100
1000
0000
0001
1000
0100
,  // measure 49
0000
0010
0100
1000
0001
0100
0010
0100
,  // measure 50
0001
0000
0010
0000
0100
0000
1000
0100
1000
0000
0001
0100
0000
0010
0100
0000
,  // measure 51
0001
1000
1001
0000
0110
0000
1100
0000
,  // measure 52
0101
0100
0010
1000
0100
0001
0100
0020
,  // measure 53
0001
0000
0130
0000
0010
0001
1000
0001
,  // measure 54
0010
0100
0010
0001
0000
1000
0100
0001
,  // measure 55
0100
1000
1100
0000
0101
0000
0011
0000
,  // measure 56
1010
0000
0000
0000
;
