#VERSION:0.83;
#TITLE:Spectrum feat. Matthew Koma;
#SUBTITLE:;
#ARTIST:Zedd;
#TITLETRANSLIT:;
#SUBTITLETRANSLIT:;
#ARTISTTRANSLIT:;
#GENRE:Electro House;
#ORIGIN:;
#CREDIT:;
#BANNER:Spectrum-bn.png;
#BACKGROUND:Spectrum-bg.png;
#PREVIEWVID:;
#JACKET:Spectrum-jacket.png;
#CDIMAGE:;
#DISCIMAGE:;
#LYRICSPATH:;
#CDTITLE:cdtitle.png;
#MUSIC:Spectrum.ogg;
#OFFSET:-0.007000;
#SAMPLESTART:76.622002;
#SAMPLELENGTH:14.769000;
#SELECTABLE:YES;
#DISPLAYBPM:65.000000:130.000000;
#BPMS:0.000=65.000,
51.000=130.000,
83.000=65.000,
91.000=130.000,
103.000=65.000,
104.500=260.000,
113.000=130.000,
177.000=65.000;
#STOPS:112.500=0.346;
#DELAYS:;
#WARPS:104.500=8.000;
#TIMESIGNATURES:0.000=4=4;
#TICKCOUNTS:0.000=4;
#COMBOS:0.000=1;
#SPEEDS:0.000=1.000=0.000=0;
#SCROLLS:0.000=1.000;
#FAKES:;
#LABELS:0.000=Song Start;
#BGCHANGES:;
#KEYSOUNDS:;
#ATTACKS:
;

//---------------dance-single - ----------------
#NOTEDATA:;
#CHARTNAME:X-Scale 12;
#STEPSTYPE:dance-single;
#DESCRIPTION:;
#CHARTSTYLE:;
#DIFFICULTY:Hard;
#METER:8;
#RADARVALUES:0.491025,0.640848,0.096595,0.169041,0.426628,427.000000,415.000000,12.000000,21.000000,0.000000,0.000000,2.000000,0.000000,12.000000,0.491025,0.640848,0.096595,0.169041,0.426628,427.000000,415.000000,12.000000,21.000000,0.000000,0.000000,2.000000,0.000000,12.000000;
#CREDIT:;
#DISPLAYBPM:65.000000:130.000000;
#NOTES:
// measure 0
0000
0000
0000
0000
0000
0000
0000
0000
0000
0000
0000
0000
1000
0100
1000
0100
,  // measure 1
1000
0010
0100
0000
0001
0000
1000
0100
0010
0000
0100
0000
1000
0001
1000
0001
,  // measure 2
1000
0010
0100
0000
0001
0000
0010
0100
1000
0000
0001
0000
0100
0010
0100
0010
,  // measure 3
0100
0001
1000
0000
0100
0000
0010
0001
0100
0000
0001
0010
0000
2000
0000
3020
,  // measure 4
0000
0032
0000
0203
0000
0000
0000
0310
0100
1000
0100
0001
0010
0001
0010
0001
,  // measure 5
0010
0100
1000
0000
0001
0000
1000
0010
0100
0000
0001
0000
1000
0100
1000
0100
,  // measure 6
1000
0010
0001
0000
0010
0000
1000
0100
0010
0000
0001
0000
0100
0010
0100
0010
,  // measure 7
0100
0001
1000
0000
0100
0000
0010
0001
0100
0000
0001
0010
0000
0002
0000
0203
,  // measure 8
0000
0320
0000
2030
0000
0000
0000
3100
1000
0100
0010
0001
0022
0000
0000
0033
,  // measure 9
0001
0010
0100
0010
0001
0000
0010
0000
0000
0000
0001
0000
0000
0000
1000
0000
0000
0000
0100
0000
0000
0000
0000
0000
2200
0000
0000
0000
0000
0300
3100
0000
,  // measure 10
1000
0100
0010
0100
1000
0000
1010
0000
0000
0000
0011
0000
0000
0000
2100
0000
0000
0000
0001
0000
0000
0000
3000
0000
1001
0000
0000
0000
0001
0000
0010
0000
,  // measure 11
1000
0010
0001
1000
0000
0010
1000
0100
0000
0010
0000
0001
0200
0000
0000
0300
,  // measure 12
0001
0100
0010
1100
0000
0101
0000
1001
0000
1000
1000
0000
0001
0000
0010
0000
,  // measure 13
0100
0010
0001
1000
0010
0100
0010
1000
,  // measure 14
0001
0010
0100
0010
0001
1000
0010
0100
,  // measure 15
0010
1000
0100
0010
0001
1000
0010
0100
,  // measure 16
0001
1000
0100
0010
0001
1000
0010
0100
,  // measure 17
0001
0010
0100
0010
0001
1000
0010
0100
,  // measure 18
0010
1000
0001
0010
0100
0010
0001
1000
,  // measure 19
0010
0100
0010
1000
0100
0010
0100
1000
,  // measure 20
0001
0100
0010
0100
0001
1000
1001
0001
,  // measure 21
1000
0001
1000
0100
0010
0100
0010
0001
,  // measure 22
0100
0001
0100
0010
1000
0010
1000
0100
,  // measure 23
0010
0000
0001
0000
1000
0000
0100
0000
0010
0000
0001
0000
1000
0100
1000
0100
,  // measure 24
1000
0010
1000
0010
1000
0100
1000
0100
1000
0010
1000
0010
1000
0100
0010
0001
,  // measure 25
1000
0100
0010
0001
1000
0100
0010
0001
1000
0100
0010
0001
2000
0000
0000
0000
,  // measure 26
0000
3100
1000
0010
1000
0010
1000
0100
,  // measure 27
0010
0001
1000
0001
0100
0000
0000
0000
,  // measure 28
0000
0100
1001
0001
1000
0001
0100
0010
,  // measure 29
0001
0010
0100
0001
0100
0010
1000
0100
,  // measure 30
1000
0100
1000
0001
1000
0001
0010
0100
,  // measure 31
1000
0010
0001
0010
0100
0001
1000
0001
,  // measure 32
1000
0100
0010
0010
0001
0100
0001
0010
,  // measure 33
0100
1000
0010
1000
0100
0040
0001
0000
,  // measure 34
0100
0000
0031
0010
0001
0010
0001
0100
,  // measure 35
0010
1000
0100
1000
0001
0100
0010
0000
,  // measure 36
0100
0000
0000
0000
0110
0000
0000
0000
1000
0000
0000
0000
0010
1000
0010
1000
,  // measure 37
0010
0100
0000
0001
1000
0001
0000
0010
,  // measure 38
0100
0000
0010
0000
0100
0000
0000
0000
1000
0000
0000
0000
0001
0010
0100
1000
,  // measure 39
0001
0100
0000
0001
0010
0001
0000
1000
,  // measure 40
0010
0100
0001
0000
1000
0100
0001
1000
,  // measure 41
0010
0001
0000
1000
0100
0040
0001
0000
,  // measure 42
0100
0000
0031
0010
0001
0010
0100
1000
,  // measure 43
0010
2000
0000
3001
1000
0200
0010
0000
,  // measure 44
0001
0000
0000
0000
0310
0100
1000
0100
1000
0010
0100
0000
0010
0000
0010
1000
,  // measure 45
0001
0000
1000
0000
0100
1000
0010
1000
0001
0100
0010
0000
1000
0000
0001
0010
,  // measure 46
0100
0000
0010
0000
0001
1000
0001
1000
0010
1000
0100
0000
0010
0000
0001
0000
,  // measure 47
0100
0000
0001
0010
0000
0002
0000
2003
0000
3002
0000
2003
0000
0000
3000
0100
,  // measure 48
1000
0010
1000
0100
1000
0000
0000
0000
0000
0000
0000
0000
0000
0000
0000
0000
;

//---------------dance-single - ----------------
#NOTEDATA:;
#CHARTNAME:X-Scale 9;
#STEPSTYPE:dance-single;
#DESCRIPTION:;
#CHARTSTYLE:;
#DIFFICULTY:Medium;
#METER:6;
#RADARVALUES:0.367981,0.407812,0.048298,0.249537,0.209289,320.000000,314.000000,6.000000,31.000000,0.000000,0.000000,0.000000,0.000000,10.000000,0.367981,0.407812,0.048298,0.249537,0.209289,320.000000,314.000000,6.000000,31.000000,0.000000,0.000000,0.000000,0.000000,10.000000;
#CREDIT:;
#DISPLAYBPM:65.000000:130.000000;
#NOTES:
// measure 0
0000
0000
0000
0000
0000
0000
1000
0010
,  // measure 1
1000
0100
0020
0000
0032
0000
0013
0001
0100
0000
0001
0000
0100
0000
0010
0000
,  // measure 2
1000
0001
0200
0000
0320
0000
0031
0010
0100
0000
0001
0000
1000
0000
0001
0000
,  // measure 3
0100
0000
0010
1000
0000
0001
1000
0001
0000
0000
1000
0100
0000
1000
0000
0001
,  // measure 4
0000
1000
0000
0001
0000
0000
0000
0000
0100
0000
0010
0000
0100
0000
0100
0000
,  // measure 5
0001
0010
0100
0000
1000
0000
0001
0010
0100
0000
1000
0000
0001
0000
1000
0000
,  // measure 6
0010
0100
0001
0000
1000
0000
0010
0100
0001
0000
0010
0000
0100
0000
1000
0000
,  // measure 7
0001
0100
0001
0000
0010
0000
0100
0000
1000
0000
0010
1000
0000
0100
0000
0010
,  // measure 8
0000
0100
0000
0010
0000
0000
0000
0000
0002
0000
0000
0000
1003
0000
0000
0000
,  // measure 9
1100
0000
0000
0200
0000
0000
0300
0020
0000
0000
0000
0030
0002
0000
0000
1003
,  // measure 10
1001
0001
1000
0200
0000
2300
0000
3020
0000
0000
0000
0030
0100
0000
0001
0100
,  // measure 11
1000
0100
0001
2000
0000
3000
0010
2000
0000
0000
0000
3000
0200
0000
0000
0310
,  // measure 12
0110
0000
0010
0002
0000
0203
0000
0302
0000
1000
1000
0003
2001
0000
0000
0000
,  // measure 13
0010
0000
0001
0000
3010
1000
0000
0010
,  // measure 14
0000
0100
0000
0001
0010
0001
0200
0000
,  // measure 15
0001
0000
1000
0000
0301
0100
0000
0010
,  // measure 16
0000
0100
0000
0001
1000
0001
0020
0000
,  // measure 17
1000
0000
0100
0000
0031
0010
0000
0001
,  // measure 18
0000
1000
0000
0100
0000
0010
0100
1000
,  // measure 19
0001
1000
0200
0000
0310
0200
1000
0000
,  // measure 20
0301
0200
1000
0000
0010
0000
0310
0100
,  // measure 21
1000
0001
1000
0100
0010
0100
1000
0001
,  // measure 22
1000
0100
0010
0100
1000
0001
1000
0000
,  // measure 23
0010
0100
0010
0000
1000
0100
1000
0000
,  // measure 24
0001
0100
0001
0000
0010
0100
0010
0000
,  // measure 25
0001
0000
1000
0000
0001
1000
0001
1000
0001
1000
0001
1000
0002
0000
0000
0000
,  // measure 26
0000
0013
0011
0000
1000
0000
0010
0100
,  // measure 27
1000
0001
0000
1000
0000
0100
0000
0000
,  // measure 28
0000
0010
0011
0000
0001
0000
1000
0100
,  // measure 29
0010
0001
0000
0100
0000
0001
0010
1000
,  // measure 30
0010
0100
1000
0010
1000
0010
0100
0001
,  // measure 31
0010
0100
0000
0010
0000
0100
1000
0010
,  // measure 32
1000
0100
0010
0000
0001
0100
0010
0100
,  // measure 33
0001
0000
1000
0000
0010
0200
1000
0000
,  // measure 34
0010
0000
0301
0100
0001
0100
0010
0001
,  // measure 35
0010
1000
0000
0100
0000
1000
0010
0000
,  // measure 36
0100
0210
1000
0010
,  // measure 37
0301
0100
0000
0001
0010
0001
0000
1000
,  // measure 38
0010
1000
0200
0000
0001
0000
0010
0000
,  // measure 39
1300
0100
0000
0010
0100
0010
0000
0001
,  // measure 40
1000
0001
0020
0000
1000
0000
0100
0000
,  // measure 41
0031
0010
0000
0001
0100
0020
0001
0000
,  // measure 42
0100
0000
1030
0010
1000
0010
0100
1000
,  // measure 43
0100
0002
0000
0013
0100
2000
0001
0000
,  // measure 44
0100
0000
0000
0000
3001
0000
1000
0000
0100
0010
0001
0000
1000
0000
0100
0010
,  // measure 45
0001
0000
0100
0000
0001
0000
0010
0000
0100
1000
0010
0000
1000
0000
0100
1000
,  // measure 46
0010
0000
1000
0000
0001
0000
0100
0000
0001
0010
0100
0000
1000
0000
0001
0000
,  // measure 47
0100
0000
0001
0100
0000
0010
0000
0001
0000
0010
0000
0100
0000
0000
0000
0000
,  // measure 48
0001
1000
0001
0000
0000
0000
0000
0000
;

//---------------dance-single - ----------------
#NOTEDATA:;
#CHARTNAME:X-Scale 4;
#STEPSTYPE:dance-single;
#DESCRIPTION:;
#CHARTSTYLE:;
#DIFFICULTY:Easy;
#METER:3;
#RADARVALUES:0.247237,0.252455,0.016099,0.305884,0.104645,215.000000,213.000000,2.000000,38.000000,0.000000,0.000000,0.000000,0.000000,7.000000,0.247237,0.252455,0.016099,0.305884,0.104645,215.000000,213.000000,2.000000,38.000000,0.000000,0.000000,0.000000,0.000000,7.000000;
#CREDIT:;
#DISPLAYBPM:65.000000:130.000000;
#NOTES:
// measure 0
0000
0000
0000
1000
,  // measure 1
0010
0100
0010
0000
1000
0001
1000
0000
,  // measure 2
0100
0010
0100
0000
1000
0001
1000
0000
,  // measure 3
0010
0000
0100
0000
0010
0000
0000
0000
1000
0000
0000
0100
0000
1000
0000
0010
,  // measure 4
0000
1000
0000
0010
0000
0000
0000
0000
0000
0000
0000
0000
0001
0000
0000
0000
,  // measure 5
0100
0010
0100
0000
0001
1000
0001
0000
,  // measure 6
0010
0100
0010
0000
0001
1000
0001
0000
,  // measure 7
0100
0000
0010
0000
0100
0000
0000
0000
0001
0000
0000
0010
0000
0001
0000
0100
,  // measure 8
0000
0001
0000
0100
0000
0000
0000
0000
0000
0000
0000
0000
0002
0000
0000
0000
,  // measure 9
1003
0000
0000
0200
0000
0000
0300
0020
0000
0000
0030
0000
2000
0000
0000
0000
,  // measure 10
3010
0000
0000
0100
0000
0010
0000
1000
0000
0001
0000
0000
0020
0000
0000
0000
,  // measure 11
0000
0000
0031
0010
0000
0000
0001
2000
0000
0000
0000
0000
3200
0000
0000
0000
,  // measure 12
0310
0000
0000
0001
0000
0001
0000
0002
0000
0000
0000
0000
1003
0000
0000
0000
,  // measure 13
0100
0010
0001
1000
,  // measure 14
0100
0010
0001
1000
,  // measure 15
0010
0100
0001
1000
,  // measure 16
0010
0100
0001
1000
,  // measure 17
0100
0010
0001
1000
,  // measure 18
0100
0010
0001
1000
,  // measure 19
0010
0100
0001
1000
,  // measure 20
0010
0100
0001
1000
,  // measure 21
0010
1000
0001
0010
,  // measure 22
0001
1000
0100
0010
,  // measure 23
0001
0100
0001
0010
,  // measure 24
0100
0000
1000
0000
0010
0000
1000
0100
,  // measure 25
0010
0001
1000
0100
0010
0001
2000
0000
,  // measure 26
0000
3000
1100
0000
0010
0000
0001
0000
,  // measure 27
0010
1000
0010
0000
,  // measure 28
0000
0000
1100
0000
1000
0000
0010
0100
,  // measure 29
0010
2000
3000
2000
3000
0001
0020
0030
,  // measure 30
0020
0030
0100
0000
0100
0000
1000
0010
,  // measure 31
0100
0002
0003
0002
0003
0100
0020
0030
,  // measure 32
0020
0030
1000
0000
0001
0010
0100
0010
,  // measure 33
0001
0000
1000
0000
0010
2000
0000
0000
,  // measure 34
0000
0000
3001
0000
0001
0000
1000
0100
,  // measure 35
0010
0002
0003
0002
0003
1000
0100
0000
,  // measure 36
0000
0021
0100
0000
,  // measure 37
0130
0020
0030
0002
0003
0200
0300
0002
,  // measure 38
0003
2000
0010
0000
,  // measure 39
3010
2000
3000
0200
0300
2000
3000
0002
,  // measure 40
0003
0200
0010
0000
,  // measure 41
0310
0200
0300
0002
0003
2000
3000
0200
,  // measure 42
0300
0020
0031
0000
0001
0000
1000
0100
,  // measure 43
0010
0002
0000
0103
0010
2000
0000
0000
,  // measure 44
0000
0000
3001
0000
1000
0010
0100
0000
,  // measure 45
0001
0010
0100
0000
1000
0100
0010
0000
,  // measure 46
0001
0100
0010
0000
1000
0001
1000
0000
,  // measure 47
0001
0000
0000
0100
0000
0001
0000
1000
0000
0001
0000
1000
0000
0000
0000
0000
,  // measure 48
0000
1000
0000
0000
;

//---------------dance-single - ----------------
#NOTEDATA:;
#CHARTNAME:X-Scale 2;
#STEPSTYPE:dance-single;
#DESCRIPTION:;
#CHARTSTYLE:;
#DIFFICULTY:Beginner;
#METER:2;
#RADARVALUES:0.136843,0.174777,0.000000,0.120744,0.068421,119.000000,119.000000,0.000000,15.000000,0.000000,0.000000,0.000000,0.000000,1.000000,0.136843,0.174777,0.000000,0.120744,0.068421,119.000000,119.000000,0.000000,15.000000,0.000000,0.000000,0.000000,0.000000,1.000000;
#CREDIT:;
#DISPLAYBPM:65.000000:130.000000;
#NOTES:
// measure 0
0000
0000
0000
1000
,  // measure 1
0100
0010
0001
1000
,  // measure 2
0010
0100
0001
1000
,  // measure 3
0100
0000
0000
0000
0010
0000
0000
0000
0001
0000
0000
0000
0000
1000
0000
0000
,  // measure 4
0000
0000
0000
0100
0000
0000
0000
1000
0000
0000
0000
0000
0001
0000
0000
0000
,  // measure 5
0100
0010
1000
0001
,  // measure 6
0010
0100
1000
0001
,  // measure 7
0100
0000
0000
0000
0010
0000
0000
0000
1000
0000
0000
0000
0000
0001
0000
0000
,  // measure 8
0000
0000
0000
0100
0000
0000
0000
0001
0000
0000
0000
0000
2000
0000
0000
0000
,  // measure 9
3000
0000
0000
0002
0000
0000
0000
0023
0000
0000
0000
0000
0032
0000
0000
0000
,  // measure 10
0003
0000
0000
2000
0000
0000
0000
3200
0000
0000
0000
0000
2300
0000
0000
0000
,  // measure 11
3000
0000
0000
0020
0000
0000
0000
0230
0000
0000
0000
0000
0302
0000
0000
0000
,  // measure 12
2003
0000
0000
3200
0000
0000
0000
2300
0000
0000
0000
0000
3001
0000
0000
0000
,  // measure 13
0000
1000
0000
0001
,  // measure 14
0000
1000
0000
0100
,  // measure 15
0000
0010
0000
0100
,  // measure 16
0000
0010
0000
0001
,  // measure 17
0000
0100
0000
0001
,  // measure 18
0000
0100
0000
0010
,  // measure 19
0000
1000
0000
0010
,  // measure 20
0000
1000
0000
0001
,  // measure 21
0010
0001
0010
0100
,  // measure 22
1000
0100
1000
0001
,  // measure 23
0000
0001
0000
1000
,  // measure 24
0000
1000
0000
0200
,  // measure 25
0000
0000
0000
0300
,  // measure 26
0000
0010
0000
0000
,  // measure 27
0000
0000
0000
0000
,  // measure 28
0000
0010
0000
0100
,  // measure 29
0000
1000
0000
0001
,  // measure 30
0000
1000
0000
0100
,  // measure 31
0000
0010
0000
0001
,  // measure 32
0000
0100
0000
0001
,  // measure 33
0000
0010
0000
0100
,  // measure 34
0000
1000
0000
0010
,  // measure 35
0000
0100
0000
0010
,  // measure 36
0000
1000
0000
0001
,  // measure 37
0000
1000
0000
0001
,  // measure 38
0000
0010
0000
0100
,  // measure 39
0000
0010
0000
0100
,  // measure 40
0000
1000
0000
0100
,  // measure 41
0000
1000
0000
0100
,  // measure 42
0000
0010
0000
0001
,  // measure 43
0000
0010
0000
0001
,  // measure 44
0000
1000
0010
0100
,  // measure 45
0001
1000
0100
0010
,  // measure 46
0001
1000
0010
0100
,  // measure 47
0001
0000
0000
0000
0000
1000
0000
0000
0000
0000
0000
0100
0000
0000
0000
2000
,  // measure 48
0000
3000
0000
0000
;
