#TITLE:Song That Might Play When You Fight (sans.);
#SUBTITLE:;
#ARTIST:Lucky-Foot;
#TITLETRANSLIT:;
#SUBTITLETRANSLIT:;
#ARTISTTRANSLIT:;
#GENRE:Chiptune Rock;
#CREDIT:;
#BANNER:Song That Might Play When You Fight (sans.)-bn.png;
#BACKGROUND:Song That Might Play When You Fight (sans.)-bg.png;
#LYRICSPATH:;
#CDTITLE:cdtitle.png;
#MUSIC:Song That Might Play When You Fight (sans.).ogg;
#OFFSET:-0.005000;
#SAMPLESTART:24.004999;
#SAMPLELENGTH:16.000000;
#SELECTABLE:YES;
#BPMS:0.000000=120.000000
,48.000000=240.000000
,108.000000=120.000000
,110.000000=240.000000
,206.000000=120.000000
,222.000000=240.000000
,250.000000=120.000000
,252.000000=240.000000
,312.000000=120.000000
,314.000000=240.000000
,378.000000=120.000000
;
#STOPS:
;
#BGCHANGES:;
#KEYSOUNDS:;
#ATTACKS:;

//---------------dance-single - ----------------
#NOTES:
     dance-single:
     X-Scale 14:
     Hard:
     10:
     0.766916,1.048838,0.032784,0.409802,0.315548,655.000000,651.000000,4.000000,50.000000,0.000000,0.000000,0.766916,1.048838,0.032784,0.409802,0.315548,655.000000,651.000000,4.000000,50.000000,0.000000,0.000000:
// measure 0
1000
0000
1000
0000
0001
0000
0000
0000
0001
0000
0001
0000
0100
0001
0000
0000
,  // measure 1
1000
0000
1000
0000
0001
0000
0000
0000
0001
0000
0001
0000
0100
0001
0000
0000
,  // measure 2
1000
0000
1000
0000
0001
0000
0000
0000
0001
0000
0001
0000
0100
0001
0000
0000
,  // measure 3
1000
0000
1000
0000
0001
0000
1000
0100
0000
1000
0000
0010
0000
0100
0000
0001
,  // measure 4
0100
0000
0001
0000
0100
0000
0001
0010
0001
0100
0001
0010
0000
0100
1000
0000
,  // measure 5
0001
0000
1000
0000
0001
0000
1000
0100
0000
0010
0000
0100
0000
0010
0000
0010
,  // measure 6
0001
0000
0010
0000
0001
0000
1000
0100
1000
0010
1000
0100
0000
0010
0001
0000
,  // measure 7
1000
0000
0001
0000
1000
0000
0001
0010
0000
0100
0000
0010
0000
0100
0000
0100
,  // measure 8
1000
0000
0001
1000
0001
0000
1000
0010
0100
0010
1000
0010
0000
1000
0001
0000
,  // measure 9
0010
0000
0100
1000
0100
0000
1000
0010
0100
0010
1000
0010
0000
1000
0001
0000
,  // measure 10
0100
0000
0001
0100
0001
0000
1000
0010
0100
0010
1000
0010
0000
1000
0001
0000
,  // measure 11
0010
0000
0100
0010
0100
0000
1000
0010
0100
0010
1000
0010
0000
1000
0001
0000
,  // measure 12
2001
0000
3200
0000
0320
0000
0031
0010
,  // measure 13
0100
0010
0001
0100
0000
0001
1000
0000
,  // measure 14
0020
0000
0230
0000
0302
0000
1003
0001
,  // measure 15
1000
0100
0010
0100
0000
1000
0001
0100
,  // measure 16
0002
0000
0023
0000
0230
0000
1300
0100
,  // measure 17
0010
0100
1000
0010
0000
1000
0001
0000
,  // measure 18
0200
0000
0320
0000
2030
0000
3001
1000
,  // measure 19
0010
0100
0001
0100
0000
0001
1000
0010
,  // measure 20
1000
0000
0001
0010
0100
0000
1000
0010
,  // measure 21
0100
0010
1000
0010
0000
0100
0001
0000
,  // measure 22
1000
0100
0010
0100
1000
0000
0001
0100
,  // measure 23
0010
0100
0001
0100
0000
0001
1000
0001
,  // measure 24
0010
0000
0100
1000
0010
0000
1000
0100
,  // measure 25
0010
0100
1000
0100
0000
0010
0001
0000
,  // measure 26
1000
0010
1000
0100
0010
0000
0001
0100
,  // measure 27
0001
0100
0001
0100
0000
0001
1000
0000
1001
0000
1000
0000
0002
0000
0000
0000
,  // measure 28
0103
0010
0200
0000
0301
0000
0020
0000
,  // measure 29
0130
0010
0200
0000
1300
0100
2000
0000
,  // measure 30
3010
0100
0020
0000
1030
0010
2000
0010
,  // measure 31
3000
1000
0002
0000
1003
0000
0200
0000
,  // measure 32
0310
0100
0020
0000
0031
0000
2000
0000
,  // measure 33
3010
0100
0020
0000
0130
0000
0002
0000
,  // measure 34
1003
0001
2000
0000
3100
0010
0200
0010
,  // measure 35
0300
1000
0002
0000
0013
0000
0002
0000
,  // measure 36
2003
3020
0230
1000
,  // measure 37
0302
0100
0100
0000
2003
0000
3200
0000
,  // measure 38
0320
0001
1000
0032
,  // measure 39
0203
0000
0301
0100
0001
0000
1000
0000
,  // measure 40
0010
1000
0010
0000
0100
0000
0001
0000
,  // measure 41
1000
0001
1000
0000
0100
0000
0010
0000
,  // measure 42
0001
0010
0001
0000
1000
0010
0100
0001
,  // measure 43
0000
1000
0100
0010
0001
0100
0001
1000
,  // measure 44
0001
0100
0001
0010
0200
0000
0001
0000
,  // measure 45
2300
0100
0100
0000
3010
1000
0010
0000
,  // measure 46
1000
0100
1000
0000
0001
0010
0100
1000
,  // measure 47
0000
0001
0100
0010
1000
0000
0001
0000
,  // measure 48
1000
0001
1000
0000
0010
0000
0100
0000
,  // measure 49
0001
0100
0001
0000
1000
0000
0100
0000
,  // measure 50
1000
0001
1000
0000
0001
0010
0100
1000
,  // measure 51
0000
0001
0100
0010
1000
0000
0010
0100
,  // measure 52
0110
0000
0001
0010
0100
1000
0001
1000
,  // measure 53
0000
0001
0100
0100
0010
0001
0010
1000
,  // measure 54
0100
0000
0010
0001
0100
0001
0010
1000
,  // measure 55
0000
0001
0100
1000
0010
1000
0010
0000
,  // measure 56
0100
0010
1000
0000
0001
0000
1000
0000
,  // measure 57
0100
0010
0001
0000
1000
0010
0100
0000
,  // measure 58
0001
0100
0010
0000
1000
0100
0010
0001
,  // measure 59
0000
1000
0010
0100
0001
0000
0010
0000
,  // measure 60
0001
1000
0001
0000
1000
0000
0100
0000
,  // measure 61
1000
0010
1000
0000
0001
0000
0010
0000
,  // measure 62
0100
0010
0100
0000
1000
0100
0010
0001
,  // measure 63
1100
0000
1000
0100
0001
0000
0001
0100
,  // measure 64
1000
0010
1000
0100
0000
0010
0001
0000
,  // measure 65
1000
0010
1000
0100
0010
0000
0001
0100
,  // measure 66
0010
0100
0001
0100
0000
0010
1000
0001
,  // measure 67
1000
0000
0100
0010
0001
0000
1000
0010
,  // measure 68
0100
0010
1000
0010
0000
0100
0001
0000
,  // measure 69
1000
0000
0010
0100
1000
0000
1000
0100
,  // measure 70
0001
0100
0010
0100
0000
0001
0010
0100
,  // measure 71
1000
0000
0010
0100
0001
0000
1000
0001
,  // measure 72
0100
0001
1000
0001
0000
1000
0100
0000
,  // measure 73
0010
0001
0100
0001
0010
0000
0100
1000
,  // measure 74
0001
1000
0100
1000
0000
0001
0010
0100
,  // measure 75
1000
0000
0001
0100
0001
0000
1000
0010
,  // measure 76
0100
0010
1000
0010
0000
0100
0001
0000
,  // measure 77
1000
0000
0001
0100
0001
0000
0010
0100
,  // measure 78
1000
0000
0100
0000
1000
0010
0100
0001
1000
0000
0001
0000
1000
0000
0000
0000
,  // measure 79
0010
0100
0002
1000
,  // measure 80
2003
0001
0001
0000
3200
0000
0320
0000
,  // measure 81
0032
1000
0010
2003
,  // measure 82
3020
0000
1030
0010
1000
0000
0001
0000
,  // measure 83
0010
0100
0010
0000
0001
1000
0100
0000
,  // measure 84
0010
0001
1000
0001
0010
0000
0001
0000
,  // measure 85
0010
0100
0010
0000
0001
0100
0010
1000
,  // measure 86
0000
0001
0010
0100
1000
0001
1000
0100
,  // measure 87
1000
0010
0100
0001
0020
0000
0100
0000
,  // measure 88
0230
0010
0010
0000
0310
0100
0010
0000
,  // measure 89
0001
0100
0010
0000
1000
0100
0010
0001
,  // measure 90
0000
1000
0010
0100
0001
0000
0010
0000
,  // measure 91
0001
0100
0001
0000
1000
0100
0010
0000
,  // measure 92
0001
0100
0010
0100
0001
0000
0100
0000
,  // measure 93
0001
1000
0001
0000
1000
0100
0010
0001
,  // measure 94
0000
0000
1000
0000
0010
0000
0100
0000
0002
0000
0000
0000
0000
0000
0000
1003
,  // measure 95
0000
0100
0000
1000
0000
0100
1000
0010
1000
0100
1000
0010
1000
0000
0000
0001
,  // measure 96
0000
0100
0000
0001
0000
1000
0100
0010
0001
1000
0100
0010
0001
0000
0000
1000
,  // measure 97
0000
0001
0000
0100
0000
0001
0010
0001
1000
0001
0010
0001
1000
0000
0000
0010
,  // measure 98
0000
0100
0000
0001
0000
1000
0100
1000
0000
0000
0000
0000
0000
0000
0000
0000
;

//---------------dance-single - ----------------
#NOTES:
     dance-single:
     X-Scale 12:
     Medium:
     8:
     0.626412,0.806799,0.016392,0.360626,0.188509,535.000000,533.000000,2.000000,44.000000,0.000000,0.000000,0.626412,0.806799,0.016392,0.360626,0.188509,535.000000,533.000000,2.000000,44.000000,0.000000,0.000000:
1000
0010
1000
0000
0001
0010
0001
0000
,
1000
0010
1000
0000
0001
0010
0001
0000
,
1000
0100
0010
0000
0001
0100
0010
0000
,
1000
0000
0100
0000
0010
0000
0000
0001
0000
0100
0000
0001
0000
0100
0000
0001
,
0010
0000
0001
0000
0010
0000
0000
0000
0100
1000
0100
1000
0000
0001
0100
0000
,
0001
0000
0010
0000
0001
0000
0000
1000
0000
0010
0000
1000
0000
0010
0000
1000
,
0100
0000
0010
0000
0100
0000
0000
0000
1000
0001
1000
0001
0000
0010
0100
0000
,
1000
0000
0010
0000
1000
0000
0000
0001
0000
0010
0000
0001
0000
0010
0000
0001
,
0100
0000
0001
0000
1000
0000
0001
0000
0100
0000
0010
0100
0000
0010
0100
0000
,
0001
0000
1000
0000
0100
0000
1000
0000
0001
0000
0010
0001
0000
0010
0001
0000
,
1000
0000
0010
0000
0001
0000
0010
0000
1000
0000
0100
1000
0000
0100
1000
0000
,
0001
0000
0100
0000
0010
0000
1000
0000
0001
0000
0010
0001
0000
0010
0001
0000
,
0011
0000
0001
0000
1000
0010
1000
0000
,
0001
0000
0010
0000
0100
1000
0100
0000
,
1000
0000
0010
0000
1000
0010
1000
0000
,
0001
0100
0000
0010
0000
0100
0001
0100
,
0001
0000
1000
0000
0010
1000
0010
0000
,
0100
0000
0001
0000
1000
0100
1000
0000
,
0001
0000
0100
0000
0001
0010
0001
0000
,
1000
0010
0000
0100
0000
0010
1000
0010
,
1000
0000
0001
0010
0100
0000
0100
0010
,
0001
1000
0001
1000
0000
0010
1000
0000
,
0001
0000
1000
0100
0010
0000
0010
0100
,
1000
0001
1000
0001
0000
0100
0010
0100
,
0010
0000
1000
0010
0100
0000
0100
0010
,
1000
0001
1000
0001
0000
0010
0100
0000
,
0010
0000
0001
0100
0010
0000
0010
0100
,
0001
0001
1000
1000
1001
0000
1000
0000
,
0010
0100
0001
0010
,
0001
0010
0001
0000
1000
0000
0010
0000
,
0100
0001
1000
0100
,
0010
0001
0010
0001
0010
0000
0001
0000
,
0100
0001
0010
0100
,
1000
0010
1000
0000
0100
0000
1000
0000
,
0001
1000
0010
0100
,
0001
0010
0001
0010
0001
0000
1000
0000
,
0020
0230
0302
1000
,
2003
0001
3002
0023
,
0230
1000
0001
2300
,
3020
0230
0301
0100
,
0001
0010
0001
0000
1000
0000
0100
0000
,
1000
0010
1000
0000
0001
0000
0100
0000
,
0001
0010
0001
0000
1000
0100
0010
0001
,
0000
1000
0100
0010
0001
0000
0100
0000
,
0001
0010
0200
1000
,
2300
0100
3200
0302
,
0203
2300
3020
0230
,
0320
0000
0130
0010
0100
0000
0001
0000
,
1000
0001
1000
0000
0010
0000
0100
0000
,
0001
0100
0001
0000
1000
0000
0010
0000
,
1000
0100
1000
0000
0001
0000
0100
0000
,
0001
0100
0010
1000
0002
0000
0100
0000
,
0010
1000
0010
0100
,
0010
0000
1003
1000
0001
0010
0100
0010
,
0001
0000
1000
0010
1000
0100
0010
0001
,
0000
1000
0100
0010
0001
0000
1000
0000
,
0001
0010
0100
1000
,
0100
0000
0010
0000
0001
0010
0001
0000
,
1000
0020
0001
1030
,
0010
0000
0010
0100
0010
0000
1000
0000
,
0001
1000
0100
0010
,
0100
1000
0100
0000
1000
0000
0001
0000
,
0100
0000
0001
0000
1000
0100
0010
0001
,
1000
0000
0001
1000
0001
0000
1000
0000
,
0010
0100
0001
1000
0000
0001
1000
0000
,
0001
0000
0100
0010
1000
0000
0001
0000
,
0100
0010
1000
0001
0000
0100
0010
0000
,
1000
0000
0100
0010
0001
0000
1000
0100
,
0010
0001
0100
0001
0000
1000
0100
0000
,
1000
0000
0001
0010
0100
0000
0010
0000
,
0001
1000
0100
0010
0000
0001
0100
0000
,
0001
0100
0001
0000
1000
0100
1000
0000
,
0010
0000
0100
0000
0001
0100
0001
0000
,
1000
0100
1000
0000
0001
0000
0100
0000
,
0010
0100
0010
0000
1000
0001
1000
0001
,
1000
0000
0010
0000
0100
0010
0100
0000
,
0001
0000
0100
0000
0001
1000
0001
0000
,
1000
0000
0010
0000
0100
0010
0100
0000
,
0002
0000
0000
0000
0013
0001
0010
0000
,
0001
1000
0020
0100
,
0230
0010
0320
0230
,
0302
1000
0010
2003
,
3020
0230
0320
1000
,
0100
0001
0100
1000
,
0100
0001
0130
0010
,
1000
0010
1000
0100
0000
0010
0000
0001
,
0000
1000
0001
1000
0001
0000
0010
0000
,
0001
0100
0001
0000
2000
0000
0010
0000
,
3020
1000
2030
3200
,
0302
0203
2300
3020
,
2030
0000
3001
1000
0002
0000
0023
0000
,
0230
0000
1300
0100
0000
1000
0000
0010
,
0000
0100
0001
0100
0001
0000
0010
0000
,
0100
0000
1000
0010
0000
0100
0000
0010
,
0000
0000
1000
0000
0100
0000
0010
0000
0002
0000
0000
0000
0000
0000
0000
1000
,
0000
0100
0000
1000
0000
0100
0000
0000
0000
0000
0000
0000
0000
0000
0000
0010
,
0000
0100
0000
0010
0000
0100
0000
0000
0003
0000
0000
0000
0000
0000
0000
0001
,
0000
0100
0000
0001
0000
0100
0000
0000
0000
0000
0000
0000
0000
0000
0000
1000
,
0000
0100
0000
1000
0000
0100
0000
0100
0000
0000
0000
0000
0000
0000
0000
0000
;

//---------------dance-single - ----------------
#NOTES:
     dance-single:
     X-Scale 9:
     Easy:
     6:
     0.473029,0.514097,0.040980,0.122941,0.000000,404.000000,399.000000,5.000000,15.000000,0.000000,0.000000,0.473029,0.514097,0.040980,0.122941,0.000000,404.000000,399.000000,5.000000,15.000000,0.000000,0.000000:
1001
0001
1000
0100
,
1000
0001
0010
0001
,
1000
0010
1000
0001
,
0100
0001
1000
0100
,
1000
0100
1000
0000
0001
0000
0100
0000
,
0001
0100
0001
0000
1000
0000
0100
0000
,
1000
0100
1000
0000
0001
0000
0100
0000
,
0001
0100
0001
0000
1000
0000
0100
0000
,
1000
0100
0010
0000
0001
0100
0010
0000
,
1000
0100
0010
0000
0001
0100
0010
0000
,
1000
0010
0100
0000
0001
0010
0100
0000
,
1000
0010
0100
0000
0001
0000
0000
0000
,
1001
1000
0010
1000
,
0100
0010
0100
1000
,
0001
0100
0001
1000
,
0100
0010
0001
1000
,
0010
0100
0001
1000
,
0100
0010
0001
0100
,
0010
0100
0001
1000
,
0100
0010
0100
1000
,
0001
0000
1000
0001
1000
0000
0010
0000
,
0100
0010
1000
0100
,
0010
0000
0001
0010
0001
0000
1000
0000
,
0010
0000
1000
0000
0001
0000
0010
0001
,
0010
0000
0001
1000
0001
0000
1000
0000
,
0100
0010
0001
1000
,
0010
0000
1000
0010
1000
0000
0001
0000
,
0100
0010
0110
0100
,
0010
0100
0001
1000
,
0001
1000
0100
0010
,
0100
0010
0001
0100
,
0001
0100
0010
1000
,
0010
1000
0001
0100
,
0001
0100
0010
0100
,
0010
0100
0001
1000
,
0001
1000
0100
0010
,
0001
1000
0002
0000
,
2003
0000
3100
0010
,
0002
1000
0000
1003
,
0001
0010
0200
0001
,
0000
0001
0000
1000
,
0000
1000
1300
0100
,
1000
0100
0010
0001
,
0010
0001
2000
0100
,
0000
0100
3200
0000
,
0320
0000
0031
0010
,
0100
0010
0001
1000
,
0010
1000
0001
0010
,
0100
1000
0010
1000
,
0100
0010
0100
1000
,
0001
0100
0010
0100
,
0001
1000
1001
1000
,
0100
1000
0001
0100
,
0001
1000
0100
1000
,
0001
0001
0010
0100
,
1000
0010
1000
0100
,
1000
0100
0010
0001
,
0010
0001
1000
0001
,
1000
0001
0010
0100
,
0010
0100
1000
0010
,
1000
0010
0100
0001
,
0100
0001
1000
0100
,
0010
0001
1000
0000
,
1001
0000
1000
0001
1000
0000
0001
0000
,
0100
0000
0010
0000
1000
0010
1000
0000
,
0001
0000
0100
0010
0100
0000
0001
0000
,
0010
0000
0100
0000
1000
0100
1000
0100
,
1000
0000
0001
0100
0001
0000
0010
0000
,
0100
0000
1000
0000
0010
0100
0010
0000
,
1000
0000
0100
0010
0100
0000
1000
0000
,
0001
0000
0100
0000
0010
0100
0010
0100
,
0010
1000
0001
1000
,
0100
0010
0100
1000
,
0001
0100
0010
1000
,
0001
0000
0010
0000
0100
0000
1000
0100
,
1000
0001
0100
0010
,
1000
0010
0100
0001
,
0010
0001
1000
0100
,
0020
0000
0031
0010
,
0100
1000
0020
0000
,
2030
0000
3001
1000
,
0200
0001
0000
1300
,
0100
0000
1000
0001
1000
0000
0010
0000
,
0100
0000
0001
0100
0001
0010
0000
0001
,
0000
1000
0100
1000
0100
0000
0010
0000
,
0001
0000
0100
0000
0001
0100
0000
0010
,
0000
0100
0001
0100
0002
0000
1000
0000
,
0000
1000
2003
0000
,
3200
0000
0310
0001
,
0100
0001
0010
0001
,
0100
0000
0010
0100
0010
0000
1000
0000
,
0100
0000
0010
0100
0000
0010
0000
0001
,
0000
1000
0010
1000
0100
0000
0010
0000
,
0001
0000
0100
0000
0001
0010
0000
0001
,
0000
1000
0010
1000
0020
0000
0000
0000
,
0000
0000
0000
0000
,
0000
0000
0030
0000
;

//---------------dance-single - ----------------
#NOTES:
     dance-single:
     X-Scale 5:
     Beginner:
     3:
     0.257590,0.271084,0.000000,0.000000,0.000000,220.000000,220.000000,0.000000,0.000000,0.000000,0.000000,0.257590,0.271084,0.000000,0.000000,0.000000,220.000000,220.000000,0.000000,0.000000,0.000000,0.000000:
1000
0000
0100
0000
,
0010
0000
0001
0000
,
1000
0000
0010
0000
,
0100
0000
0001
0000
,
1000
0000
0100
0000
,
0010
0000
0001
0000
,
1000
0000
0010
0000
,
0100
0000
0001
0000
,
1000
0000
0100
0000
,
0010
0000
0001
0000
,
1000
0000
0010
0000
,
0100
0000
0001
0000
,
1000
0100
0000
1000
,
0000
0001
0000
1000
,
0100
1000
0000
0010
,
0000
0100
0000
0001
,
0010
0001
0000
0100
,
0000
0010
0000
0100
,
0001
0100
0000
0010
,
0000
1000
0000
0001
,
1000
0001
0000
0010
,
0000
0100
0000
1000
,
0010
1000
0000
0100
,
0000
0010
0000
0100
,
1000
0100
0000
0010
,
0000
0001
0000
0100
,
0001
0100
0000
0010
,
0000
0000
1000
1000
,
0000
0001
0000
1000
,
0000
0001
0000
0010
,
0000
0100
0000
0010
,
0000
0100
0000
1000
,
0000
0100
0000
1000
,
0000
0100
0000
0010
,
0000
0001
0000
0010
,
0000
0001
1000
0100
,
0010
0001
0100
0000
,
0010
0000
1000
1000
,
0000
0010
0000
0100
,
0010
0100
0010
0010
,
0000
1000
0000
0001
,
0000
1000
0000
0100
,
0000
0010
0000
0001
,
0000
0100
0010
0100
,
0000
0001
0000
1000
,
0000
0001
0010
0001
,
0000
1000
0000
0010
,
0000
1000
0100
1000
,
0000
0001
0000
0010
,
0000
0001
0100
0001
,
0000
0010
0000
0100
,
0000
1000
1000
0000
,
0100
0000
0010
0000
,
0001
0000
1000
0000
,
0010
0000
0100
0000
,
0001
0000
1000
0000
,
0010
0000
1000
0000
,
0001
0000
0010
0000
,
0001
0000
1000
0000
,
0010
0000
0100
0000
,
0001
0000
0010
0000
,
0100
0000
1000
0000
,
0010
0000
0100
0000
,
0001
0010
0000
0001
,
0000
1000
0000
0001
,
0010
0001
0000
0100
,
0000
0010
0000
0100
,
0010
0100
0000
0001
,
0000
1000
0000
0001
,
0100
0001
0000
1000
,
0000
0100
0000
0010
,
0001
0010
0000
0001
,
0000
0100
0000
0001
,
0010
0001
0000
1000
,
0000
0010
0000
1000
,
0100
1000
0000
0100
,
0000
0010
0000
0001
,
0010
0001
0000
1000
,
0000
0000
0010
0000
,
0001
1000
0001
0000
,
0100
0000
0001
0010
,
0100
0000
0000
1000
,
0010
1000
0000
0001
,
0000
0100
0000
0001
,
0000
0010
0100
0010
,
0000
0001
0000
1000
,
0000
0010
1000
0010
,
0000
0000
0100
0000
,
0001
0000
0000
1000
,
0000
0100
0000
0010
,
0000
0001
0010
0001
,
0000
0100
0000
0010
,
0000
1000
0010
1000
,
0000
0100
0000
0010
,
0000
0001
0001
0000
;
