#TITLE:Somebody's Watching Me;
#SUBTITLE:;
#ARTIST:Rockwell;
#TITLETRANSLIT:;
#SUBTITLETRANSLIT:;
#ARTISTTRANSLIT:;
#GENRE:Synthfunk;
#CREDIT:;
#BANNER:Somebody's Watching Me-bn.png;
#BACKGROUND:Somebody's Watching Me-bg.png;
#LYRICSPATH:;
#CDTITLE:cdtitle.png;
#MUSIC:Somebody's Watching Me.ogg;
#OFFSET:-0.021000;
#SAMPLESTART:30.962000;
#SAMPLELENGTH:15.470000;
#SELECTABLE:YES;
#BPMS:0.000000=124.109001
;
#STOPS:
;
#BGCHANGES:0.000=Somebody's Watching Me.avi=1.000=1=0=0=StretchNoLoop==CrossFade==,
99999=-nosongbg-=1.000=0=0=0 // don't automatically add -songbackground-
;
#KEYSOUNDS:;
#ATTACKS:;

//---------------dance-single - ----------------
#NOTES:
     dance-single:
     X-Scale 12:
     Hard:
     8:
     0.474402,0.472846,0.085548,0.396631,0.069994,427.000000,416.000000,11.000000,51.000000,0.000000,0.000000,0.474402,0.472846,0.085548,0.396631,0.069994,427.000000,416.000000,11.000000,51.000000,0.000000,0.000000:
// measure 0
0000
0000
0000
0000
,  // measure 1
0000
0000
0000
0000
,  // measure 2
0000
0000
0000
0000
,  // measure 3
0000
0000
0000
0000
,  // measure 4
1001
0000
1000
0000
0001
0010
1000
0010
,  // measure 5
0001
0000
0101
0000
0100
0010
1000
0000
,  // measure 6
0001
1000
0100
1000
0002
0000
0023
0000
,  // measure 7
1030
0000
0010
0000
0001
0000
1000
0000
0010
1000
0001
0000
0100
0000
0001
0000
,  // measure 8
0101
0001
0100
0010
2000
0000
3200
0000
,  // measure 9
0301
0100
1000
0010
0100
0100
0200
0000
,  // measure 10
0310
0100
0001
1000
0200
0000
0320
0000
,  // measure 11
0031
0010
1000
0010
0001
0001
0002
0000
,  // measure 12
1003
0001
0100
0001
2000
0000
3020
0000
,  // measure 13
1030
0000
0001
0000
0010
0000
0001
0000
1000
0000
0010
0100
0010
0000
1000
0000
,  // measure 14
0100
0001
0100
0010
0200
0000
2300
0000
,  // measure 15
3001
0000
0001
0000
0001
0000
0100
0000
0001
0100
0001
0000
1000
0000
0000
0000
,  // measure 16
1001
1000
0100
0010
0002
0000
2003
0000
,  // measure 17
3010
1000
0001
0010
0200
0000
0310
0002
,  // measure 18
1000
0000
0000
0000
0010
0000
0003
0000
0001
0000
0010
0100
1000
0000
0001
0000
,  // measure 19
0100
0001
1000
0001
0200
0000
1300
0100
,  // measure 20
0001
0010
0001
1000
0002
0000
0203
0000
,  // measure 21
0310
0100
0001
0010
0200
0000
1300
0002
,  // measure 22
0010
0000
1000
0003
0001
0100
0010
1000
,  // measure 23
0100
0000
0010
0000
0001
0000
1000
0000
0010
1000
0001
0000
0010
0000
0100
0000
,  // measure 24
0110
0010
0001
0200
1000
0000
0301
0100
,  // measure 25
0020
0000
0000
2030
0000
3000
0100
0000
1000
0100
0000
0100
0001
0000
1000
0000
,  // measure 26
0010
1000
0001
0010
1000
0010
0100
2000
,  // measure 27
0001
0000
0100
0000
3010
1000
0001
0010
,  // measure 28
0100
0010
0001
1000
0002
0000
0000
0000
0103
0000
0001
0000
1000
0000
0020
0000
,  // measure 29
0000
0031
0010
1000
0200
0000
0310
0100
,  // measure 30
1000
0000
0001
0000
0100
0000
0001
0000
1000
0000
0010
1000
0001
0000
1000
0000
,  // measure 31
0001
0000
0010
0000
0100
0000
0010
0000
0001
0010
0001
0000
1000
0000
0000
0000
,  // measure 32
1001
0000
1000
0000
0010
0000
1000
0001
,  // measure 33
0010
0000
0001
0000
1000
0010
0100
0010
,  // measure 34
1000
0000
0001
0000
0100
0001
1000
0000
,  // measure 35
0100
0000
0010
0100
1000
0001
0100
0001
,  // measure 36
1000
0000
0010
0000
1000
0100
0001
0100
,  // measure 37
1000
0000
0001
0000
0010
0001
1000
0000
,  // measure 38
0001
0010
1000
0010
0200
0000
1300
0100
,  // measure 39
1000
0000
0001
0000
0010
0000
0001
0000
0100
0001
0100
0000
0010
0000
0000
0000
,  // measure 40
0110
0100
0001
0010
0200
0000
2300
0000
,  // measure 41
3001
1000
0100
1000
0020
0000
0130
0002
,  // measure 42
0010
0000
0000
0000
1000
0000
0003
0000
0001
0000
0010
0100
1000
0000
0001
0000
,  // measure 43
1000
0100
1000
0000
0001
0010
1000
0010
,  // measure 44
0001
0100
0010
0100
0002
0000
0023
0000
,  // measure 45
1030
0010
0001
1000
0020
0000
0130
0002
,  // measure 46
1000
0000
0000
0000
0010
0000
0003
0000
0001
0000
1000
0001
0100
0000
0010
0000
,  // measure 47
0100
0100
0001
0100
0010
1000
0100
0010
,  // measure 48
1001
1000
0100
0001
0200
0000
0310
0100
,  // measure 49
1000
0001
0100
0001
1000
1000
0010
0000
,  // measure 50
1000
0000
0100
0000
0001
0000
0100
0000
2000
0000
0002
0000
3003
0002
0000
0003
,  // measure 51
0002
0013
0200
0000
0301
0100
1000
0001
,  // measure 52
1000
0010
0100
0010
1000
0001
0100
0001
,  // measure 53
1000
0100
0010
0100
2000
0000
3001
0020
,  // measure 54
0100
0000
0001
0030
0010
0100
1000
0001
,  // measure 55
0100
0000
0001
0000
1000
0000
0000
0000
0010
1000
0001
0000
0100
0000
0010
0000
,  // measure 56
1001
1000
0001
0100
0020
0000
0032
0000
,  // measure 57
0013
0100
0010
1000
0002
0000
0103
0020
,  // measure 58
0001
0000
1000
0030
0010
1000
0001
1000
,  // measure 59
0100
0001
0100
0010
0001
1000
0010
1000
,  // measure 60
0001
0010
0100
1000
0002
0000
0013
0001
,  // measure 61
1000
0100
0001
0100
1000
0001
1000
0000
,  // measure 62
1001
0001
0100
0001
0020
0000
0130
0010
,  // measure 63
0001
0000
1000
0000
0010
0000
1000
0000
0001
1000
0001
0000
0010
0000
0100
0000
,  // measure 64
0110
0000
0000
0000
;

//---------------dance-single - ----------------
#NOTES:
     dance-single:
     X-Scale 9:
     Medium:
     6:
     0.411074,0.447960,0.178873,0.381077,0.058328,370.000000,347.000000,23.000000,49.000000,0.000000,0.000000,0.411074,0.447960,0.178873,0.381077,0.058328,370.000000,347.000000,23.000000,49.000000,0.000000,0.000000:
// measure 0
0000
0000
0000
0000
,  // measure 1
0000
0000
0000
0000
,  // measure 2
0000
0000
0000
0000
,  // measure 3
0000
0000
0000
0000
,  // measure 4
1100
0000
1000
0000
0100
0000
1000
0001
,  // measure 5
1000
0000
0010
0000
0100
0000
0001
0010
,  // measure 6
0001
0100
0000
0100
1000
0000
0001
0000
,  // measure 7
1000
0000
0100
0000
1000
0000
0100
0000
0010
0100
0010
0000
0001
0000
0010
0000
,  // measure 8
0100
1000
0000
0001
0200
0000
0320
0000
,  // measure 9
1030
0100
0000
0100
0002
0000
0023
0000
,  // measure 10
0031
0100
0000
0001
2000
0000
3200
0000
,  // measure 11
1300
0010
0000
0010
0002
0000
0013
0100
,  // measure 12
1000
0010
0000
0100
0002
0000
2003
0000
,  // measure 13
3001
0100
0000
0100
2000
0000
3020
0000
,  // measure 14
0130
0001
0000
0010
0200
0000
0320
0000
,  // measure 15
0031
1000
0010
1000
0001
0010
0100
1000
,  // measure 16
1100
0000
0100
1000
0002
0000
0023
0000
,  // measure 17
1030
0100
0001
1000
0002
0000
0013
0200
,  // measure 18
0001
0000
0010
0000
2300
0000
3001
0100
,  // measure 19
0001
0010
0000
0010
2000
0000
3100
0010
,  // measure 20
0001
0000
0100
0001
2000
0000
3020
0000
,  // measure 21
0031
0010
1000
0001
0200
0000
0301
0020
,  // measure 22
1000
0000
0100
0000
0031
0010
1000
0010
,  // measure 23
0100
0000
1000
0000
0001
0000
0000
0000
0100
0001
0100
0000
0001
0000
0000
0000
,  // measure 24
1001
1000
0010
2000
0000
0000
3100
0100
,  // measure 25
0010
0000
0000
0001
0000
0000
0000
0000
0100
0001
0000
1000
0000
0000
0010
0000
,  // measure 26
0000
1000
0010
0100
0001
0010
0100
2000
,  // measure 27
0010
0000
0100
0000
3001
0000
0010
0001
,  // measure 28
0100
0000
0101
0000
0001
0010
0001
0020
,  // measure 29
0000
0130
0001
0100
2000
0000
3010
0200
,  // measure 30
1000
0000
0000
0000
0010
0000
0000
0000
0001
0000
0301
0100
0001
0000
1000
0000
,  // measure 31
0010
0000
1000
0000
1010
0000
0000
0000
1000
0001
1000
0000
0100
0000
0010
0000
,  // measure 32
0101
0000
0100
0000
0001
0000
1000
0001
,  // measure 33
0100
0000
0001
0000
1000
0010
0001
0010
,  // measure 34
1000
0001
0010
0001
,  // measure 35
1000
0000
0010
0100
0001
0100
1000
0100
,  // measure 36
0010
0000
1000
0000
0001
0010
0001
0010
,  // measure 37
0000
0010
1000
0000
0010
1000
0010
0000
,  // measure 38
1000
0100
0000
0100
0001
0000
0101
0000
,  // measure 39
1000
0000
0001
0000
0100
0010
0000
2000
0000
0000
0000
0000
3001
0000
0000
0000
,  // measure 40
1001
0000
1000
0010
0200
0000
0302
0000
,  // measure 41
0013
0001
1000
0000
0020
0000
1030
0002
,  // measure 42
0010
0000
1000
0003
0001
0100
0001
0000
,  // measure 43
1000
0100
1000
0000
0200
0000
0310
0100
,  // measure 44
1000
0010
0000
0010
0002
0000
2003
0000
,  // measure 45
3010
1000
0001
0000
0200
0000
0310
2000
,  // measure 46
0100
0000
0001
3000
1000
0100
1000
0000
,  // measure 47
0001
0100
0002
0000
0003
0000
0000
0000
,  // measure 48
1001
1000
0010
1000
0002
0000
0023
0000
,  // measure 49
0130
0010
0001
1000
0020
0000
0130
0002
,  // measure 50
0100
0000
0000
0000
1000
0000
0003
0000
0001
0000
0020
0000
0030
0020
0000
0030
,  // measure 51
0020
0030
0101
0000
0001
0100
1000
0100
,  // measure 52
0001
1000
0000
0010
0000
0100
0000
0001
,  // measure 53
0100
0001
0000
1000
0200
0000
0310
0002
,  // measure 54
0100
0000
1000
0003
0001
0000
0100
0000
,  // measure 55
0001
0000
0010
0000
0100
0000
0000
0000
1000
0100
1000
0000
0001
0000
0000
0000
,  // measure 56
1001
0000
1000
0000
0010
0000
1000
0100
,  // measure 57
1000
0000
0000
0000
1001
0000
0000
0000
0001
0000
0101
0000
0000
0101
0000
0000
,  // measure 58
0001
0010
0100
0010
0001
0000
0011
0000
,  // measure 59
1000
0000
0001
0000
0100
0000
0101
0000
0000
0101
0000
0000
0001
0000
0010
0000
,  // measure 60
0001
0000
1000
0100
2000
0000
3001
1000
,  // measure 61
0001
0000
0000
0000
0011
0000
0000
0000
0010
0000
0110
0000
0000
0110
0000
0000
,  // measure 62
0100
1000
0001
0100
0001
0000
0101
0000
,  // measure 63
0001
0000
0100
0000
0001
0000
1000
0000
0100
0010
0100
0000
0110
0000
0000
0000
,  // measure 64
1001
0000
0000
0000
;

//---------------dance-single - ----------------
#NOTES:
     dance-single:
     X-Scale 6:
     Easy:
     4:
     0.321082,0.323526,0.077771,0.279975,0.000000,289.000000,279.000000,10.000000,36.000000,0.000000,0.000000,0.321082,0.323526,0.077771,0.279975,0.000000,289.000000,279.000000,10.000000,36.000000,0.000000,0.000000:
0000
0000
0000
0000
,
0000
0000
0000
0000
,
0000
0000
0000
0000
,
0000
0000
0000
0000
,
0001
0010
0001
1000
,
0001
0000
0010
0000
0001
1000
0001
0000
,
1000
0010
0100
0010
,
1000
0001
0100
0001
1000
0100
0010
0100
,
1000
0001
0200
0302
,
0013
0100
2000
3002
,
0103
0010
2000
3200
,
0310
0000
0001
0000
0200
0000
0301
0100
,
0001
0010
0200
2300
,
3001
1000
0020
2030
,
3100
0010
0002
2003
,
3100
0100
0100
0000
2000
0000
3001
1000
,
0001
0000
0100
0000
0001
0000
0010
0100
,
0010
0000
0001
0000
0100
0000
0010
1000
,
0010
0000
0100
0000
0001
0000
1000
0100
,
1000
0000
0001
0000
0010
0000
0100
0010
,
0100
0000
1000
0000
0001
0000
0100
0010
,
0100
0000
0001
0000
0010
0000
0100
1000
,
0100
0000
0010
0000
0001
0000
1000
0010
,
1000
0000
0100
0000
0010
0000
0001
0010
,
0001
1000
0020
2030
,
3001
0000
0010
0000
0200
0000
1300
0100
,
1000
0001
0200
0302
,
0013
0000
0001
0000
2000
0000
3001
1000
,
0001
0010
0002
0203
,
0310
0000
1000
0000
0200
0000
1300
0001
,
1000
0010
0200
0302
,
0013
0000
0100
0000
2000
0000
3001
1000
,
0001
1000
0100
1000
,
0001
0000
1000
0000
0200
0000
0310
0100
,
1000
0001
0010
0001
,
1000
0000
0001
0000
0020
0000
0031
0010
,
0100
1000
0010
1000
,
0100
0000
0010
0000
0001
0010
0001
0000
,
0100
0010
2000
3002
,
0103
0000
0001
0000
2000
0000
3010
1000
,
0001
0000
0010
0000
0001
0000
1000
0010
,
1000
0000
0100
0000
0010
0000
0001
0010
,
0001
0000
0100
0000
0010
0000
1000
0010
,
1000
0000
0001
0000
0010
0000
0100
0010
,
0100
0000
1000
0000
0001
0000
0100
0001
,
0100
0000
0010
0000
1000
0000
0100
1000
,
0100
0000
0010
0000
0001
0000
0100
0001
,
0100
0100
0100
0000
0000
0000
0000
0000
,
1001
0000
1000
0010
2000
0000
3002
0000
,
0013
0000
0001
0000
0200
0000
0310
1000
,
0001
0100
0001
0010
,
0100
1000
0001
0000
0100
0000
0001
1000
,
0100
1000
0001
0100
,
0001
0000
0010
0100
1000
0000
0001
0100
,
0000
0001
0000
0000
1000
0000
0100
1000
,
0000
0100
0000
0010
0002
0000
1003
0001
,
1000
0000
0010
0000
1000
0000
0001
0100
,
0001
0000
0101
0000
0000
1001
0000
0000
,
1100
0000
1000
0000
0001
0000
0010
0001
,
1000
0000
0000
1001
0000
0000
0110
0000
,
0100
0000
0001
0000
1000
0000
0010
1000
,
0001
0000
1001
0000
0000
0110
0000
0000
,
0101
0001
1000
0100
,
1000
0100
0020
0000
0031
0000
0010
0000
,
0011
0000
0000
0000
;

//---------------dance-single - ----------------
#NOTES:
     dance-single:
     X-Scale 2:
     Beginner:
     2:
     0.129988,0.174207,0.015554,0.000000,0.000000,117.000000,115.000000,2.000000,0.000000,0.000000,0.000000,0.129988,0.174207,0.015554,0.000000,0.000000,117.000000,115.000000,2.000000,0.000000,0.000000,0.000000:
0000
0000
0000
0000
,
0000
0000
0000
0000
,
0000
0000
0000
0000
,
0000
0000
0000
0000
,
0000
1000
0000
0001
,
0000
0100
0000
0001
,
0000
1000
0000
0100
,
0000
0010
0000
0001
,
0000
1000
0000
0010
,
0000
1000
0000
0001
,
0000
0010
0000
0100
,
0000
0010
0000
0001
,
0000
1000
0000
0010
,
0000
1000
0000
0001
,
0000
0010
0000
0100
,
0000
1000
0000
0000
,
1001
0000
0001
0000
,
0100
0000
0001
0000
,
1000
0000
0001
0000
,
0100
0000
0001
0000
,
0010
0000
0100
0000
,
1000
0000
0100
0000
,
0010
0000
0001
0000
,
1000
0000
0001
0000
,
0000
0010
0000
0001
,
0000
0010
0000
0100
,
0000
1000
0000
0001
,
0000
1000
0000
0010
,
0000
0100
0000
0010
,
0000
1000
0000
0001
,
0000
0100
0000
0001
,
0000
0010
0010
0000
,
0001
0000
0000
0000
,
0010
0000
0000
0000
,
0100
0000
0000
0000
,
1000
0000
0000
0000
,
0010
0000
0000
0000
,
0100
0000
0000
0000
,
0001
0000
0000
0000
,
1000
0000
0000
0000
,
0100
0000
1000
0000
,
0001
0000
1000
0000
,
0010
0000
1000
0000
,
0001
0000
0010
0000
,
0100
0000
1000
0000
,
0100
0000
0010
0000
,
0001
0000
1000
0000
,
0001
0000
0000
0000
,
1001
0000
1000
0010
,
1000
0000
0001
0000
,
0100
0000
0001
0000
,
1000
0000
0010
0000
,
1000
0000
0001
0010
,
0001
0000
1000
0000
,
0100
0000
0010
0000
,
0001
0000
1000
0000
,
0001
0000
0010
0100
,
0010
0000
0001
0000
,
1000
0000
0010
0000
,
1000
0000
0001
0000
,
0010
0000
0100
0010
,
0100
0000
1000
0000
,
0010
0000
1000
0000
,
0001
0000
0010
0000
,
0001
0000
0000
0000
;
