#VERSION:0.83;
#TITLE:Skulk;
#SUBTITLE:;
#ARTIST:Echo Image;
#TITLETRANSLIT:;
#SUBTITLETRANSLIT:;
#ARTISTTRANSLIT:;
#GENRE:Synthtrance;
#ORIGIN:;
#CREDIT:;
#BANNER:Skulk-bn.png;
#BACKGROUND:Skulk-bg.png;
#PREVIEWVID:;
#JACKET:Skulk-jacket.png;
#CDIMAGE:;
#DISCIMAGE:;
#LYRICSPATH:;
#CDTITLE:cdtitle.png;
#MUSIC:Skulk.ogg;
#OFFSET:-0.004000;
#SAMPLESTART:79.852997;
#SAMPLELENGTH:14.195000;
#SELECTABLE:YES;
#BPMS:0.000=135.255;
#STOPS:;
#DELAYS:;
#WARPS:;
#TIMESIGNATURES:0.000=4=4;
#TICKCOUNTS:0.000=4;
#COMBOS:0.000=1;
#SPEEDS:0.000=1.000=0.000=0;
#SCROLLS:0.000=1.000;
#FAKES:;
#LABELS:0.000=Song Start;
#BGCHANGES:;
#KEYSOUNDS:;
#ATTACKS:
;

//---------------dance-single - ----------------
#NOTEDATA:;
#CHARTNAME:X-Scale 3;
#STEPSTYPE:dance-single;
#DESCRIPTION:;
#CHARTSTYLE:;
#DIFFICULTY:Beginner;
#METER:2;
#RADARVALUES:0.146375,0.220721,0.017077,0.008539,0.000000,120.000000,118.000000,2.000000,1.000000,0.000000,0.000000,0.000000,0.000000,0.000000,0.146375,0.220721,0.017077,0.008539,0.000000,120.000000,118.000000,2.000000,1.000000,0.000000,0.000000,0.000000,0.000000,0.000000;
#CREDIT:iamthek3n;
#NOTES:
0000
0000
0000
0000
,
0000
0000
0000
0000
,
0000
0000
0000
0000
,
1000
0000
0000
0000
,
0001
0000
0000
0000
,
1000
0000
0000
0000
,
0010
0000
0000
0000
,
1000
0000
0000
0000
,
0001
0000
0000
0000
,
0000
1000
0000
0000
,
0000
0100
0000
0000
,
0000
0010
0000
0000
,
0000
0001
0000
0000
,
0000
0100
0000
0000
,
0000
0010
0000
0000
,
0000
1000
0000
0000
,
0001
0000
1000
0000
,
0001
0000
0010
0000
,
0100
0000
0010
0000
,
0001
0000
1000
0000
,
0001
0000
0100
0000
,
0010
0000
0100
0000
,
0001
0000
1000
0000
,
0100
0000
0010
0000
,
0001
0000
0000
0000
,
1001
0000
0000
0100
0000
1000
0000
0000
,
0001
0000
0100
0000
,
0001
0000
0000
0000
0010
0000
0000
0100
,
0000
1000
0000
0100
0000
1000
0000
0000
,
0001
0000
1000
0000
,
0100
0000
1000
0000
,
0001
0000
0010
0000
,
0001
0000
1000
0000
,
0001
0000
0000
0000
,
0010
0000
0000
0000
,
0100
0000
0000
0000
,
1000
0000
0000
0000
,
0001
0000
1000
0000
,
0001
0000
1000
0000
,
0100
0000
0010
0000
,
0100
0000
0010
0000
,
0001
0000
1000
0000
,
0001
0000
1000
0000
,
0000
0010
0000
0010
,
0000
0000
0000
0000
,
1001
0000
0000
1000
0000
0100
0000
0000
,
1000
0000
0001
0000
,
0100
0000
0000
0000
0001
0000
0000
0010
,
0000
0100
0000
0010
0000
0100
0000
0000
,
1000
0000
0001
0000
,
0100
0000
0001
0000
,
1000
0000
0001
0000
1000
0000
0000
0010
,
0000
0200
0000
0000
0001
0000
0301
0000
,
0001
0000
0000
1000
0000
0100
0000
0000
,
0010
0000
0001
0000
,
1000
0000
0000
0000
0001
0000
0000
1000
,
0000
0010
0000
1000
0000
0010
0000
0000
,
0100
0000
0001
0000
,
1000
0000
0001
0000
,
0010
0000
0100
0000
1000
0000
0000
0001
,
0000
1000
0000
0001
0000
1000
0000
0000
,
0100
0000
0000
0000
,
0010
0000
0000
0000
,
0001
0000
0000
0000
0000
0000
0000
1000
,
0000
0100
0000
0010
0000
0001
0000
0000
;

//---------------dance-single - ----------------
#NOTEDATA:;
#CHARTNAME:X-Scale 6;
#STEPSTYPE:dance-single;
#DESCRIPTION:;
#CHARTSTYLE:;
#DIFFICULTY:Easy;
#METER:4;
#RADARVALUES:0.272014,0.333003,0.059770,0.281772,0.000000,223.000000,216.000000,7.000000,33.000000,0.000000,0.000000,0.000000,0.000000,0.000000,0.272014,0.333003,0.059770,0.281772,0.000000,223.000000,216.000000,7.000000,33.000000,0.000000,0.000000,0.000000,0.000000,0.000000;
#CREDIT:iamthek3n;
#NOTES:
0000
0000
0000
0000
,
0000
0000
0000
0000
,
0000
0000
0000
0000
,
1000
0010
1000
0001
,
0100
0010
0100
0001
,
0010
0100
1000
0001
,
1000
0010
0100
0001
,
1000
0100
0010
0100
,
1000
0001
0010
0001
,
0200
0000
0300
0000
0001
0000
0010
0200
,
0000
0320
0000
0032
0000
2003
0000
3002
,
0000
0003
0100
0010
,
0100
0000
0001
0020
0000
0032
0000
2003
,
0000
3020
0000
0230
0000
0000
0300
0000
,
0001
0010
0100
0010
,
0002
0000
0000
0023
0000
0000
0030
0000
,
0001
0001
1000
1000
,
0001
0000
0001
0000
0100
0000
0100
0010
,
0000
0100
0000
0001
0000
1000
0000
0100
,
0000
0000
1000
0000
0001
0100
0000
0001
,
0000
0010
0000
0100
0000
0010
0000
0001
,
0000
1000
0000
0001
0000
0000
0100
0000
,
0001
0000
0010
0000
0100
1000
0000
0001
,
0000
1000
0000
0010
0000
0000
1000
0000
,
0001
0001
0010
0010
,
0011
0001
1000
0001
,
0100
0000
0001
0010
0100
0000
0010
0000
,
0001
1000
0010
1000
,
0100
0000
0010
0000
0100
0010
0001
0000
,
1000
0000
0001
0000
0100
0000
0001
0010
,
0100
1000
0001
0100
,
0001
0000
1000
0000
0100
0010
0000
0200
,
0000
1000
0000
1300
,
1100
0000
0000
0000
,
0100
0000
0000
0000
,
0010
0000
0000
0000
,
0001
0000
1000
0000
,
0001
0000
0100
0000
,
0001
0000
1000
0000
,
0100
0000
1000
0000
,
0001
0000
0010
0000
,
0001
0000
0100
0000
,
0010
0000
0100
0000
,
0001
0000
1000
0000
,
0002
0000
0100
0000
,
1003
0000
0001
2000
0000
0200
0000
3300
,
1100
0100
0010
0001
,
0100
0000
0001
0010
0000
0100
0000
0010
,
0000
0100
0000
1000
0000
0002
0000
0000
,
1003
0000
1001
0000
0001
0000
0100
0002
,
0000
0013
0100
1000
,
0001
0000
0100
0000
0001
0010
0000
0100
,
0000
2000
0000
0000
0010
0000
3001
0000
,
1001
0000
0100
2000
0000
0002
0000
3003
,
1001
0000
0010
0001
0010
0000
0100
0000
,
1000
0000
0001
0100
0000
0001
0000
1000
,
0000
0100
0000
0010
0000
0002
0000
0000
,
0013
0000
0011
0000
0001
0000
1000
0001
,
0100
0001
0010
0100
,
1000
0000
0001
0000
0100
0001
0000
2000
,
0000
3200
0000
0020
0030
2000
0000
3300
,
0001
0000
0000
1000
0000
0002
0000
0000
,
1003
0000
0000
0000
0000
0000
0000
1000
,
0001
0000
1000
0000
0000
0002
0000
0023
,
0000
0230
0000
0320
0000
0032
0000
0000
,
0003
0000
0000
0000
;

//---------------dance-single - ----------------
#NOTEDATA:;
#CHARTNAME:X-Scale 9;
#STEPSTYPE:dance-single;
#DESCRIPTION:;
#CHARTSTYLE:;
#DIFFICULTY:Medium;
#METER:6;
#RADARVALUES:0.354959,0.444004,0.102463,0.537928,0.064039,291.000000,279.000000,12.000000,63.000000,0.000000,0.000000,0.000000,0.000000,0.000000,0.354959,0.444004,0.102463,0.537928,0.064039,291.000000,279.000000,12.000000,63.000000,0.000000,0.000000,0.000000,0.000000,0.000000;
#CREDIT:iamthek3n;
#NOTES:
// measure 0
0000
0000
0000
0000
,  // measure 1
0000
0000
0000
0000
,  // measure 2
0000
0000
0000
0000
,  // measure 3
0102
0000
1000
0000
0103
0000
0010
0100
,  // measure 4
0001
0000
0010
0000
0100
0000
1000
0100
,  // measure 5
0010
0000
0001
0000
1000
0000
0010
1000
,  // measure 6
0001
0000
0100
0000
0001
0000
0010
0100
,  // measure 7
1000
0000
0000
0001
0000
0000
0100
0000
0000
0001
0000
0000
1000
0000
0100
0000
,  // measure 8
0010
0000
0000
1000
0000
0000
0010
0000
0000
0001
0000
0000
1000
0000
0001
0000
,  // measure 9
2001
0000
3010
0000
0200
0000
0301
0020
,  // measure 10
0000
2030
0000
3020
0000
0230
0000
2300
,  // measure 11
0000
3100
1000
0001
,  // measure 12
0100
0000
0001
2000
0000
3200
0000
0302
,  // measure 13
0000
0023
0000
2030
0000
0000
3001
0000
,  // measure 14
0100
0010
0100
0001
,  // measure 15
0010
0000
0100
2000
0000
0000
3001
0000
,  // measure 16
0100
0000
0000
0000
0100
0000
0000
0001
1000
0000
0000
0100
1000
0000
0000
0100
,  // measure 17
0010
0000
0000
0000
1001
0000
0000
1000
0000
0000
1000
0000
0001
0000
0000
0000
,  // measure 18
0100
0000
0000
0000
0001
0000
0000
0001
0000
0000
0001
0000
0100
0000
0000
0000
,  // measure 19
0010
0000
0000
0000
1000
0000
0000
1000
0000
0000
1000
0000
0100
0000
0000
0000
,  // measure 20
0010
0000
0000
0000
0001
0000
0000
0001
0000
0000
0001
0000
0100
0000
0000
0000
,  // measure 21
0010
0000
0000
0000
1000
0000
0000
1000
0000
0000
1000
0000
0001
0000
0000
0000
,  // measure 22
0100
0000
0000
0000
0001
0000
0000
0001
0000
0000
0001
0000
0010
0000
0000
0000
,  // measure 23
0100
0000
0000
0000
1000
0000
0000
1000
0000
0000
1000
0000
0001
0000
0000
0000
,  // measure 24
0001
0100
0001
0000
1000
0000
0100
0000
,  // measure 25
2100
0000
3001
0200
0000
0320
0000
0000
,  // measure 26
1030
0000
0001
0100
0001
0000
0010
0000
,  // measure 27
0100
0000
1000
0002
0000
0023
0000
2030
,  // measure 28
0000
3020
0000
0230
0000
2300
0000
0000
,  // measure 29
3001
0000
0100
0000
0001
0000
1000
0020
,  // measure 30
0100
0000
1030
0000
0100
1000
0001
0000
,  // measure 31
0200
0000
0302
0000
1003
0010
0000
0200
,  // measure 32
0000
0010
0000
0010
,  // measure 33
0301
0000
0000
0000
0000
0000
0000
0000
0100
0000
0000
0000
0000
0000
0000
0100
,  // measure 34
0001
0000
0000
0000
0010
0000
0000
0001
,  // measure 35
0001
0000
1000
0000
,  // measure 36
0010
0000
0000
0000
0100
0010
0001
0010
,  // measure 37
0100
0000
1001
0000
1000
0001
0100
0001
,  // measure 38
1000
0000
1100
0000
0001
0100
1000
0100
,  // measure 39
0001
0000
0101
0000
1000
0001
0100
0001
,  // measure 40
1000
0000
0110
0000
0001
0000
1000
0100
,  // measure 41
0001
0000
1000
0010
0001
0000
0001
0010
,  // measure 42
0100
0000
1000
0100
0010
0000
0001
1000
,  // measure 43
0010
1010
0000
0110
,  // measure 44
0002
0000
1000
0000
,  // measure 45
0103
0000
0001
0020
0000
0230
0000
0000
,  // measure 46
2300
0000
3001
0100
0001
0000
1000
0000
,  // measure 47
0200
0000
1300
0020
0000
0032
0000
0023
,  // measure 48
0000
2030
0000
3002
0000
0203
0000
0000
,  // measure 49
0310
0000
1001
0000
0200
0000
1300
0002
,  // measure 50
0010
0000
1003
0001
0010
0000
0100
0000
,  // measure 51
0010
0000
0001
0000
1000
0001
0100
0020
,  // measure 52
0000
0100
0000
0100
,  // measure 53
1030
0000
0100
0020
0000
0032
0000
0000
,  // measure 54
0103
0000
0001
0010
0100
0000
1000
0000
,  // measure 55
0020
0000
0130
0002
0000
0203
0000
2300
,  // measure 56
0000
3002
0000
0023
0000
2030
0000
0000
,  // measure 57
3010
0000
1010
0000
1000
0000
0100
0010
,  // measure 58
0001
0000
1000
0001
0100
0000
0001
0000
,  // measure 59
0010
0000
0100
0000
1000
0020
0000
2030
,  // measure 60
0010
0001
0010
0001
,  // measure 61
3200
0000
1300
0002
0000
0023
0000
0000
,  // measure 62
0230
0000
0300
0000
0000
0000
0000
1000
,  // measure 63
0200
0000
1300
0002
0000
0203
0000
2300
,  // measure 64
0000
3002
0000
0023
0000
2030
0000
0000
,  // measure 65
3000
0000
0000
0000
;

//---------------dance-single - ----------------
#NOTEDATA:;
#CHARTNAME:X-Scale 14;
#STEPSTYPE:dance-single;
#DESCRIPTION:;
#CHARTSTYLE:;
#DIFFICULTY:Hard;
#METER:9;
#RADARVALUES:0.572082,0.666006,0.367157,0.896547,0.341542,469.000000,426.000000,43.000000,105.000000,0.000000,0.000000,0.000000,0.000000,0.000000,0.572082,0.666006,0.367157,0.896547,0.341542,469.000000,426.000000,43.000000,105.000000,0.000000,0.000000,0.000000,0.000000,0.000000;
#CREDIT:iamthek3n;
#NOTES:
0000
0000
0000
0000
,
0000
0000
0000
0000
,
0000
0000
0000
0000
,
1100
0000
0100
1000
0000
1000
0001
0000
0000
0010
0000
0010
0100
0000
0010
0000
,
1000
0000
0010
0001
0000
0001
1000
0000
0000
0100
0000
0100
0001
0000
0100
0000
,
1000
0000
0010
0100
0000
0100
0001
0000
0000
0100
0000
0100
1000
0000
0100
0000
,
0001
0000
0010
0001
0000
0001
1000
0000
0000
0100
0000
0100
0001
0000
0100
0000
,
1000
0000
0010
0100
0000
0100
1000
0000
0000
0100
0000
0100
0010
0000
1000
0000
,
0001
0000
1000
0010
0000
0010
0100
0000
0000
0001
0000
0001
1000
0000
0001
0000
,
0201
0000
0310
0000
2000
0000
3100
0020
,
0000
0230
0000
2300
0000
3002
0000
0203
,
0001
0300
0101
0000
0002
0000
0023
0000
,
2030
0000
3010
0200
0000
2300
0000
3002
,
0000
0203
0000
0320
0100
0000
0031
0010
,
2000
3200
0302
0023
,
2030
0000
3001
0200
1000
0000
0301
0000
,
0101
0000
0000
0000
0110
0000
0000
0000
1001
0000
0000
0000
1100
0000
0001
1000
,
0001
0000
0000
0000
1001
0000
0000
1000
0000
0000
1000
0000
0001
0000
0100
0001
,
1000
0000
0100
0000
0010
0000
0000
0100
0000
0000
0100
0000
1000
0000
0001
0100
,
0001
0000
0010
0000
0100
0000
0000
1000
0000
0000
1000
0000
0001
0000
1000
0001
,
0100
0000
0010
0000
1000
0000
0000
0100
0000
0000
0100
0000
0001
0000
0100
0010
,
0001
0000
1000
0000
0010
0000
0000
0100
0000
0000
0100
0000
0001
0000
1000
0001
,
0100
0000
0001
0000
1000
0000
0000
0100
0000
0000
0100
0000
0010
0000
0100
1000
,
0001
0000
0100
0000
0001
0000
0000
1000
0000
0000
1000
0000
0001
0000
0100
0000
,
0001
0000
0000
0000
1001
0000
0000
1000
0100
0000
1000
0000
0001
0000
0010
0100
,
0020
0000
0031
0022
0033
0220
0000
0330
,
1001
0000
0000
0000
1000
0000
0010
0000
1000
0100
0010
0000
0100
0010
0001
0000
,
0200
0000
0301
0202
0303
2200
3300
0202
,
0303
0022
0033
0220
0330
2002
0000
3003
,
0101
1000
0002
0000
0023
0000
1030
0020
,
0001
0000
0000
0000
0130
0000
0010
0000
0001
0010
0100
0000
0010
0100
1000
0000
,
2000
0000
3200
0000
0301
0200
0000
2300
,
0000
3020
0000
2030
0000
3002
1000
0000
,
1003
0010
1000
0000
0001
0100
1000
0001
,
1000
0100
0001
0000
1000
0100
0001
1000
,
0010
0100
1000
0000
0001
0010
1000
0010
,
0100
1000
0001
0000
1000
0010
0001
0010
,
1000
0000
0100
0000
0010
0100
1000
0000
0010
0000
0100
0010
1000
0001
0100
0000
,
0001
0000
1000
0000
0100
0010
0001
0000
1000
0000
0001
0100
0010
1000
0001
0000
,
1000
0000
0010
0000
0100
0010
0001
0000
0010
0000
1000
0100
0010
0100
1000
0000
,
0001
0000
0100
0000
0010
0100
1000
0000
0100
0001
0000
0100
0010
0100
0001
1000
,
0001
0000
0100
0000
0010
0000
1000
0000
1000
0100
0010
0001
0100
0010
1000
0000
,
0001
0000
0010
0000
1000
0000
0010
0000
0001
0010
0100
1000
0010
0100
0001
0000
,
1000
1001
0010
0110
,
2000
0000
0000
0000
0010
0001
0010
0001
,
3020
0000
0130
0220
0330
0022
0000
0033
,
1001
0000
0000
0010
1000
0000
0001
0000
1000
0010
0001
0000
1000
0100
0001
0000
,
0202
0303
1000
2200
3300
0220
0330
0202
,
0303
0022
0033
0220
0330
2002
0000
3003
,
0100
0000
1100
1000
0002
0000
0103
0020
,
0001
0000
0000
0000
1030
0000
0010
0000
0100
0010
1000
0000
0001
0010
0100
0000
,
0200
0000
2300
0000
3001
0100
0010
0200
,
0301
2000
0001
0000
0010
0000
3001
0100
,
0202
0303
1000
2020
3030
0022
0000
0033
,
1001
0000
0000
1000
0100
0000
1000
0000
0001
1000
0010
0000
0100
0001
0010
0000
,
0002
0000
0013
0220
0330
2002
3003
2020
,
3030
0220
0330
0022
0033
0202
0000
0303
,
1000
0000
1001
0000
0010
1000
0001
0010
,
0100
0000
1000
0000
0001
1000
0001
0000
0100
0001
1000
0000
0100
0010
0001
0000
,
0010
0000
0001
0000
1000
0001
1000
0000
0001
0000
0100
0000
0010
0100
0001
0000
,
0100
0000
0100
0000
0010
0100
0001
0000
0010
0100
1000
0000
0100
0010
0001
0000
,
0002
0000
0013
0200
0000
2300
0000
0000
,
3002
0000
0003
0000
0000
0000
0000
0100
,
0020
0000
0130
0002
0000
0023
0000
2030
,
0000
3200
0000
0302
0000
2000
0000
0000
,
3003
0000
0000
0000
;
