#TITLE:Simulated Paradise;
#SUBTITLE:;
#ARTIST:Promis3;
#TITLETRANSLIT:;
#SUBTITLETRANSLIT:;
#ARTISTTRANSLIT:;
#GENRE:Dance Pop;
#CREDIT:;
#BANNER:Simulated Paradise-bn.png;
#BACKGROUND:Simulated Paradise-bg.png;
#LYRICSPATH:;
#CDTITLE:cdtitle.png;
#MUSIC:Simulated Paradise.ogg;
#OFFSET:-0.003000;
#SAMPLESTART:50.659000;
#SAMPLELENGTH:15.738000;
#SELECTABLE:YES;
#BPMS:0.000000=122.000000
;
#STOPS:
;
#BGCHANGES:0.000=Simulated Paradise.avi=1.000=1=0=0=StretchNoLoop==CrossFade==,
99999=-nosongbg-=1.000=0=0=0 // don't automatically add -songbackground-
;
#KEYSOUNDS:;
#ATTACKS:;

//---------------dance-single - ----------------
#NOTES:
     dance-single:
     X-Scale 2:
     Beginner:
     1:
     0.088242,0.148808,0.018718,0.000000,0.000000,66.000000,64.000000,2.000000,0.000000,0.000000,0.000000,0.088242,0.148808,0.018718,0.000000,0.000000,66.000000,64.000000,2.000000,0.000000,0.000000,0.000000:
0000
0000
0000
0000
,
0000
0000
0000
0000
,
0000
0000
0000
0000
,
0000
0000
0000
0000
,
0000
0000
0000
0000
,
0000
0000
0000
0000
,
0000
0000
0000
0000
,
0000
0000
0000
0000
,
0000
0000
0000
0000
,
0000
0000
0000
0000
,
1000
0000
0001
0000
,
1000
0000
0001
0000
,
0010
0000
0100
0000
,
0010
0000
0100
0000
,
1000
0000
0001
0000
,
1000
0000
0001
0000
,
0100
0000
0010
0000
,
1000
0000
0000
0000
,
1001
0000
0000
0000
,
0000
0000
0000
0000
,
0000
0000
0000
0000
,
0000
0000
0000
0000
,
0001
0000
0000
0000
,
1000
0000
0000
0000
,
0001
0000
0000
0000
,
0000
0000
0000
0000
,
1001
0000
1000
0000
,
0010
0000
1000
0000
,
0001
0000
0100
0000
,
0001
0000
0000
0000
,
1000
0000
0100
0000
,
0010
0000
0100
0000
,
1000
0000
0001
0000
,
1000
0000
0000
0000
,
0000
0001
0000
1000
,
0000
0001
0000
1000
,
0000
0010
0000
0100
,
0000
0010
0000
0100
,
0000
0001
0000
0010
,
0000
0001
0000
0010
,
0000
0100
0000
1000
,
0000
0100
0000
1000
,
0000
0001
0000
0100
,
0000
0010
0000
1000
,
0000
0100
0000
0010
,
0000
0001
0000
0000
,
1000
0000
0000
0000
,
0001
0000
0000
0000
,
1000
0000
0000
0000
,
0001
0000
0000
0000
,
0010
0000
0000
0000
,
0100
0000
0000
0000
,
1000
0000
0000
0000
,
0001
0000
0000
0000
;

//---------------dance-single - ----------------
#NOTES:
     dance-single:
     X-Scale 5:
     Easy:
     3:
     0.187180,0.276675,0.028077,0.140385,0.000000,140.000000,137.000000,3.000000,15.000000,0.000000,0.000000,0.187180,0.276675,0.028077,0.140385,0.000000,140.000000,137.000000,3.000000,15.000000,0.000000,0.000000:
// measure 0
0000
0000
0000
0000
,  // measure 1
0000
0000
0000
0000
,  // measure 2
0100
0000
0000
0000
,  // measure 3
1000
0000
0000
0000
,  // measure 4
0001
0000
0000
0000
,  // measure 5
0000
0000
0000
0000
,  // measure 6
0100
0000
0000
0000
,  // measure 7
0000
0000
0000
0000
,  // measure 8
0010
0000
0000
0000
,  // measure 9
0000
0000
0000
0000
,  // measure 10
0001
0000
1000
0000
,  // measure 11
0001
0000
1000
0000
,  // measure 12
0010
0000
0100
0000
,  // measure 13
0010
0000
0100
0000
,  // measure 14
0001
0000
1000
0000
,  // measure 15
0001
0000
1000
0000
,  // measure 16
0100
0000
0010
0000
,  // measure 17
0002
0000
0000
0000
,  // measure 18
1003
0000
0000
0000
,  // measure 19
0100
0000
0000
0000
,  // measure 20
0010
0000
0000
0000
,  // measure 21
0001
0000
0000
0000
,  // measure 22
1000
0000
0001
0000
,  // measure 23
0100
0000
0001
0000
,  // measure 24
1000
0000
0001
0000
,  // measure 25
0010
0000
0000
0000
,  // measure 26
1001
0100
1000
0001
,  // measure 27
0100
0001
1000
0100
,  // measure 28
0010
0100
1000
0001
,  // measure 29
0000
0010
0000
0010
0000
0010
0000
0000
,  // measure 30
1100
0100
1000
0001
,  // measure 31
1000
0010
1000
0001
,  // measure 32
0010
0100
0010
0001
,  // measure 33
2000
0000
0000
0000
,  // measure 34
3100
0000
1100
0000
0100
1000
0001
0200
,  // measure 35
0000
0320
0000
2030
0000
3002
0000
0000
,  // measure 36
0013
0000
0001
0000
1000
0200
0000
2300
,  // measure 37
0000
3002
0000
2003
0000
3020
0000
0000
,  // measure 38
0130
0010
0100
0001
,  // measure 39
1000
0100
0010
0002
0000
2003
0000
0000
,  // measure 40
3001
1000
0001
0010
,  // measure 41
0100
0010
0100
2000
0000
3001
0010
0200
,  // measure 42
0000
1300
0001
1000
,  // measure 43
0010
0000
1000
0000
0001
0010
0100
0010
,  // measure 44
0001
1000
0001
0100
,  // measure 45
0001
1000
0000
1000
0000
1000
0000
0000
,  // measure 46
0001
0100
0001
0000
0010
0000
0100
0000
,  // measure 47
1000
0100
1000
0000
0001
0000
1000
0000
,  // measure 48
0100
0010
0000
0010
0000
0001
0000
0001
,  // measure 49
0000
1000
0000
1000
0000
0010
0000
0010
,  // measure 50
0100
0000
0000
0000
,  // measure 51
0001
0000
0000
0000
,  // measure 52
1000
0000
0000
0000
,  // measure 53
0100
0000
0000
0010
;

//---------------dance-single - ----------------
#NOTES:
     dance-single:
     X-Scale 10:
     Medium:
     7:
     0.383719,0.477894,0.140385,0.318206,0.304168,287.000000,272.000000,15.000000,34.000000,0.000000,0.000000,0.383719,0.477894,0.140385,0.318206,0.304168,287.000000,272.000000,15.000000,34.000000,0.000000,0.000000:
// measure 0
0000
0000
0000
0000
,  // measure 1
0000
0000
0000
0000
,  // measure 2
1000
0000
0000
0000
0000
0000
0000
0001
,  // measure 3
0010
0001
0000
0000
0001
0000
0000
0001
0000
0000
0100
0000
0000
0000
0000
0000
,  // measure 4
0010
0000
0000
0100
0002
0000
0000
0000
0003
0000
0000
0000
0000
0000
0010
0000
,  // measure 5
0000
0100
0000
0000
0100
0000
0000
0100
0000
0000
1000
0000
0000
0000
0000
0000
,  // measure 6
0001
1000
0002
0000
0003
0000
0000
0100
,  // measure 7
0100
0010
0000
0000
0010
0000
0000
0010
0000
0000
1000
0000
0000
0000
0000
0000
,  // measure 8
0001
0010
0200
0000
0300
0000
2000
0000
,  // measure 9
3002
2003
3002
0003
,  // measure 10
1001
1000
0100
1000
0001
0100
0001
0010
,  // measure 11
0010
0100
0000
0000
1100
0000
1000
0100
0000
0000
1000
0000
0001
0000
1000
0000
,  // measure 12
0100
0000
0000
0100
0010
0000
0001
0000
1000
0000
0001
0000
0100
0000
0010
0000
,  // measure 13
1000
0100
0000
0000
0100
0000
0000
0100
0010
0000
0001
0000
0000
0000
0001
0000
,  // measure 14
0100
0000
0010
0000
0001
0000
0010
0000
0100
0000
0000
0001
1000
0000
0100
0000
,  // measure 15
0100
0010
0000
0000
0010
0000
0000
0010
0000
0000
0001
0000
0100
0000
0010
0000
,  // measure 16
0100
0002
1000
0000
0103
0001
1000
0000
,  // measure 17
0200
0000
0000
0300
,  // measure 18
1100
0000
0000
0000
1000
0100
0020
0000
,  // measure 19
0032
0000
0003
0000
0100
0001
2000
0000
,  // measure 20
3020
0000
0000
0000
0030
0000
0000
0000
1000
0000
0000
0001
0020
0000
0000
0000
,  // measure 21
0230
0000
0300
0000
0001
0100
1000
0000
,  // measure 22
0001
0000
0000
0010
0000
0000
0010
0000
0000
0100
0000
0000
0100
0000
0000
0000
,  // measure 23
1000
0000
0000
1000
0000
0000
0001
0000
0000
0001
0000
0000
1000
0000
0000
0000
,  // measure 24
0001
0000
0000
0100
0000
0000
0001
0000
1000
0000
0000
1000
0200
0000
0000
0000
,  // measure 25
0320
0030
0000
0000
,  // measure 26
1001
0000
0000
0000
0100
0000
1000
0100
0000
0000
1000
0000
0000
0001
0000
0000
,  // measure 27
0010
0001
0000
0000
1000
0000
0000
0001
0000
0010
0100
0000
0000
0100
0000
0000
,  // measure 28
1000
0000
0000
0001
0000
0001
0100
0000
0000
0010
0100
0000
0000
0100
0000
0000
,  // measure 29
0001
0000
0000
0001
0000
0000
0001
0000
0000
0001
1000
0000
1001
0000
0000
0000
,  // measure 30
0110
0000
0010
0000
1000
0000
0001
0100
0000
0010
1000
0000
0000
1000
0000
0000
,  // measure 31
0100
0010
0000
0001
0010
0000
0000
0001
0000
0000
1000
0100
0000
1000
0002
0000
,  // measure 32
0100
0000
0003
0100
0001
0000
0000
0010
0000
0000
0100
0000
0000
0100
0000
0000
,  // measure 33
2000
0000
0000
0000
,  // measure 34
3001
0000
0010
0000
0011
0000
0000
0001
0000
0000
1000
0000
0100
0000
0020
0000
,  // measure 35
0000
2030
0000
3020
0000
0032
0010
0000
,  // measure 36
1003
0001
0000
0010
0100
0000
0000
0100
0000
0000
2000
0000
0000
0000
3020
0000
,  // measure 37
0000
0032
0000
0203
0000
2300
0100
0000
,  // measure 38
3001
0010
0000
0100
1000
0000
0001
0100
0000
0000
0001
0000
0010
0000
0200
0000
,  // measure 39
0000
0301
0100
2000
0000
3002
1000
0000
,  // measure 40
0013
0001
0000
1000
0010
0000
1000
0000
0001
0000
1000
0000
0100
0000
0020
0000
,  // measure 41
0000
1030
0010
0002
0000
0103
0001
0010
,  // measure 42
0010
0000
0000
0000
1001
0000
0000
0100
1000
0000
0001
0000
0000
0001
0000
0000
,  // measure 43
0100
0001
0000
0000
0001
0000
0000
0010
0000
0000
0100
1000
0000
0001
0200
0000
,  // measure 44
0000
0000
0000
0000
0301
0000
0000
0001
1000
0000
0100
0000
0000
0100
0000
0000
,  // measure 45
0010
0001
0000
1000
0010
0000
0100
0001
0000
0000
0010
0000
0011
0000
0000
0000
,  // measure 46
1010
0010
1000
0000
0001
0010
0100
0000
,  // measure 47
0010
0001
1000
0000
0010
0100
0001
0000
,  // measure 48
0010
0011
1000
1001
,  // measure 49
0100
0000
1100
0000
1000
0100
0010
0000
,  // measure 50
0011
0000
0000
0000
,  // measure 51
1000
0000
0000
0000
,  // measure 52
0001
0000
0010
0000
,  // measure 53
0100
0000
0000
1100
;

//---------------dance-single - ----------------
#NOTES:
     dance-single:
     X-Scale 11:
     Hard:
     8:
     0.490679,0.579849,0.093590,0.336924,0.491348,367.000000,357.000000,10.000000,36.000000,0.000000,0.000000,0.490679,0.579849,0.093590,0.336924,0.491348,367.000000,357.000000,10.000000,36.000000,0.000000,0.000000:
// measure 0
0000
0000
0000
0000
,  // measure 1
0000
0000
0000
0000
,  // measure 2
0002
0000
0000
0013
0200
0000
0000
0000
0300
0000
0000
0000
0000
0000
1000
0000
,  // measure 3
0001
1000
0000
0000
0100
0000
0000
0100
0000
0000
0010
0000
0100
0000
1000
0000
,  // measure 4
0002
0000
0000
1003
0020
0000
0000
0000
0030
0000
0000
0000
0000
0000
0010
0000
,  // measure 5
0000
0100
0000
0000
0100
0000
0000
0100
0000
0000
0001
0000
0000
0000
1000
0000
,  // measure 6
0100
1000
0002
0000
0003
0000
0000
0100
,  // measure 7
0100
0010
0000
0000
0010
0000
0000
0010
0000
0000
1000
0000
0100
0000
0001
0000
,  // measure 8
1000
0010
0002
0000
0003
0000
0000
0010
,  // measure 9
0000
0010
0000
0000
0010
0000
0000
0010
0000
0000
0100
0000
0010
0000
0000
0000
,  // measure 10
1001
0000
0000
0010
0001
0000
1000
0000
0010
0000
0001
0000
0010
0000
1000
0000
,  // measure 11
0001
0010
0000
0000
0010
0000
0000
0010
0100
0000
1000
0000
0001
0000
1000
0000
,  // measure 12
0100
0000
0000
1000
0010
0000
0100
0000
1000
0000
0001
0000
0010
0000
0100
0000
,  // measure 13
0001
1000
0000
0000
1000
0000
0000
1000
0001
0000
0100
0000
0000
0000
0100
0000
,  // measure 14
1001
0001
0100
1000
0100
0001
1000
0100
,  // measure 15
0100
0010
0000
0000
0001
0000
0100
0000
1000
0000
0100
0000
0001
0000
1000
0000
,  // measure 16
0100
0020
0001
0000
0130
0000
0010
0000
,  // measure 17
0100
0000
0000
1000
0100
0001
0010
0000
,  // measure 18
1001
0000
0000
0100
0010
1000
0002
0000
,  // measure 19
0023
0000
0030
0100
1000
0001
0200
0000
,  // measure 20
0320
0000
0000
0000
0030
0000
1000
0000
0100
0000
0000
0001
0200
0000
0000
0000
,  // measure 21
2300
0000
3000
0001
0010
1000
0100
0000
,  // measure 22
0001
0000
0000
0001
1000
0000
0100
0010
0000
0010
0100
0000
2000
0000
0000
0000
,  // measure 23
3002
0100
0000
0000
0103
0000
0010
0000
0001
0000
0010
0000
2000
0000
0000
0000
,  // measure 24
3002
1000
0000
0000
1003
0000
0100
0000
0020
0000
0000
0130
2000
0000
0000
0000
,  // measure 25
0002
0000
0000
3003
,  // measure 26
0001
0010
0000
1000
0010
0000
0001
0010
0000
0000
0100
0000
0000
1000
0000
1000
,  // measure 27
0001
0100
0000
0010
0100
0000
0001
1000
0000
0000
0100
0000
0000
0100
0000
0000
,  // measure 28
0010
0001
0000
1000
0001
0000
1000
0010
0000
0100
0001
0000
0000
0010
0000
0010
,  // measure 29
0100
1000
0000
0000
1000
0000
0000
1000
0000
0001
0010
0000
0011
0000
0000
0000
,  // measure 30
1000
0001
0000
0010
1000
0000
0010
0001
0000
1000
0100
0000
0000
0100
0000
0100
,  // measure 31
1000
0001
0000
0100
0001
0000
0010
0100
0000
0000
1000
0100
0000
1000
0002
0000
,  // measure 32
0000
0000
0103
0000
0001
0000
0010
0100
0000
0100
1000
0000
0001
1000
0000
0000
,  // measure 33
0200
0000
0000
0000
,  // measure 34
0310
0000
0001
0000
0011
0000
0000
0001
0000
0000
1000
0000
0100
1000
0000
0000
,  // measure 35
0001
0100
0000
0100
0010
0000
1000
0100
0000
0000
0010
0000
0010
0001
0000
0000
,  // measure 36
1000
0001
0000
0000
1001
0000
0000
0100
1000
0000
0001
0000
0100
0001
0000
0000
,  // measure 37
1000
0100
0000
0001
0100
0000
1000
0000
0000
0100
1000
0000
0001
0100
0000
0000
,  // measure 38
0001
0010
0000
0100
1000
0000
0001
0100
0000
0000
0001
0010
0000
0010
0000
0100
,  // measure 39
0010
0001
0000
1000
0100
0000
1000
0001
0000
0010
0100
0000
1000
0000
0000
0000
,  // measure 40
0001
0100
0000
1000
0100
0000
0001
1000
0001
0000
1000
0000
0100
0000
0020
0000
,  // measure 41
0000
1030
0010
0002
0000
0103
0001
0010
,  // measure 42
0010
0000
0000
0000
1001
0000
0100
1000
0001
0000
1000
0000
0100
0010
0000
0010
,  // measure 43
0001
1000
0000
0001
0010
0000
0100
1000
0000
0000
0001
0100
0000
0100
0010
0000
,  // measure 44
1000
0000
0000
0000
1001
0000
1000
0100
0000
0000
1000
0000
0000
1000
0000
1000
,  // measure 45
0001
0100
0000
0100
0010
0000
0100
0001
0000
0000
0001
0000
0011
0000
0000
0000
,  // measure 46
0001
1000
0001
0000
1000
0000
0100
0000
0010
0100
0010
0000
0001
0000
0010
0000
,  // measure 47
0100
0010
0100
0000
1000
0000
0001
0000
0100
0001
0100
0000
0001
0000
1000
0000
,  // measure 48
0001
0010
1000
0000
0001
0100
1000
0000
0001
0010
1000
0000
0001
0100
1000
0000
,  // measure 49
0002
0100
0000
0103
,  // measure 50
0002
0000
0003
0000
1000
0100
0002
0000
,  // measure 51
2003
0000
3020
0000
0130
0010
0002
0000
,  // measure 52
2003
0000
0000
0000
3001
0000
0100
0000
2000
0000
0000
3100
0002
0000
0000
0000
,  // measure 53
2003
0000
3000
0000
0000
0000
2002
3003
;
