#TITLE:Silver Cross;
#SUBTITLE:;
#ARTIST:Charli XCX;
#TITLETRANSLIT:;
#SUBTITLETRANSLIT:;
#ARTISTTRANSLIT:;
#GENRE:Hyper Pop;
#CREDIT:;
#BANNER:Silver Cross-bn.png;
#BACKGROUND:Silver Cross-bg.png;
#LYRICSPATH:;
#CDTITLE:cdtitle.png;
#MUSIC:Silver Cross.ogg;
#OFFSET:-0.004000;
#SAMPLESTART:60.448002;
#SAMPLELENGTH:14.222000;
#SELECTABLE:YES;
#BPMS:0.000000=135.000000
;
#STOPS:
;
#BGCHANGES:;
#KEYSOUNDS:;
#ATTACKS:;

//---------------dance-single - ----------------
#NOTES:
     dance-single:
     X-Scale 13:
     Hard:
     9:
     0.556490,0.609577,0.016299,0.448219,0.403397,478.000000,476.000000,2.000000,55.000000,0.000000,0.000000,0.556490,0.609577,0.016299,0.448219,0.403397,478.000000,476.000000,2.000000,55.000000,0.000000,0.000000:
// measure 0
0000
0000
0000
0000
,  // measure 1
0000
0000
0000
0000
,  // measure 2
2000
0000
0000
0000
3001
0000
0010
0200
0000
0000
0000
0000
0001
0000
0000
0000
,  // measure 3
1300
0000
1000
0100
0010
0000
0000
0000
0001
0000
0010
0200
0000
0000
0000
0000
,  // measure 4
2300
0000
0000
0000
3010
0000
1000
0020
0000
0000
0000
0000
0001
0000
0000
0000
,  // measure 5
0130
0000
0010
0100
0001
0000
0000
0000
1000
0000
0001
0020
0000
0000
0000
0000
,  // measure 6
0230
0000
0000
0000
0310
0000
0100
2000
0000
0000
0000
0000
0001
0000
0000
0000
,  // measure 7
3100
0000
1000
0001
0100
0000
0000
0000
0010
0000
1000
0100
0010
0000
0100
0000
,  // measure 8
2000
0000
0000
0000
3001
0000
0100
0001
1000
0000
0100
0000
0020
0000
0000
0000
,  // measure 9
0031
0000
0010
0100
0010
0000
0000
0000
0001
0000
1000
0002
0000
0000
0000
0000
,  // measure 10
0203
0000
0000
0000
0310
0000
1000
0200
0000
0000
0000
0000
0001
0000
0000
0000
,  // measure 11
1300
0000
1000
0010
0100
0000
0000
0000
0001
0000
1000
0002
0000
0000
0000
0000
,  // measure 12
0203
0000
0000
0000
0301
0000
0100
0020
0000
0000
0000
0000
0001
0000
0000
0000
,  // measure 13
0130
0000
0010
0100
0001
0000
0000
0000
1000
0000
0001
0020
0000
0000
0000
0000
,  // measure 14
0230
0000
0000
0000
1300
0000
0001
2000
0000
0000
0000
0000
0010
0000
0000
0000
,  // measure 15
3100
0000
1000
0100
1000
0000
0000
0000
0001
0000
0100
0010
1000
0000
0001
0000
,  // measure 16
0020
0000
0000
0000
0130
0000
0010
0001
1000
0000
0010
0000
0200
0000
0000
0000
,  // measure 17
0301
0000
0010
0100
0010
0000
0000
0000
0001
0000
1000
0001
0010
0000
0100
0000
,  // measure 18
1000
0001
0100
1000
0100
0001
0020
0000
,  // measure 19
0000
0000
0030
0000
0200
0000
0000
0000
0300
0000
0000
1000
0100
0000
1000
0000
,  // measure 20
0002
0000
0013
1000
0010
0001
2000
0000
,  // measure 21
0000
0000
3000
0000
0020
0000
0000
0000
0130
0000
0010
0100
0001
0000
0010
0000
,  // measure 22
1000
0010
0001
1000
0010
0100
0002
0000
,  // measure 23
0000
0000
0003
0000
2000
0000
0000
0000
3010
0000
1000
0001
0010
0000
0100
0000
,  // measure 24
0010
0001
1000
0010
1000
0001
0010
1000
,  // measure 25
0001
0100
1000
0001
1000
0100
0010
0001
,  // measure 26
0011
0000
0000
0010
0001
0000
0001
0000
0000
1000
0010
0000
1000
0000
0000
0000
,  // measure 27
0001
0000
0000
0100
0010
0000
0010
0000
0000
1000
0001
0000
0010
0000
0010
0000
,  // measure 28
0010
0000
0000
0100
1000
0000
1000
0000
0000
0001
0010
0000
0010
0000
0000
0000
,  // measure 29
0001
0000
0000
0100
0010
0000
0010
0000
0000
1000
0001
0000
0010
0000
0010
0000
,  // measure 30
0010
0000
0000
0100
1000
0000
1000
0000
0000
0010
1000
0000
2000
0000
0000
0000
,  // measure 31
3001
0000
0000
0010
0100
0000
0100
0000
0000
1000
0010
0000
1000
0000
1000
0000
,  // measure 32
1000
0000
0000
0001
0010
0000
0010
0000
0000
0100
0010
0000
0002
0000
0000
0000
,  // measure 33
1003
0000
0100
0000
0010
0000
0001
0000
1000
0001
1000
0001
1000
0001
1000
0001
,  // measure 34
1000
0000
0000
0100
1000
0001
1000
0000
0100
0000
0010
0000
0002
0000
0000
0000
,  // measure 35
0103
0001
0100
0000
0001
0000
1000
0000
0100
1000
0100
0000
0010
0000
0010
0000
,  // measure 36
0001
0000
0000
1000
0010
1000
0001
0000
0010
0000
1000
0000
0010
0000
0100
0000
,  // measure 37
1000
0100
1000
0000
0001
0000
1000
0000
0010
0100
0010
0000
1000
0000
0001
0000
,  // measure 38
0100
0000
0000
0001
1000
0100
1000
0000
0000
0100
0010
0000
0002
0000
0000
0000
,  // measure 39
0013
0001
1000
0000
0001
0000
0100
0000
0010
0100
0001
0000
0010
0000
0100
0000
,  // measure 40
1000
0000
0000
0010
1000
0001
0010
0000
0100
0000
1000
0000
0010
0000
0001
0000
,  // measure 41
0010
0100
0010
1000
0100
0010
0001
0001
,  // measure 42
1001
0000
0000
1000
0100
0000
1000
0000
0001
0100
0001
0000
0010
0000
0100
1000
,  // measure 43
0001
1000
0100
0000
0010
0000
0010
0000
0001
0100
0001
0000
0010
0000
0100
0000
,  // measure 44
1000
0000
0000
0100
1000
0001
1000
0000
0010
0100
0001
0000
0001
0000
0010
0000
,  // measure 45
0100
0010
0001
0000
1000
0000
1000
0000
0001
0010
0100
0000
1000
0000
1000
0000
,  // measure 46
0010
0000
0000
0100
0010
1000
0001
0000
0000
0010
0001
0000
1000
0000
0001
0000
,  // measure 47
0010
0100
1000
0000
0001
0000
0001
0000
1000
0100
0010
0000
0001
0000
0001
0000
,  // measure 48
1000
0000
0000
0010
1000
0001
1000
0000
0000
0100
1000
0000
1000
0000
0000
0100
,  // measure 49
0010
0001
1000
0000
0001
0000
0001
0000
0100
0001
1000
0000
0010
0000
0010
0000
,  // measure 50
0200
0000
0000
0000
0300
0000
0001
2000
0000
0000
0000
0000
3001
0000
0000
0000
,  // measure 51
1000
0000
0100
0010
0002
0000
0000
0000
1003
0000
0001
2000
0000
0000
0000
0000
,  // measure 52
3020
0000
0000
0000
0130
0000
0001
0020
0000
0000
0000
0000
1030
0000
0010
0000
,  // measure 53
0001
0000
0010
0100
2000
0000
0000
0000
3010
0000
0100
0002
0000
0000
0000
0000
,  // measure 54
0023
0000
0030
0000
0100
0010
0100
2000
0000
0000
0000
0000
3001
0000
0000
0000
,  // measure 55
0010
0000
0100
0000
0200
0000
0000
0000
1300
0000
0001
2000
0000
0000
0000
0000
,  // measure 56
3020
0000
0000
0000
0130
0000
0010
2000
0000
0000
0000
0000
3100
0000
0000
0000
,  // measure 57
1000
0000
0001
0000
0002
0000
0000
0000
0103
0000
0010
0200
0000
0000
0000
0000
,  // measure 58
0301
0000
0100
0010
0100
0000
0001
0001
,  // measure 59
0001
0000
1000
0000
0100
0000
0100
0000
0100
0000
0010
0200
0000
0000
0000
0000
,  // measure 60
1300
0100
0001
0100
1000
0010
0001
0010
,  // measure 61
1000
0000
0001
0000
0100
0000
0100
0000
0010
0000
0100
0002
0000
0000
0000
0000
,  // measure 62
1003
0001
0010
1000
0001
0100
1000
0001
,  // measure 63
1000
0000
0100
0000
0010
0000
0010
0000
0001
0000
1000
0002
0000
0000
0000
0000
,  // measure 64
0013
0000
0000
0000
0001
0000
1000
0020
0000
0000
0000
0000
0130
0000
0000
0000
,  // measure 65
0001
0000
1000
0100
0020
0000
0000
0000
0031
0000
0010
0200
0000
0000
0000
0000
,  // measure 66
0310
0002
0000
0000
0000
0000
0000
0000
0000
0000
0000
0000
0000
0000
0000
0000
,  // measure 67
0000
0000
0000
0000
,  // measure 68
0003
0000
0000
0000
;

//---------------dance-single - ----------------
#NOTES:
     dance-single:
     X-Scale 11:
     Medium:
     8:
     0.488966,0.526453,0.016299,0.391173,0.195586,420.000000,418.000000,2.000000,48.000000,0.000000,0.000000,0.488966,0.526453,0.016299,0.391173,0.195586,420.000000,418.000000,2.000000,48.000000,0.000000,0.000000:
// measure 0
0000
0000
0000
0000
,  // measure 1
0000
0000
0000
0000
,  // measure 2
0001
0000
1000
0100
0020
0000
0230
0000
,  // measure 3
0310
0000
0001
0010
0001
0000
0000
0000
1000
0000
0100
1000
0000
0000
0000
0000
,  // measure 4
0001
0000
0010
0100
2000
0000
3002
0000
,  // measure 5
2003
0000
0000
0000
3200
0000
0000
0000
0310
0000
0001
0010
0002
0000
0000
0000
,  // measure 6
1003
0000
0010
0100
0002
0000
2003
0000
,  // measure 7
3010
0000
1000
0010
1000
0000
0000
0000
0001
0000
0100
0010
0100
0000
0010
0000
,  // measure 8
2000
0000
3100
0001
0100
1000
0200
0000
,  // measure 9
0310
0000
0100
0010
0100
0000
0000
0000
1000
0000
0001
1000
0000
0000
0000
0000
,  // measure 10
0010
0000
0100
0010
2000
0000
3002
0000
,  // measure 11
0013
0000
0100
0010
0100
0000
0000
0000
1000
0000
0010
1000
0000
0000
0000
0000
,  // measure 12
0001
0000
0100
0010
2000
0000
3200
0000
,  // measure 13
0302
0000
0000
0000
0203
0000
0000
0000
1300
0000
0100
1000
0020
0000
0000
0000
,  // measure 14
0130
0000
0010
0100
0002
0000
0023
0000
,  // measure 15
0130
0000
0010
0001
0010
0000
0000
0000
0001
0000
1000
0010
1000
0000
0001
0000
,  // measure 16
0200
0000
0310
0100
0001
1000
0200
0000
,  // measure 17
0310
0000
0001
0010
0001
0000
0000
0000
1000
0000
0010
1000
0000
0000
0000
0000
,  // measure 18
1010
0000
0000
0000
1000
0000
0001
1000
0000
0000
0000
0000
0200
0000
0000
0000
,  // measure 19
0000
0000
0310
0100
0020
0000
0000
0000
0031
0000
1000
0001
0000
0000
0000
0000
,  // measure 20
1000
0000
0000
0000
0010
0000
0100
0010
0000
0000
0000
0000
0200
0000
0000
0000
,  // measure 21
0000
0000
0301
0100
0002
0000
0000
0000
1003
0000
0001
0010
0000
0000
0000
0000
,  // measure 22
0100
0000
0000
0000
0010
0000
0001
0010
0000
0000
0000
0000
0002
0000
0000
0000
,  // measure 23
0000
0000
0103
0001
0200
0000
0000
0000
0310
0000
1000
0000
0001
0000
0010
0000
,  // measure 24
1000
0010
0100
1000
0001
1000
0100
0001
,  // measure 25
0100
0010
0001
1000
0010
0100
0002
0000
,  // measure 26
1003
0000
0000
1000
0000
0000
1000
0000
0000
0100
0010
0000
0100
0000
1000
0000
,  // measure 27
0002
0000
1003
0002
0000
1003
0001
0100
,  // measure 28
0001
0000
0000
0001
0000
0000
0001
0000
0000
0001
1000
0000
0010
0000
1000
0000
,  // measure 29
0200
0000
0310
0200
0000
1300
0100
0010
,  // measure 30
0001
0000
1000
0001
0100
0000
0010
0100
,  // measure 31
0001
0000
0010
0100
1000
0000
0001
0010
,  // measure 32
0100
0000
1000
0001
1000
0100
0001
0100
,  // measure 33
1000
0010
0100
0010
0001
0010
2000
0000
,  // measure 34
3001
0000
0000
0000
1000
0100
1000
0000
0001
0000
0100
0000
0010
0000
0100
0000
,  // measure 35
0002
0000
0103
0002
0000
0103
0001
1000
,  // measure 36
0001
0000
0000
0000
0100
0010
0100
0000
0000
0000
0001
0000
0010
0000
0100
0000
,  // measure 37
2000
0000
3001
2000
0000
3100
0010
0001
,  // measure 38
1000
0000
0000
0000
0001
1000
0001
0000
0010
0000
0100
0000
1000
0000
0001
0000
,  // measure 39
0200
0000
1300
0200
0000
0310
0100
0001
,  // measure 40
1000
0000
0000
0000
0100
0010
0100
0000
1000
0000
0001
0000
1000
0000
0100
0000
,  // measure 41
0001
0100
1000
0010
0100
0001
1000
1000
,  // measure 42
1001
0000
0000
0001
0100
0000
0100
0000
0000
0010
0100
0000
0100
0000
0001
0000
,  // measure 43
2000
0000
3001
2000
0000
3001
1000
0100
,  // measure 44
0010
0000
0000
0001
1000
0000
1000
0000
0000
0010
1000
0000
0100
0000
0010
0000
,  // measure 45
0002
0000
1003
0002
0000
0103
0010
0100
,  // measure 46
0001
0000
0000
0010
0100
0000
0100
0000
0000
1000
0100
0000
1000
0000
0001
0000
,  // measure 47
0200
0000
1300
0200
0000
0310
0100
0001
,  // measure 48
1000
0000
0000
0100
0010
0000
0010
0000
0000
0001
0010
0000
0001
0000
0100
0000
,  // measure 49
1000
0001
0010
1000
0100
0010
0002
0000
,  // measure 50
1000
0000
0003
1000
0000
0000
0010
0000
,  // measure 51
0100
0000
0010
0100
0010
0000
0000
0000
1000
0000
0001
1000
0000
0000
0000
0000
,  // measure 52
0100
0000
0000
1000
0000
0000
0001
0000
,  // measure 53
1000
0000
0010
1000
0010
0000
0000
0000
0100
0000
0010
0100
0000
0000
0000
0000
,  // measure 54
0001
0000
0000
0000
1000
0001
1000
0001
0000
0000
0000
0000
0010
0000
0000
0000
,  // measure 55
0100
0010
0100
1000
0001
0000
1000
0000
,  // measure 56
0010
0000
0100
0010
0100
0000
0001
0000
,  // measure 57
1000
0100
0001
0100
1000
0000
0001
0000
,  // measure 58
0100
0010
0100
0010
1000
0001
1000
0001
,  // measure 59
0010
0100
0010
0100
1000
0010
1000
0010
,  // measure 60
0100
0001
0100
0001
0010
0100
0010
0100
,  // measure 61
1000
0001
1000
0001
0010
0100
0010
0100
,  // measure 62
0010
0001
0010
0001
1000
0001
1000
0100
,  // measure 63
0010
0100
0010
0001
1000
0000
0001
0000
,  // measure 64
1000
0000
0000
0000
0100
0000
1000
0100
0000
0000
0000
0000
0010
0000
0000
0000
,  // measure 65
0100
0000
1000
0100
1000
0000
0000
0000
0001
0000
0100
0001
0000
0000
0000
0000
,  // measure 66
0010
0002
0000
0000
0000
0000
0000
0000
0000
0000
0000
0000
0000
0000
0000
0000
,  // measure 67
0000
0000
0000
0000
,  // measure 68
0003
0000
0000
0000
;

//---------------dance-single - ----------------
#NOTES:
     dance-single:
     X-Scale 6:
     Easy:
     4:
     0.308514,0.376504,0.016299,0.317828,0.000000,265.000000,263.000000,2.000000,39.000000,0.000000,0.000000,0.308514,0.376504,0.016299,0.317828,0.000000,265.000000,263.000000,2.000000,39.000000,0.000000,0.000000:
// measure 0
0000
0000
0000
0000
,  // measure 1
0000
0000
0000
0000
,  // measure 2
1000
0000
0020
2030
,  // measure 3
3002
0010
0003
0010
,  // measure 4
0100
0000
2000
3002
,  // measure 5
0023
0032
0003
2000
,  // measure 6
3100
0000
0020
0230
,  // measure 7
2300
0000
0001
0000
3000
0000
0001
1000
,  // measure 8
0020
0000
0130
0010
1000
0001
0020
0000
,  // measure 9
0130
0010
0000
0001
,  // measure 10
1000
0000
0020
2030
,  // measure 11
3002
0100
0003
0100
,  // measure 12
0010
0000
2000
3200
,  // measure 13
0320
0032
0003
2000
,  // measure 14
3010
0000
2000
3002
,  // measure 15
0023
0000
0100
0000
0030
0000
0100
0010
,  // measure 16
0002
0000
1003
0001
0100
0010
2000
0000
,  // measure 17
3000
0100
0000
0100
,  // measure 18
0010
0000
0100
0000
0010
0001
2000
0000
,  // measure 19
0000
0000
3020
0000
0030
0000
1000
0001
,  // measure 20
0100
0000
0010
0100
0001
0100
0020
0000
,  // measure 21
0000
0000
2030
0000
3000
0000
1000
0100
,  // measure 22
0010
0000
0100
0000
1000
0001
0200
0000
,  // measure 23
0000
0320
0030
1000
,  // measure 24
0001
0000
1000
0000
0100
0010
0001
0000
,  // measure 25
1000
0000
0010
0000
0100
0010
1000
0000
,  // measure 26
1010
0000
0000
1000
0000
0001
1000
0010
,  // measure 27
0100
0000
0010
0100
0000
0010
0200
0000
,  // measure 28
0302
0000
0003
1000
0000
0100
1000
0001
,  // measure 29
0100
0000
0001
1000
0000
0001
0100
0010
,  // measure 30
1000
0000
0000
0100
0000
1000
0001
0100
,  // measure 31
0010
0000
1000
0001
0000
0100
0010
1000
,  // measure 32
0010
0000
0000
0000
0100
0001
1000
0001
,  // measure 33
0010
0100
1000
0001
1000
0010
0200
0000
,  // measure 34
0001
0300
0100
0000
0001
0000
0100
0000
,  // measure 35
0010
1000
0010
1000
,  // measure 36
0100
0010
0100
0010
,  // measure 37
0001
1000
0001
1000
,  // measure 38
0010
0100
0010
0100
,  // measure 39
0001
0100
0001
0010
,  // measure 40
0001
0010
0100
0010
,  // measure 41
0100
0000
1000
0000
1000
0100
0020
0000
,  // measure 42
0001
0000
0031
0010
0000
0100
0010
0001
,  // measure 43
1000
0000
0010
1000
0000
0001
1000
0100
,  // measure 44
1000
0000
0001
0010
0000
0100
0010
0001
,  // measure 45
1000
0000
0010
0100
0000
0001
1000
0100
,  // measure 46
1000
0000
0010
0100
0000
0010
1000
0001
,  // measure 47
0100
0000
0010
0100
0000
0001
0010
0100
,  // measure 48
1000
0000
0001
0000
,  // measure 49
1000
0000
0001
0000
1000
0100
0020
0000
,  // measure 50
0100
0000
0030
0010
0000
0000
0100
0000
,  // measure 51
0000
0010
0000
0001
,  // measure 52
0001
0000
0000
1000
0000
0000
0001
0000
,  // measure 53
0000
0100
0000
0001
,  // measure 54
1000
0000
0000
0100
0000
0000
1000
0000
,  // measure 55
0001
1000
0002
0000
0010
0000
0003
0000
,  // measure 56
0010
0000
0000
0100
0000
0000
1000
0000
,  // measure 57
0010
1000
0020
0000
0100
0000
0030
0000
,  // measure 58
1000
0001
1000
0001
,  // measure 59
0010
0100
0010
0100
,  // measure 60
1000
0001
1000
0001
,  // measure 61
0100
0010
0100
0010
,  // measure 62
0001
0100
0001
0100
,  // measure 63
0010
1000
0010
1000
,  // measure 64
0001
0000
0000
0010
0000
0000
0100
0000
,  // measure 65
0100
0000
0010
0000
,  // measure 66
0110
0000
0000
0000
;
