#VERSION:0.83;
#TITLE:Silly Love;
#SUBTITLE:;
#ARTIST:DÉ DÉ MOUSE;
#TITLETRANSLIT:;
#SUBTITLETRANSLIT:;
#ARTISTTRANSLIT:;
#GENRE:Electro Nu Disco;
#ORIGIN:;
#CREDIT:;
#BANNER:Silly Love-bn.png;
#BACKGROUND:Silly Love-bg.png;
#PREVIEWVID:;
#JACKET:Silly Love-jacket.png;
#CDIMAGE:;
#DISCIMAGE:;
#LYRICSPATH:;
#CDTITLE:cdtitle.png;
#MUSIC:Silly Love.ogg;
#OFFSET:-0.006000;
#SAMPLESTART:50.202000;
#SAMPLELENGTH:12.549000;
#SELECTABLE:YES;
#DISPLAYBPM:124.000000:153.000000;
#BPMS:0.000=76.500,
16.000=306.000,
16.500=153.000,
16.750=76.500,
17.000=306.000,
17.500=153.000,
17.750=76.500,
18.000=306.000,
18.500=153.000,
18.750=76.500,
19.000=153.000,
19.500=306.000,
20.000=153.000,
20.250=76.500,
20.500=153.000,
32.000=306.000,
32.500=153.000,
32.750=76.500,
33.000=306.000,
33.500=153.000,
33.750=76.500,
34.000=306.000,
34.500=153.000,
34.750=76.500,
35.000=153.000,
35.500=306.000,
36.000=153.000,
36.250=76.500,
36.500=153.000,
48.000=76.500,
64.000=153.000,
160.000=76.500,
161.000=306.000,
161.500=153.000,
161.750=76.500,
162.000=153.000,
173.000=306.000,
173.500=153.000,
173.750=76.500,
174.000=306.000,
174.500=153.000,
174.750=76.500,
175.000=153.000,
186.000=76.500,
188.000=306.000,
188.500=153.000,
188.750=76.500,
189.000=124.000,
220.000=153.000,
252.000=76.500;
#STOPS:218.500=0.484;
#DELAYS:;
#WARPS:;
#TIMESIGNATURES:0.000=4=4;
#TICKCOUNTS:0.000=4;
#COMBOS:0.000=1;
#SPEEDS:0.000=1.000=0.000=0;
#SCROLLS:0.000=1.000,
46.000=2.000,
46.250=1.500,
46.500=1.000,
46.750=0.750,
47.000=0.500,
48.000=1.000,
219.250=1.250,
219.500=1.500,
219.750=2.000,
220.000=1.000;
#FAKES:;
#LABELS:0.000=Song Start;
#BGCHANGES:0.000=Silly Love.avi=1.000=1=0=0=StretchNoLoop==CrossFade==,
99999=-nosongbg-=1.000=0=0=0 // don't automatically add -songbackground-
;
#KEYSOUNDS:;
#ATTACKS:
;

//---------------dance-single - ----------------
#NOTEDATA:;
#CHARTNAME:X-Scale 15;
#STEPSTYPE:dance-single;
#DESCRIPTION:;
#CHARTSTYLE:;
#DIFFICULTY:Hard;
#METER:10;
#RADARVALUES:0.666643,0.917575,0.195500,0.025500,0.607750,549.000000,526.000000,23.000000,3.000000,7.000000,0.000000,8.000000,0.000000,0.000000,0.666643,0.917575,0.195500,0.025500,0.607750,549.000000,526.000000,23.000000,3.000000,7.000000,0.000000,8.000000,0.000000,0.000000;
#CREDIT:;
#DISPLAYBPM:124.000000:153.000000;
#NOTES:
// measure 0
0000
0000
0000
0000
,  // measure 1
0000
0000
0000
0000
,  // measure 2
0000
0000
0000
0000
,  // measure 3
0000
0000
0000
0000
,  // measure 4
1100
0000
1001
0000
0101
0000
0010
0110
,  // measure 5
0000
0000
0100
0000
0010
0000
1000
0000
0001
0000
0000
0010
0100
0000
0010
0000
,  // measure 6
0001
1000
0001
1000
0100
0010
0100
0010
,  // measure 7
0001
0100
0001
0100
1000
0100
1000
0100
,  // measure 8
0110
0000
1001
0000
1010
0000
0010
0110
,  // measure 9
0000
0000
1000
0000
0100
0000
0010
0000
0001
0000
0000
1000
0010
0000
1000
0000
,  // measure 10
0001
0010
0100
1000
0001
0010
0100
1000
,  // measure 11
0001
1000
0001
1000
0001
1000
0001
1000
0004
0000
0000
0000
0000
0000
1003
0000
,  // measure 12
1100
0000
0000
0000
0000
0000
0100
0000
0010
0000
0000
0100
0000
0000
1000
0000
0000
0000
0001
0000
0000
0001
0000
0000
1000
0001
1000
0001
0000
0100
0010
0100
,  // measure 13
0010
0000
0000
0000
0000
0000
0010
0000
0100
0000
0000
0001
0000
0000
1000
0000
0000
0000
0100
0000
0000
1000
0000
0000
0001
0100
0001
0100
0000
0001
1000
0001
,  // measure 14
1000
0000
0000
0000
0100
0000
0010
0000
0001
0000
0000
0001
0010
0000
0001
0000
0000
0000
1000
0000
0000
0100
0000
0000
1000
0001
1000
0001
0000
0010
0100
0010
,  // measure 15
0100
0000
1000
0000
0001
0000
1000
0000
0010
0000
0000
0100
0010
0000
1000
0000
0000
0000
0001
0000
0000
0010
0000
0000
0100
0010
0100
0010
0000
0001
0010
0001
,  // measure 16
0010
0000
0100
0000
0001
0000
0100
0000
0010
0000
0000
0001
0010
0000
0100
0000
,  // measure 17
1000
0000
0010
0000
0001
0000
0010
0000
1000
0100
0010
0001
0000
0001
0010
0100
,  // measure 18
1000
0000
0100
0000
0001
0000
0100
0000
1000
0000
0000
0001
0100
0000
0001
0000
,  // measure 19
1000
0000
0100
0000
0001
0000
0100
0000
1000
0001
0100
0010
0000
1000
0001
0010
,  // measure 20
0100
0000
1000
0000
0001
0000
1000
0000
0010
0000
0000
0100
0010
0000
1000
0000
,  // measure 21
0001
0000
0010
0000
1000
0000
0010
0000
0001
0100
0010
1000
0000
0001
0010
0100
,  // measure 22
1000
0100
0010
0001
1000
0100
0010
0001
,  // measure 23
1000
0001
0100
0001
1000
0001
0100
0001
4000
0004
0000
3003
1001
0000
0000
0000
,  // measure 24
0101
0000
0100
0000
0010
0000
0100
0000
0001
0000
0000
0010
0000
0000
0100
0000
,  // measure 25
0010
0000
0001
0000
1000
0000
0001
0000
0100
0000
0000
0010
0000
0000
0100
0000
,  // measure 26
0001
0000
0010
0000
1000
0000
0010
0000
0001
0000
0000
1000
0000
0000
0001
0000
,  // measure 27
0100
0000
0010
0000
0100
0000
0001
0000
0010
0000
0000
0100
0000
0000
1000
0000
,  // measure 28
0001
0000
1000
0000
0100
0000
1000
0000
0001
0000
0000
0100
0000
0000
0001
0000
,  // measure 29
0010
0000
1000
0000
0001
0000
0100
0000
1000
0000
0000
0001
0000
0000
1000
0000
,  // measure 30
0010
0000
0001
0000
1000
0000
0100
0000
0001
0000
0000
0100
0000
0000
0010
0000
,  // measure 31
0100
0010
0100
0001
0100
0010
0100
0001
0100
0000
0001
0000
1000
0000
0100
0000
,  // measure 32
1100
0000
1000
0000
0001
0000
0100
0000
0001
0000
0000
0010
0100
0000
0010
0000
,  // measure 33
0001
0000
0100
0000
1000
0000
0100
0000
0001
0100
0010
0100
0000
0010
1000
0001
,  // measure 34
1000
0000
0100
0000
0001
0000
0100
0000
1000
0000
0000
0001
0100
0000
0001
0000
,  // measure 35
1000
0000
0100
0000
0001
0000
0100
0000
1000
0001
0100
0001
0000
0010
0100
0010
,  // measure 36
0001
0000
1000
0000
0010
0000
1000
0000
0001
0000
0000
0100
0010
0000
0100
0000
,  // measure 37
1000
0000
0100
0000
0001
0000
0010
0000
0100
1000
0001
0100
0000
0010
1000
0001
,  // measure 38
0100
0001
0010
0100
1000
0001
0010
0100
,  // measure 39
1000
0100
1000
0100
1000
0100
1000
0100
4000
0000
0000
0000
3100
0000
0010
0000
,  // measure 40
0110
1001
0102
0000
,  // measure 41
0000
0000
1003
0000
0001
0000
0010
0100
0010
0100
0010
0100
0010
0000
0000
0001
,  // measure 42
0000
0000
1000
0000
0000
0100
0000
0010
0200
0000
0001
0000
0000
0000
0000
0000
,  // measure 43
0300
0000
0M00
0000
1010
0000
0000
0M00
0011
0000
0000
0M00
1010
0000
1000
0000
,  // measure 44
0001
0010
0001
1000
0100
0001
0100
1000
,  // measure 45
0100
0000
0010
0000
0001
0000
1000
0001
1000
0001
1000
0001
1000
0000
0001
0000
,  // measure 46
0100
0000
0010
0000
1000
0000
0001
0000
0201
0001
0000
0000
0000
0000
0300
0000
,  // measure 47
MMMM
0000
1001
1000
0010
1000
0001
0010
,  // measure 48
0100
0010
0001
1000
0001
0000
0001
0000
0100
0000
0001
0000
1000
0000
0000
0100
,  // measure 49
1000
0001
0011
0010
1000
0010
0001
0100
,  // measure 50
0010
0000
0000
0100
0000
0000
0001
0000
0000
0010
0000
0000
0100
0000
0000
0000
0000
0000
1000
0000
0000
0000
0000
0000
0001
0000
0000
0000
0000
0000
0100
0000
0000
0000
0000
0000
0001
0000
0000
0000
0001
0000
0000
0000
0001
0000
0000
0000
,  // measure 51
0001
0000
0000
0001
1000
0001
1000
0000
0000
0100
0000
0000
0001
0000
0000
0100
0000
0000
1000
0000
0000
0001
0000
0000
,  // measure 52
0100
0000
0000
0010
0000
0000
1000
0000
0000
0001
0000
0000
0010
0000
0000
0000
0000
0000
0100
0000
0000
0000
0000
0000
1000
0000
0000
0000
0000
0000
0010
0000
0100
0000
0010
0000
0100
0000
0000
0000
0000
0000
0001
0000
0000
1000
0000
0000
,  // measure 53
0001
0000
0100
0000
1000
0000
0001
0000
0010
0000
1000
0000
0001
0000
1000
0100
,  // measure 54
0010
0100
1000
0000
1001
0000
0001
0000
0001
0000
0001
0000
4000
0000
0000
0000
,  // measure 55
3100
0000
1000
0000
0001
0000
1000
0000
0100
0000
0010
0100
0000
0010
0001
0000
,  // measure 56
1000
0000
0001
0000
0100
0000
1000
0000
0100
0000
0001
0000
1000
0000
0010
0100
,  // measure 57
0010
0000
1000
0000
0001
0000
0010
0000
0100
0000
0010
0001
0000
1000
0010
0000
,  // measure 58
1010
0000
1000
0000
0001
0000
0010
0000
0100
1000
0001
1000
0010
0100
0004
0000
,  // measure 59
0013
0000
1000
0000
0010
0000
0001
0000
0010
0000
0000
0100
1000
0000
0001
0000
,  // measure 60
1000
0000
0010
0000
0001
0000
0010
0000
1000
0000
0000
0010
0100
0000
0010
0000
,  // measure 61
1000
0001
0100
0010
1000
0001
0100
0010
,  // measure 62
1000
0001
1000
0001
1000
0001
1000
0001
0040
0000
0000
0000
0000
0000
0000
0000
,  // measure 63
0400
0000
0330
0000
;

//---------------dance-single - ----------------
#NOTEDATA:;
#CHARTNAME:X-Scale 12;
#STEPSTYPE:dance-single;
#DESCRIPTION:;
#CHARTSTYLE:;
#DIFFICULTY:Medium;
#METER:8;
#RADARVALUES:0.502715,0.539750,0.272000,0.110500,0.233750,414.000000,382.000000,32.000000,13.000000,0.000000,0.000000,0.000000,0.000000,0.000000,0.502715,0.539750,0.272000,0.110500,0.233750,414.000000,382.000000,32.000000,13.000000,0.000000,0.000000,0.000000,0.000000,0.000000;
#CREDIT:;
#DISPLAYBPM:124.000000:153.000000;
#NOTES:
// measure 0
0000
0000
0000
0000
,  // measure 1
0000
0000
0000
0000
,  // measure 2
0000
0000
0000
0000
,  // measure 3
0000
0000
0000
0000
,  // measure 4
0101
0000
0110
0000
1010
0000
0000
1001
,  // measure 5
0000
0000
0011
0000
0001
0000
1000
0100
,  // measure 6
1100
0000
1001
0000
0011
0000
0000
0110
,  // measure 7
0000
0000
1001
0000
0001
0000
0100
0010
,  // measure 8
0110
0000
1001
0000
1100
0000
0000
0101
,  // measure 9
0000
0000
0011
0000
0010
0000
0100
0010
,  // measure 10
0002
0000
0000
1000
0000
0000
0000
1000
,  // measure 11
0003
0100
0000
0010
0002
0000
0000
0003
,  // measure 12
1001
0000
0000
0000
0000
0000
1000
0000
0100
0000
0000
1000
0000
0000
0001
0000
0000
0000
0000
0000
0000
0000
0000
0000
0010
0000
0000
0000
0000
0000
0000
0000
,  // measure 13
0110
0000
0000
0000
0000
0000
1000
0000
0010
0000
0000
1000
0000
0000
0001
0000
0000
0000
0000
0000
0000
0000
0000
0000
0010
0000
0000
0000
0000
0000
0000
0000
,  // measure 14
0101
0000
0000
0000
0100
0000
0010
0000
0100
0000
0000
0001
0000
0000
1000
0000
0000
0000
0000
0000
0000
0000
0000
0000
0100
0000
0000
0000
0000
0000
0000
0000
,  // measure 15
1100
0000
1000
0000
0100
0000
0010
0000
0001
0000
0000
0100
0000
0000
0001
0000
0000
0000
0000
0000
0000
0000
0000
0000
0010
0000
0000
0000
0000
0000
0000
0000
,  // measure 16
0110
0000
0000
0000
0100
0000
1000
0000
0001
0000
0000
1000
0000
0000
0010
0000
,  // measure 17
1000
0100
0001
0010
,  // measure 18
1000
0000
0000
0000
0001
0000
0010
0000
0100
0000
0000
0010
0000
0000
0001
0000
,  // measure 19
1000
0010
0001
0100
,  // measure 20
1000
0000
0000
0000
0001
0000
0100
0000
0001
0000
0000
0010
0000
0000
0100
0000
,  // measure 21
1000
0010
0001
0100
,  // measure 22
1000
0100
1000
0100
0010
0001
0010
0001
,  // measure 23
1000
0000
0010
0000
0100
0000
0010
0000
1000
0000
0100
0010
0000
0000
0010
0000
,  // measure 24
0011
0000
0001
0000
0100
0000
0001
0000
0010
0000
0000
0100
0000
0000
1000
0000
,  // measure 25
0000
0000
0010
1000
0010
0000
1000
0000
0001
0000
0000
0010
0000
0000
0100
0000
,  // measure 26
1000
0000
0001
0000
1000
0000
0100
0000
0010
0000
0000
0100
0000
0000
1000
0000
,  // measure 27
0000
0000
0001
0000
0100
0000
1000
0000
0100
0000
0000
0010
0000
0000
0100
0000
,  // measure 28
0001
0000
1000
0000
0100
0000
0010
0000
0001
0000
0000
0100
0010
0000
0100
0000
,  // measure 29
0000
0000
0001
0100
0001
0000
1000
0000
0100
0000
0000
0010
0000
0000
0001
0000
,  // measure 30
0100
0000
0010
0000
0100
0000
0001
0000
0010
0000
0000
0100
1000
0000
0001
0000
,  // measure 31
1000
0000
0100
0000
0001
0000
0100
0000
0010
0000
0001
0010
0001
0000
0100
0000
,  // measure 32
1001
0000
1000
0000
0001
0000
1000
0000
0100
0000
0000
0010
0001
0000
1000
0000
,  // measure 33
0001
0000
0100
0000
0010
0000
1000
0000
0001
1000
0001
0000
1000
0000
0001
1000
,  // measure 34
0001
0000
0010
0000
0100
0000
0010
0000
0001
0000
0000
1000
0010
0000
1000
0000
,  // measure 35
0001
0000
0100
0000
0010
0000
0100
0000
0001
0010
0100
0000
1000
0000
0100
0010
,  // measure 36
0001
0000
1000
0000
0010
0000
0100
0000
0001
0000
0000
0010
0100
0000
0010
0000
,  // measure 37
0001
0000
1000
0000
0010
0000
1000
0000
0001
0100
0010
0000
0100
0000
0010
0100
,  // measure 38
0001
1000
0001
1000
0010
0100
0010
0100
,  // measure 39
0001
0000
0010
0000
0100
0000
0000
0000
1000
0000
0100
1000
0000
0000
0001
0000
,  // measure 40
1001
0000
1200
0000
,  // measure 41
0000
0020
0330
0000
0100
2000
3002
0000
,  // measure 42
0000
0103
0210
0000
,  // measure 43
0000
0010
0010
0000
1000
0000
0310
0100
,  // measure 44
0001
1000
0010
0100
0001
1000
0100
0010
,  // measure 45
0001
1000
0100
0010
0001
1000
0010
0100
,  // measure 46
1000
0100
0010
1000
2020
0000
0000
3030
,  // measure 47
0000
0000
0000
0000
1001
0000
1000
0000
0100
0000
0010
0000
0001
0000
0010
0100
,  // measure 48
0000
0100
0010
0000
0001
0000
1000
0000
0000
1000
0000
0000
1000
0000
0100
1000
,  // measure 49
0000
0002
0000
0000
0103
0000
0010
0000
0100
0000
0001
0000
0010
0000
0100
0010
,  // measure 50
0000
0000
0000
0001
0000
0000
0010
0000
0000
0000
0000
0000
0100
0000
0000
0000
0000
0000
1000
0000
0000
0000
0000
0000
0000
0000
0000
0100
0000
0000
1000
0000
0000
0000
0000
0000
1000
0000
0000
0000
0100
0000
0000
0000
0010
0000
0000
0000
,  // measure 51
0001
0000
0200
0000
0310
0000
0100
0000
1000
0000
0100
0000
0001
0000
1000
0001
,  // measure 52
0000
0100
0010
0000
0100
0000
0001
0000
0010
0001
0010
0000
0001
0000
0010
0200
,  // measure 53
0000
0000
0000
0300
1000
0000
0001
0000
0100
0000
0010
0000
1000
0000
0100
0010
,  // measure 54
0000
0001
1000
0000
0001
0000
0100
0000
0001
0000
1000
0000
0000
0000
0000
0000
,  // measure 55
1001
0000
1100
0000
1000
0100
0010
0000
,  // measure 56
0001
0000
0101
0000
0100
0010
1000
0000
,  // measure 57
0001
0000
1001
0000
1000
0010
0100
0010
,  // measure 58
1000
0000
1100
0000
0001
0100
1000
0100
,  // measure 59
0001
0000
0010
0000
0100
0000
1000
0000
0001
0000
0000
0001
0000
0000
0100
0000
,  // measure 60
0010
0000
0100
0000
0001
0000
0010
0000
0100
0000
0000
0100
0000
0000
1000
0000
,  // measure 61
0001
0100
0001
1000
0001
0100
0001
1000
,  // measure 62
0100
0010
0001
1000
0100
0010
0001
1000
,  // measure 63
0200
0000
0300
0000
;

//---------------dance-single - ----------------
#NOTEDATA:;
#CHARTNAME:X-Scale 7;
#STEPSTYPE:dance-single;
#DESCRIPTION:;
#CHARTSTYLE:;
#DIFFICULTY:Easy;
#METER:5;
#RADARVALUES:0.307214,0.350838,0.119000,0.076500,0.000000,253.000000,239.000000,14.000000,9.000000,0.000000,0.000000,0.000000,0.000000,0.000000,0.307214,0.350838,0.119000,0.076500,0.000000,253.000000,239.000000,14.000000,9.000000,0.000000,0.000000,0.000000,0.000000,0.000000;
#CREDIT:;
#DISPLAYBPM:124.000000:153.000000;
#NOTES:
// measure 0
0000
0000
0000
0000
,  // measure 1
0000
0000
0000
0000
,  // measure 2
0000
0000
0000
0000
,  // measure 3
0000
0000
0000
0000
,  // measure 4
1000
0000
0100
0000
1000
0000
0000
0001
,  // measure 5
0000
0001
0000
0010
,  // measure 6
0100
0000
0010
0000
0100
0000
0000
1000
,  // measure 7
0000
1000
0000
0001
,  // measure 8
0100
0000
0001
0000
0100
0000
0000
0010
,  // measure 9
0000
0010
0000
1000
,  // measure 10
0100
0010
0001
0100
,  // measure 11
0020
0000
0000
0000
2000
0000
0000
3030
,  // measure 12
1010
0000
0000
0001
0000
0000
1000
0000
,  // measure 13
1100
0000
0000
0100
0000
0000
1000
0000
,  // measure 14
1010
0000
0000
0001
0000
0000
0100
0000
,  // measure 15
0101
0000
0000
0001
0000
0000
1000
0000
,  // measure 16
1001
0100
1000
0001
,  // measure 17
0100
0010
0100
0001
,  // measure 18
0010
0100
0010
0001
,  // measure 19
1000
0010
1000
0001
,  // measure 20
0010
1000
0010
0001
,  // measure 21
1000
0010
1000
0001
,  // measure 22
0010
0100
1000
0001
,  // measure 23
1000
0010
1000
0010
1000
0000
0001
0000
,  // measure 24
1001
0000
1000
0000
0010
0000
1000
0100
,  // measure 25
0010
0000
0001
0000
0100
0000
0010
0100
,  // measure 26
0001
0000
0010
0000
0100
0000
0010
0100
,  // measure 27
1000
0000
0001
0000
1000
0000
0010
1000
,  // measure 28
0001
0000
0100
0000
0001
0000
0010
0100
,  // measure 29
1000
0000
0010
0000
1000
0000
0100
0010
,  // measure 30
0001
0000
1000
0000
0010
0000
0100
0010
,  // measure 31
1000
0001
0200
1000
,  // measure 32
0301
0100
0010
0100
0001
0000
1000
0100
,  // measure 33
0010
0100
1000
0001
,  // measure 34
1000
0010
0100
0010
1000
0000
0001
0010
,  // measure 35
0100
0010
0001
1000
,  // measure 36
0010
1000
0001
1000
0010
0000
1000
0001
,  // measure 37
0010
0100
0010
0001
,  // measure 38
1000
0001
0100
0001
1000
0000
0100
0010
,  // measure 39
0001
1000
0200
0001
,  // measure 40
1300
0000
1002
0000
,  // measure 41
0003
0100
0010
0000
0000
0100
0002
0000
,  // measure 42
0000
1003
0110
0000
,  // measure 43
0000
1000
0000
1001
,  // measure 44
0000
0000
0001
0000
1001
0000
0000
1000
,  // measure 45
0100
1000
0001
0000
0010
0000
0011
0000
,  // measure 46
0000
0000
0001
0000
2001
0000
0000
3000
,  // measure 47
0000
1001
1000
0100
,  // measure 48
1000
0001
0100
0001
,  // measure 49
0010
0100
0010
0001
,  // measure 50
1000
0001
0100
0010
,  // measure 51
0100
0001
1000
0100
,  // measure 52
0010
0001
1000
0001
,  // measure 53
0010
0100
1000
0001
,  // measure 54
0010
0001
0000
0000
,  // measure 55
1001
0000
0010
0000
1000
0010
1000
0000
,  // measure 56
0100
0000
0010
0000
0001
0010
0001
0000
,  // measure 57
1000
0000
0001
0000
0100
0010
0100
0000
,  // measure 58
0001
0000
0010
0000
0100
1000
0100
0000
,  // measure 59
0010
0000
0001
0000
1000
0001
1000
0000
,  // measure 60
0010
0000
1000
0000
0001
0010
0001
0000
,  // measure 61
1000
0001
0010
0001
,  // measure 62
2000
0000
0100
0000
,  // measure 63
3002
0000
0003
0000
;

//---------------dance-single - ----------------
#NOTEDATA:;
#CHARTNAME:X-Scale 5;
#STEPSTYPE:dance-single;
#DESCRIPTION:;
#CHARTSTYLE:;
#DIFFICULTY:Beginner;
#METER:3;
#RADARVALUES:0.179714,0.214200,0.068000,0.017000,0.000000,148.000000,140.000000,8.000000,2.000000,0.000000,0.000000,0.000000,0.000000,0.000000,0.179714,0.214200,0.068000,0.017000,0.000000,148.000000,140.000000,8.000000,2.000000,0.000000,0.000000,0.000000,0.000000,0.000000;
#CREDIT:;
#DISPLAYBPM:124.000000:153.000000;
#NOTES:
// measure 0
0000
0000
0000
0000
,  // measure 1
0000
0000
0000
0000
,  // measure 2
0000
0000
0000
0000
,  // measure 3
0000
0000
0000
0000
,  // measure 4
0001
0000
0000
0000
1000
0000
0000
0100
,  // measure 5
0000
0000
0010
0100
,  // measure 6
1000
0000
0000
0000
0001
0000
0000
1000
,  // measure 7
0000
0000
0010
1000
,  // measure 8
0001
0000
0000
0000
0010
0000
0000
0001
,  // measure 9
0000
0000
1000
0000
,  // measure 10
0100
0000
0010
0000
,  // measure 11
0001
0000
1000
0000
,  // measure 12
1001
1000
0000
0100
,  // measure 13
0000
1000
0000
0001
,  // measure 14
0000
0100
0000
0001
,  // measure 15
0000
0010
0000
0100
,  // measure 16
0100
0000
1000
0000
,  // measure 17
0001
0000
1000
0000
,  // measure 18
0100
0000
0010
0000
,  // measure 19
0001
0000
1000
0000
,  // measure 20
0001
0000
0100
0000
,  // measure 21
0001
0000
1000
0000
,  // measure 22
0010
0000
0100
0000
,  // measure 23
0001
0010
0001
0000
,  // measure 24
1001
0000
1000
0100
,  // measure 25
1000
0000
0001
0100
,  // measure 26
0001
0000
0010
0100
,  // measure 27
0010
0000
0001
1000
,  // measure 28
0001
0000
0100
0010
,  // measure 29
0100
0000
0001
0010
,  // measure 30
0001
0000
1000
0010
,  // measure 31
1000
0000
0100
0000
,  // measure 32
0010
0010
0000
0001
,  // measure 33
0000
0010
0000
0001
,  // measure 34
0000
1000
0000
0010
,  // measure 35
0000
1000
0000
0010
,  // measure 36
0000
0100
0000
0001
,  // measure 37
0000
0100
0000
0001
,  // measure 38
0000
0010
0000
0100
,  // measure 39
0000
0010
0000
0100
,  // measure 40
0100
0000
1001
0000
,  // measure 41
0000
0010
0000
1000
,  // measure 42
0000
1001
0000
0000
,  // measure 43
0000
0001
1000
1001
,  // measure 44
0000
1000
0000
0100
,  // measure 45
0000
0010
0000
0001
,  // measure 46
0000
1000
1001
0000
,  // measure 47
0000
0110
0000
0100
,  // measure 48
0000
0010
0000
0001
,  // measure 49
1000
0001
0000
0100
,  // measure 50
0000
0010
0000
0100
,  // measure 51
0001
1000
0000
0100
,  // measure 52
0000
1000
0000
0001
,  // measure 53
1000
0010
0000
0100
,  // measure 54
0000
0001
0000
0000
,  // measure 55
1001
1000
0000
0100
,  // measure 56
1000
0001
0000
0100
,  // measure 57
0010
0100
0000
0001
,  // measure 58
0100
0001
0000
0010
,  // measure 59
0100
1000
0000
0100
,  // measure 60
0010
0001
0000
1000
,  // measure 61
0010
1000
0001
0010
,  // measure 62
0200
0000
2000
0000
,  // measure 63
3300
0000
0000
0000
;
