#TITLE:Silly Boy;
#SUBTITLE:;
#ARTIST:Eva Simons;
#TITLETRANSLIT:;
#SUBTITLETRANSLIT:;
#ARTISTTRANSLIT:;
#GENRE:Electropop;
#CREDIT:;
#BANNER:silly boy-bn.png;
#BACKGROUND:silly boy-bg.png;
#LYRICSPATH:;
#CDTITLE:cdtitle.png;
#MUSIC:silly boy.ogg;
#OFFSET:-0.008000;
#SAMPLESTART:44.882000;
#SAMPLELENGTH:15.000000;
#SELECTABLE:YES;
#BPMS:0.000000=126.999992
;
#STOPS:
;
#BGCHANGES:0.000=silly boy.avi=1.000=1=0=0=StretchNoLoop==CrossFade==,
99999=-nosongbg-=1.000=0=0=0 // don't automatically add -songbackground-
;
#KEYSOUNDS:;
#ATTACKS:;

//---------------dance-single - ----------------
#NOTES:
     dance-single:
     X-Scale 2:
     Beginner:
     1:
     0.108613,0.155920,0.000000,0.000000,0.000000,64.000000,64.000000,0.000000,0.000000,0.000000,0.000000,0.108613,0.155920,0.000000,0.000000,0.000000,64.000000,64.000000,0.000000,0.000000,0.000000,0.000000:
// measure 0
0000
0000
0000
0000
,  // measure 1
0000
0000
0000
0000
,  // measure 2
0000
0000
0000
0000
,  // measure 3
0000
0000
0000
0000
,  // measure 4
0000
0001
0000
1000
,  // measure 5
0000
0001
0000
1000
,  // measure 6
0000
0001
0000
1000
,  // measure 7
0000
0001
0000
0000
,  // measure 8
1000
0000
0000
0000
,  // measure 9
0100
0000
0000
0000
,  // measure 10
1000
0000
0000
0000
,  // measure 11
0100
0000
0000
0000
,  // measure 12
0010
0000
0000
0000
,  // measure 13
0001
0000
0000
0000
,  // measure 14
0010
0000
0000
0000
,  // measure 15
0001
0000
0000
0000
,  // measure 16
1000
0000
0000
0000
,  // measure 17
0001
0000
0000
0000
,  // measure 18
1000
0000
0000
0000
,  // measure 19
0001
0000
0000
0000
,  // measure 20
0100
0000
0000
0000
,  // measure 21
0010
0000
0000
0000
,  // measure 22
0100
0000
0000
0000
,  // measure 23
0010
0000
0000
0000
,  // measure 24
1000
0000
0001
0000
,  // measure 25
1000
0000
0001
0000
,  // measure 26
0010
0000
0100
0000
,  // measure 27
0010
0000
0100
0000
,  // measure 28
1000
0000
0010
0000
,  // measure 29
1000
0000
0010
0000
,  // measure 30
0100
0000
0001
0000
,  // measure 31
0100
0000
0001
0000
,  // measure 32
1000
0000
0100
0000
,  // measure 33
0010
0000
0100
1000
,  // measure 34
0100
0000
0010
0000
,  // measure 35
0001
0000
1000
0001
,  // measure 36
1000
0000
0010
0000
,  // measure 37
1000
0000
0001
0010
,  // measure 38
0001
0000
0100
0000
,  // measure 39
0010
0000
1000
0010
,  // measure 40
1000
0000
0000
0000
,  // measure 41
0100
0000
0000
0000
,  // measure 42
0010
0000
0000
0000
,  // measure 43
0001
0000
0000
1000
;

//---------------dance-single - ----------------
#NOTES:
     dance-single:
     X-Scale 6:
     Easy:
     4:
     0.295293,0.337826,0.035639,0.118796,0.000000,174.000000,171.000000,3.000000,10.000000,0.000000,0.000000,0.295293,0.337826,0.035639,0.118796,0.000000,174.000000,171.000000,3.000000,10.000000,0.000000,0.000000:
// measure 0
0000
0000
0000
0000
,  // measure 1
0000
0000
0000
0000
,  // measure 2
0000
0000
0000
0000
,  // measure 3
0000
0000
0000
0000
,  // measure 4
0000
1000
0000
0100
,  // measure 5
0000
0010
0000
0001
,  // measure 6
0000
0100
0000
0010
,  // measure 7
0000
1000
0000
0001
,  // measure 8
1001
0000
1000
0000
0010
0000
1000
0100
,  // measure 9
0010
0001
1000
0001
,  // measure 10
0010
0000
0100
0000
1000
0001
0100
0000
,  // measure 11
0001
0000
0010
0100
1000
0000
0001
0000
,  // measure 12
0100
0001
0010
0100
,  // measure 13
1000
0000
0001
0000
1000
0001
0200
0000
,  // measure 14
0010
0000
0301
0000
0010
0100
1000
0000
,  // measure 15
0001
0000
0100
0000
0001
0010
0100
0000
,  // measure 16
1000
0000
0001
0000
1000
0000
0000
0100
,  // measure 17
0000
0010
0000
0001
0000
0000
1000
0000
,  // measure 18
0001
0000
0100
0000
0001
0000
0000
0010
,  // measure 19
0000
0100
0000
1000
0000
0000
0001
0000
,  // measure 20
0100
0000
0001
0000
1000
0000
0000
0010
,  // measure 21
0000
1000
0000
0001
0000
0000
0100
0000
,  // measure 22
0001
1000
0001
0000
0100
0000
0010
1000
,  // measure 23
0000
0001
0010
0100
2000
3000
2000
3000
,  // measure 24
1001
0100
0001
1000
,  // measure 25
0001
0000
0001
0000
0100
0000
0001
0010
,  // measure 26
0100
0000
0010
0000
0001
0000
1000
0001
,  // measure 27
0100
0000
0001
0000
1000
0100
0010
0000
,  // measure 28
0001
0100
0001
0100
,  // measure 29
0001
0000
1000
0000
0010
1000
0001
0000
,  // measure 30
1000
0000
0010
0000
1000
0100
0010
0000
,  // measure 31
0001
0000
1000
0000
0001
0100
0001
0000
,  // measure 32
0101
0000
1000
0000
0001
0100
0001
1000
,  // measure 33
0000
0001
1000
0000
0200
0000
0320
0000
,  // measure 34
0032
0100
1003
0001
,  // measure 35
0100
0010
1000
0001
0000
0010
0100
2000
,  // measure 36
0100
0000
0010
0000
3001
0000
1000
0001
,  // measure 37
0100
0001
0000
0100
0002
0000
0023
0000
,  // measure 38
0230
0010
1000
0310
,  // measure 39
0001
1000
0001
0100
,  // measure 40
0001
0010
0100
1000
,  // measure 41
0001
0010
0100
1000
,  // measure 42
0001
0100
0010
1000
,  // measure 43
0001
0100
0010
1000
;

//---------------dance-single - ----------------
#NOTES:
     dance-single:
     X-Scale 7:
     Medium:
     5:
     0.380147,0.493745,0.095037,0.344508,0.041579,224.000000,216.000000,8.000000,29.000000,0.000000,0.000000,0.380147,0.493745,0.095037,0.344508,0.041579,224.000000,216.000000,8.000000,29.000000,0.000000,0.000000:
// measure 0
0000
0000
0000
0000
,  // measure 1
0000
0000
0000
0000
,  // measure 2
0000
0000
0000
0000
,  // measure 3
0000
0000
0000
0000
,  // measure 4
1000
0000
0100
0000
0010
0000
0001
0010
,  // measure 5
0100
1000
0010
0100
,  // measure 6
0001
0000
1000
0000
0001
0000
0100
0001
,  // measure 7
1000
0000
0010
0100
0010
0000
1000
0100
1000
0000
0001
0100
0001
0000
0010
0000
,  // measure 8
0011
0000
0001
0000
0100
0001
1000
0000
,  // measure 9
0010
0000
0100
0000
0001
0010
0100
0000
,  // measure 10
0010
0000
0001
0000
1000
0100
0010
0000
,  // measure 11
0100
0000
1000
0000
0001
1000
0010
0000
,  // measure 12
1000
0000
0001
0000
0010
0100
1000
0000
,  // measure 13
0001
0000
1000
0000
0100
0010
0001
0000
,  // measure 14
0100
0000
0001
0000
1000
0001
0100
0000
,  // measure 15
0001
0000
0010
0000
0100
0010
0001
0000
,  // measure 16
1000
0001
0200
0000
0320
0000
0031
0020
,  // measure 17
0000
2030
0000
3002
0000
0103
0010
0001
,  // measure 18
2000
0000
3020
0000
0230
0000
1300
0002
,  // measure 19
0000
0203
0000
2300
0000
3001
0010
1000
,  // measure 20
0001
0000
0101
0000
1000
0000
0100
0020
,  // measure 21
0000
0032
0000
2003
0000
3010
0100
1000
,  // measure 22
0001
0010
0200
0000
0302
0000
1003
0200
,  // measure 23
0000
0000
0310
0100
0010
0000
0001
0010
0001
0000
1000
0010
1000
0000
0001
0100
,  // measure 24
0001
0000
1001
0000
1000
0001
0100
0000
,  // measure 25
0101
0000
1100
0000
0100
0010
0001
0000
,  // measure 26
1000
0000
0001
0100
0001
1000
0001
0100
,  // measure 27
0000
0010
1000
0000
0001
0010
0100
0000
,  // measure 28
0010
0000
0001
0000
1000
0001
0100
0000
,  // measure 29
0101
0000
1100
0000
1000
0100
0010
0000
,  // measure 30
0001
0000
1000
0001
0100
0001
1000
0001
,  // measure 31
0000
0010
0100
0000
0010
0000
0001
0000
,  // measure 32
1000
0001
0020
0000
0130
0010
0001
0200
,  // measure 33
0000
0301
0200
0000
0302
0000
0023
0000
,  // measure 34
0230
1000
0310
1001
,  // measure 35
0100
1000
0001
2000
0000
3010
0100
0020
,  // measure 36
1000
0000
0001
0000
1030
0000
0001
0010
,  // measure 37
0100
2000
0000
3010
2000
0000
3200
0000
,  // measure 38
0320
0000
0100
0000
0031
0010
0100
0000
,  // measure 39
1000
0000
0010
1000
0001
0000
0100
0000
,  // measure 40
0001
0010
1000
0100
,  // measure 41
0001
0100
1000
0010
,  // measure 42
0001
0000
1000
0000
0001
0100
0001
0000
,  // measure 43
0010
0000
0100
0000
1000
0100
1000
0000
;

//---------------dance-single - ----------------
#NOTES:
     dance-single:
     X-Scale 12:
     Challenge:
     8:
     0.505731,0.571705,0.225712,0.617739,0.112856,298.000000,279.000000,19.000000,52.000000,38.000000,0.000000,0.505731,0.571705,0.225712,0.617739,0.112856,298.000000,279.000000,19.000000,52.000000,38.000000,0.000000:
// measure 0
0000
0000
0000
0000
,  // measure 1
0000
0000
0000
0000
,  // measure 2
0000
0000
0000
0000
,  // measure 3
0000
0000
0000
0000
,  // measure 4
1000
1001
0100
0110
,  // measure 5
0001
0011
1000
1010
,  // measure 6
0001
1001
0100
0110
,  // measure 7
1000
0000
0001
0010
0001
0000
1000
0010
1000
0000
0001
0010
0001
0000
1000
0010
,  // measure 8
1000
0100
2000
0000
3001
0100
1000
0100
,  // measure 9
0002
0023
2030
3200
,  // measure 10
0301
1000
0100
0001
0100
1000
0002
0000
,  // measure 11
1003
0010
0100
0010
0002
0000
0023
0000
,  // measure 12
1030
0000
0000
0000
1001
0000
0100
0001
1000
0000
0010
0000
0200
0000
0000
0000
,  // measure 13
1300
0100
0001
1000
0001
0010
0200
0000
,  // measure 14
0010
0000
1300
0100
0010
0001
0011
0000
,  // measure 15
1000
0001
0100
1000
0100
0010
0200
0000
,  // measure 16
0301
0100
0001
1000
0100
0010
0001
0022
,  // measure 17
0033
2020
3030
0220
0330
1000
0001
0010
,  // measure 18
0100
0000
0010
0100
1000
0001
1000
2020
,  // measure 19
3030
0022
0033
2002
3003
0010
1000
0001
,  // measure 20
0100
0000
0001
0010
1000
0010
0001
0022
,  // measure 21
0033
2200
3300
2020
3030
0001
1000
0001
,  // measure 22
0010
0100
2000
0000
3002
0003
1001
0100
,  // measure 23
0001
0000
1000
0001
0100
0000
0010
0100
0001
0000
1000
0100
0010
0000
0100
0000
,  // measure 24
1001
0000
0001
0000
0010
0000
0100
1000
0200
0000
0300
0000
0010
0000
0001
0100
,  // measure 25
0002
0000
0003
0000
0002
0000
1003
0001
0100
0000
0010
0000
1000
0000
0002
0000
,  // measure 26
0000
0103
MMMM
1000
1000
1000
1000
2000
,  // measure 27
0000
0000
3001
0000
1000
0000
0010
1000
0001
0000
0100
0000
0010
0000
1000
0100
,  // measure 28
0010
0000
0001
0000
1000
0000
0010
0100
0020
0000
1030
0000
0001
0000
0100
0010
,  // measure 29
0200
1300
0100
0010
0100
0001
1000
0200
,  // measure 30
0000
0310
MMMM
1000
1000
1000
1000
2000
,  // measure 31
3100
0000
0001
0000
0100
0000
1000
0000
0100
0000
0010
0000
0001
1000
0001
1000
,  // measure 32
0001
0010
0100
1000
0100
0010
0001
1000
,  // measure 33
0001
0100
0010
0100
0002
M000
0M23
M000
,  // measure 34
1M30
0010
0001
1000
0001
0100
0001
1000
,  // measure 35
MMMM
1000
0100
0010
MMMM
1000
0100
0020
,  // measure 36
0001
0000
0130
0010
0001
1000
0100
1000
,  // measure 37
0001
0010
0100
0010
00M2
M000
02M3
M000
,  // measure 38
0301
0100
1000
0100
0001
0010
1000
0001
,  // measure 39
0100
0000
0010
0000
0001
0000
1000
0000
0010
0000
0100
0000
0001
0100
0001
0100
,  // measure 40
M001
0100
002M
0030
10M0
0100
M020
0030
,  // measure 41
2M00
3000
M001
0010
0001
1000
02M0
0300
,  // measure 42
0M01
0010
M200
0300
0M02
0013
002M
0030
,  // measure 43
00M1
0100
M010
0100
100M
0100
0001
0000
;

//---------------dance-single - ----------------
#NOTES:
     dance-single:
     X-Scale 10:
     Hard:
     7:
     0.432756,0.493745,0.190073,0.487063,0.059398,255.000000,239.000000,16.000000,41.000000,0.000000,0.000000,0.432756,0.493745,0.190073,0.487063,0.059398,255.000000,239.000000,16.000000,41.000000,0.000000,0.000000:
// measure 0
0000
0000
0000
0000
,  // measure 1
0000
0000
0000
0000
,  // measure 2
0000
0000
0000
0000
,  // measure 3
0000
0000
0000
0000
,  // measure 4
0001
0000
0100
0000
1000
0100
0001
0000
,  // measure 5
1000
0000
0010
0000
0001
0010
1000
0000
,  // measure 6
0001
0000
0100
0000
1000
0100
0001
0000
,  // measure 7
1000
0000
0010
0100
0010
0000
1000
0100
1000
0000
0001
0100
0001
0000
1000
0000
,  // measure 8
1001
0000
0010
0000
0001
0010
1000
0010
,  // measure 9
0002
0203
0320
2030
,  // measure 10
3100
0000
0010
0000
1000
0010
0002
0000
,  // measure 11
0103
0000
0010
0100
2000
0000
3200
0000
,  // measure 12
0301
0000
1000
0000
0010
0100
0002
0000
,  // measure 13
0013
0000
0100
1000
0001
1000
0200
0000
,  // measure 14
0010
0000
1300
0000
0001
0010
0200
0000
,  // measure 15
0301
0000
0100
0000
1000
0001
0200
0000
,  // measure 16
0310
0100
0001
0000
1000
0000
1100
0200
,  // measure 17
0300
2000
3000
0002
0003
0100
0001
1000
,  // measure 18
0100
0000
1001
0000
0100
0000
0101
0002
,  // measure 19
0003
0020
0030
0200
0300
1000
0001
1000
,  // measure 20
0010
0000
0101
0000
1000
0000
1100
0200
,  // measure 21
0000
2300
3000
0002
0003
0100
0010
0001
,  // measure 22
1000
0100
0020
0000
2030
0000
3001
0020
,  // measure 23
0000
0000
0130
0010
0100
0000
1000
0100
1000
0000
0001
0100
0001
0000
1000
0000
,  // measure 24
1001
0100
0002
0000
1003
0000
0010
0100
,  // measure 25
0001
0000
0101
0000
0001
0000
0010
0100
,  // measure 26
1000
0000
1100
1000
0010
0001
0010
2000
,  // measure 27
0000
3001
1001
0000
0100
1000
0001
0000
,  // measure 28
0010
0001
0011
0000
1000
0000
1010
0000
,  // measure 29
0010
0100
1000
0100
0010
0001
0010
2000
,  // measure 30
0000
3001
1001
1000
0010
0001
0010
2000
,  // measure 31
0000
0000
3001
0000
1001
0000
2000
0000
0000
0000
3001
0000
0010
0100
0000
0100
,  // measure 32
1000
0001
0200
0000
0310
0100
0001
0020
,  // measure 33
0000
1030
0020
0000
0031
0100
1000
0100
,  // measure 34
0001
0000
1000
0001
0200
0000
2300
0000
,  // measure 35
3100
0001
1000
0020
0000
0031
0010
0200
,  // measure 36
0001
0000
0010
0000
0301
0000
1100
1000
,  // measure 37
0001
0200
0000
1300
0200
0000
0301
1000
,  // measure 38
0010
0100
0001
0000
1000
0000
1001
0000
,  // measure 39
0010
0000
0000
0000
1000
0000
0100
0000
0010
0000
0001
0000
1000
0001
1000
0001
,  // measure 40
1000
0100
0020
0000
1030
0010
0002
0000
,  // measure 41
0203
0000
1300
0100
0010
0100
0002
0000
,  // measure 42
1003
0001
0100
0000
0100
0010
0010
0000
,  // measure 43
1000
0100
0001
0100
1000
0001
0100
0000
;
