#TITLE:Signal;
#SUBTITLE:;
#ARTIST:Oolacile ft. Cromatik;
#TITLETRANSLIT:;
#SUBTITLETRANSLIT:;
#ARTISTTRANSLIT:;
#GENRE:Riddim;
#CREDIT:;
#BANNER:signal-bn.png;
#BACKGROUND:signal-bg.png;
#LYRICSPATH:;
#CDTITLE:cdtitle.png;
#MUSIC:signal.ogg;
#OFFSET:-0.008000;
#SAMPLESTART:36.865002;
#SAMPLELENGTH:12.000000;
#SELECTABLE:YES;
#DISPLAYBPM:70.000000:140.000000;
#BPMS:0.000000=70.000000
,16.000000=140.000000
,32.000000=70.000000
,48.000000=140.000000
,124.000000=280.000000
,124.500000=140.000000
,124.750000=70.000000
,125.000000=280.000000
,125.500000=140.000000
,125.750000=70.000000
,126.000000=280.000000
,126.500000=140.000000
,126.750000=70.000000
,127.000000=140.000000
;
#STOPS:54.000000=0.857000,
60.000000=0.857000,
136.500000=0.429000,
139.500000=0.429000
;
#BGCHANGES:;
#KEYSOUNDS:;
#ATTACKS:;

//---------------dance-single - ----------------
#NOTES:
     dance-single:
     X-Scale 11:
     Hard:
     8:
     0.467492,0.645973,0.416493,0.666389,0.345094,275.000000,240.000000,35.000000,56.000000,0.000000,0.000000,0.467492,0.645973,0.416493,0.666389,0.345094,275.000000,240.000000,35.000000,56.000000,0.000000,0.000000:
0000
0000
0000
0000
,
0000
0000
0000
0000
,
0000
0000
0000
0000
,
0000
0000
0000
0000
,
1100
0000
1000
0001
0011
0000
0100
0000
,
1000
0010
0110
0004
,
0023
0000
0000
0030
0000
0000
0020
0000
0000
0030
0000
0000
0110
0000
0000
0000
0100
0000
1000
0000
0000
0000
0001
0000
,
1000
0000
0100
0010
0000
0010
0014
0000
0000
0100
0000
0000
,
1003
0001
1000
0100
0010
0001
0010
0000
,
0110
0100
0010
0001
1000
0001
0010
0000
,
0110
0100
1000
0001
1000
0100
0010
0001
,
1000
0000
0000
0000
0010
0000
0000
0000
1010
0000
0000
0000
0001
0000
0000
0000
1000
0000
0000
0000
0001
0000
0010
0001
0010
0000
0001
0000
0100
0000
0000
0000
,
0101
0001
0100
1000
0100
0001
1000
0010
0100
0001
1000
0100
,
0010
0000
0000
0001
0000
0000
0010
0000
0000
0001
0000
0000
0010
0000
0000
0100
0000
0000
0010
0000
0000
0100
0000
0000
0020
0000
0000
0000
0000
0000
0000
0000
0000
0000
0000
0000
0031
0000
0000
0000
0000
0000
0000
0000
0010
0000
0000
0000
,
0001
0000
0010
0001
0000
0010
0200
0000
0000
1300
0100
1000
,
2200
3300
0022
0033
1001
1000
0100
0010
,
0001
1000
0010
0100
0001
0010
0001
1000
,
2002
0000
0000
3003
0000
0000
0001
0000
0000
0000
0010
0000
0100
0000
0000
0000
0010
0000
0100
0000
0000
1000
0000
0000
,
2020
0000
0000
3030
0000
0000
0010
0000
0000
0000
0100
0000
0001
0000
0000
0000
0100
0000
0001
0000
0000
0010
0000
0000
,
0022
0033
2200
3300
1001
0010
1000
0001
,
0022
0033
2200
3300
1001
0100
0001
0001
,
0022
0033
2200
3300
1001
0100
1000
0001
,
0022
0000
0033
0000
2200
0000
3300
0000
1001
0000
1000
0000
0200
0300
0200
0300
,
0120
0000
0000
0230
0000
0000
2300
0000
0000
3001
1000
0100
,
0020
0000
0000
0032
0000
0000
2003
0000
0000
3001
1000
0100
,
0020
0032
4003
0000
,
3200
0000
0000
2300
0000
0000
3001
0400
0300
0400
0300
0400
,
0320
0000
0000
0031
0010
0100
0020
0000
0000
1030
0010
0100
,
0002
0000
0000
2003
0000
0000
3100
0010
0001
0010
0001
0010
,
0200
0000
0000
0320
0000
0001
0031
0000
0010
1000
0010
0001
,
0020
0000
0000
0000
0000
0000
0230
0000
0000
0000
0000
0000
1300
0000
0000
0000
0100
0000
0000
0000
0000
1000
0000
0000
,
4400
0000
0000
3300
0000
0000
0404
0000
0000
0303
0000
0000
1100
0000
0000
0000
0000
0000
0001
0000
1000
0000
0100
1000
,
0100
0010
0001
0010
0011
0100
0001
0100
,
1010
0000
0010
0000
1000
0000
0001
0000
1001
0000
0100
0000
0020
0030
0020
0030
,
0022
0000
0000
0033
0000
0000
0001
0000
0100
0000
0010
0000
1000
0000
0100
0000
0010
0000
0220
0000
0000
0330
0000
0000
,
0100
0000
1000
0000
0001
0000
1000
0000
0100
0000
0010
0000
0001
0000
0000
0010
0000
0000
1000
0000
0000
0010
0000
0000
,
0001
0100
1000
0100
0001
0010
0100
0010
,
0001
0000
0100
0000
0020
0030
0020
0030
0000
0000
0000
0000
0000
0000
0000
0000
;

//---------------dance-single - ----------------
#NOTES:
     dance-single:
     X-Scale 8:
     Medium:
     6:
     0.367194,0.446243,0.095198,0.499792,0.255846,216.000000,208.000000,8.000000,42.000000,0.000000,0.000000,0.367194,0.446243,0.095198,0.499792,0.255846,216.000000,208.000000,8.000000,42.000000,0.000000,0.000000:
0000
0000
0000
0000
,
0000
0000
0000
0000
,
0000
0000
0000
0000
,
0000
0000
0000
0000
,
1002
0000
1003
0001
,
0100
0010
0110
1000
,
0200
0000
0310
0001
,
1000
0001
2001
0000
,
3100
1000
0001
0000
0000
0000
0000
0000
,
0100
0100
0100
0000
0000
0000
0000
0000
,
1001
1000
0001
1000
0100
0010
0001
1000
,
0001
0000
0010
0000
0100
0000
1000
0000
0001
0000
1000
0000
0100
1000
0100
0000
,
1000
0000
1000
0001
0000
0001
0010
0000
0010
0100
0000
0100
,
1000
0000
0100
1000
0000
0100
2000
0000
0000
3001
0000
0100
,
0001
0000
0100
0001
0000
0100
0002
0000
0000
1003
0000
0001
,
2000
0000
3200
0000
1300
0100
0010
0100
,
1000
0100
0010
0100
1000
0001
0100
0010
,
1000
0000
0000
0001
0000
0100
0010
0000
0100
0010
0000
0100
,
0020
0000
0000
1030
0000
0001
0100
0000
0001
0100
0000
0001
,
0200
0000
0320
0000
1030
0010
0001
0010
,
0200
0000
0302
0000
1003
0100
0001
0100
,
2000
0000
3002
0000
0013
0100
1000
0001
,
2000
0000
3200
0000
0301
0100
1000
0010
,
2010
0000
0000
3002
0000
0000
0013
0000
0000
0100
0000
0010
,
0200
0000
0000
2300
0000
0000
3001
0000
0000
1000
0000
0100
,
0020
0230
2300
0000
,
3002
0000
0000
2003
0000
0000
3100
0020
0030
0020
0030
0020
,
0031
0000
0000
1000
0001
1000
0001
0000
0000
0010
0100
0010
,
0200
0000
0000
2300
0000
0000
3001
0100
0010
1000
0100
0010
,
0002
0000
0000
2003
0000
0001
3001
0000
1000
0010
0100
0010
,
2000
3002
1003
0000
,
2200
0000
0000
3300
0000
0000
2200
0000
0000
3300
0000
0000
1100
0000
0000
0000
0000
0000
1000
0000
0001
0000
1000
0000
,
0001
0100
0010
0100
0001
0100
0010
0100
,
0001
0010
1000
0010
0001
0010
1000
0010
,
0002
0000
0000
0003
0000
0000
1000
0000
0001
0000
1000
0000
0001
0000
1000
0000
0001
0000
2000
0000
0000
3000
0000
0000
,
0100
0000
0010
0000
0100
0000
0010
0000
0100
0000
0010
0000
0001
0000
0000
0100
0000
0000
1000
0000
0000
0100
0000
0000
,
0001
0100
1000
0100
0001
0010
0100
0010
,
0001
0010
0200
0320
0030
0000
0000
0000
;

//---------------dance-single - ----------------
#NOTES:
     dance-single:
     X-Scale 5:
     Easy:
     3:
     0.265196,0.334682,0.273695,0.404593,0.000000,156.000000,133.000000,23.000000,34.000000,0.000000,0.000000,0.265196,0.334682,0.273695,0.404593,0.000000,156.000000,133.000000,23.000000,34.000000,0.000000,0.000000:
0000
0000
0000
0000
,
0000
0000
0000
0000
,
0000
0000
0000
0000
,
0000
0000
0000
0000
,
1000
0001
1001
0001
,
0010
0100
0110
0010
,
0100
1000
1100
1000
,
0001
0100
0101
0001
,
1001
0000
0000
0000
,
0110
0000
0000
0000
,
1001
0001
1000
0000
0001
0010
0001
0000
,
1000
0010
1000
0000
0100
0010
0100
0000
,
1100
0000
0110
0000
,
0011
1001
0011
0100
,
0010
0100
1000
0001
,
1000
0000
1001
0001
,
0101
0100
0110
0010
,
1010
1000
0100
1000
,
1100
1000
0100
1000
,
2100
3002
0103
0010
,
0200
0000
0320
0000
1030
0000
0001
0010
,
0200
0320
0031
1000
,
0200
0000
2300
0000
3001
0000
0010
0100
,
0020
0032
2003
3010
,
0200
0320
2030
3100
,
0020
0032
2003
0000
,
3020
2030
3001
0000
,
1001
1000
1100
0100
,
0020
0230
1300
0001
,
2000
3200
0310
0100
,
2000
3002
1003
0000
,
2000
3000
0002
0003
2000
3000
0000
0000
,
1100
0000
1000
0001
1000
0000
0001
0100
,
0001
0000
0100
0010
0100
0000
0001
0010
,
0022
0033
1000
0000
0000
0000
2002
3003
,
0001
0000
0000
0000
1000
0000
0100
1000
,
0100
0000
0010
0001
0010
0000
0001
0100
,
0001
0000
0200
0320
0030
0000
0000
0000
;

//---------------dance-single - ----------------
#NOTES:
     dance-single:
     X-Scale 2:
     Beginner:
     1:
     0.110498,0.132980,0.000000,0.000000,0.000000,65.000000,65.000000,0.000000,0.000000,0.000000,0.000000,0.110498,0.132980,0.000000,0.000000,0.000000,65.000000,65.000000,0.000000,0.000000,0.000000,0.000000:
// measure 0
0000
0000
0000
0000
,  // measure 1
0000
0000
0000
0000
,  // measure 2
0000
0000
0000
0000
,  // measure 3
0000
0000
0000
0000
,  // measure 4
1000
0000
0100
0000
,  // measure 5
1000
0000
0100
0000
,  // measure 6
0010
0000
0001
0000
,  // measure 7
0010
0000
0001
0000
,  // measure 8
1000
0000
0000
0000
,  // measure 9
0001
0000
0000
0000
,  // measure 10
1000
0000
0000
0000
,  // measure 11
0100
0000
0100
0000
,  // measure 12
0100
0000
1000
0000
,  // measure 13
0001
0000
0100
0000
,  // measure 14
0100
0000
0010
0000
,  // measure 15
0010
0000
1000
0000
,  // measure 16
0001
0000
1000
0000
,  // measure 17
0001
0000
0010
0000
,  // measure 18
0100
0000
0010
0000
,  // measure 19
0100
0000
1000
0000
,  // measure 20
0010
0000
1000
0000
,  // measure 21
0010
0000
0100
0000
,  // measure 22
0001
0000
0100
0000
,  // measure 23
0001
0000
1000
0000
,  // measure 24
0001
0000
1000
0000
,  // measure 25
0100
0000
0010
0000
,  // measure 26
0100
0000
0010
0000
,  // measure 27
0001
0000
0100
0000
,  // measure 28
0001
0000
0100
0000
,  // measure 29
0010
0000
1000
0000
,  // measure 30
0010
0000
1000
0000
,  // measure 31
0001
0001
0001
0000
,  // measure 32
0001
0000
0010
0000
,  // measure 33
0100
0000
1000
0000
,  // measure 34
0100
0000
0000
0100
,  // measure 35
0000
0000
1000
0000
,  // measure 36
0010
0000
0100
0000
,  // measure 37
0001
0001
0000
0000
;
