#TITLE:Shivers feat. Susana;
#SUBTITLE:;
#ARTIST:Armin van Buuren;
#TITLETRANSLIT:;
#SUBTITLETRANSLIT:;
#ARTISTTRANSLIT:;
#GENRE:Trance;
#CREDIT:;
#BANNER:Shivers feat. Susana-bn.png;
#BACKGROUND:Shivers feat. Susana-bg.png;
#LYRICSPATH:;
#CDTITLE:cdtitle.png;
#MUSIC:Shivers feat. Susana.ogg;
#OFFSET:-0.004000;
#SAMPLESTART:71.561996;
#SAMPLELENGTH:14.222000;
#SELECTABLE:YES;
#BPMS:0.000000=135.000000
;
#STOPS:
;
#BGCHANGES:;
#KEYSOUNDS:;
#ATTACKS:;

//---------------dance-single - ----------------
#NOTES:
     dance-single:
     X-Scale 2:
     Beginner:
     1:
     0.107583,0.160864,0.019065,0.000000,0.000000,79.000000,77.000000,2.000000,0.000000,0.000000,0.000000,0.107583,0.160864,0.019065,0.000000,0.000000,79.000000,77.000000,2.000000,0.000000,0.000000,0.000000:
// measure 0
0000
0000
0000
0000
,  // measure 1
0000
0000
0000
0000
,  // measure 2
0000
0000
0000
0000
,  // measure 3
0000
0000
0000
0000
,  // measure 4
0000
1000
0000
0010
,  // measure 5
0000
0100
0000
0001
,  // measure 6
0000
0010
0000
0100
,  // measure 7
0000
1000
0000
0000
,  // measure 8
0000
0000
0001
0000
,  // measure 9
0001
0000
1000
0000
,  // measure 10
1000
0000
0100
0000
,  // measure 11
0100
0000
0010
0000
,  // measure 12
0010
0000
0001
0000
,  // measure 13
0001
0000
1000
0000
,  // measure 14
1000
0000
0010
0000
,  // measure 15
0010
0000
1000
0000
,  // measure 16
1000
0000
0100
0000
,  // measure 17
1000
0000
0001
0000
,  // measure 18
1000
0000
0100
0000
,  // measure 19
1000
0000
0001
0000
,  // measure 20
0100
0000
0010
0000
,  // measure 21
0100
0000
0001
0000
,  // measure 22
0100
0000
0010
0000
,  // measure 23
0100
0000
0001
0000
,  // measure 24
1000
0000
0000
0000
,  // measure 25
0000
0000
0000
0000
,  // measure 26
0000
0000
0000
0000
,  // measure 27
0000
0000
0000
0000
,  // measure 28
0000
0000
0000
0000
,  // measure 29
0000
0000
0000
0000
,  // measure 30
0000
0000
0000
0000
,  // measure 31
0000
0000
0000
0000
,  // measure 32
0000
1001
0000
0000
,  // measure 33
0000
0000
0000
0000
,  // measure 34
0000
1000
0000
0000
,  // measure 35
0000
0000
0000
0000
,  // measure 36
0000
0001
0000
0000
,  // measure 37
0000
0010
0000
0000
,  // measure 38
0000
0100
0000
0000
,  // measure 39
0000
1000
0000
0000
,  // measure 40
0000
1001
0000
0100
,  // measure 41
0000
1000
0000
0001
,  // measure 42
0000
1000
0000
0010
,  // measure 43
0000
1000
0000
0001
,  // measure 44
0000
1000
0000
0100
,  // measure 45
0000
0010
0000
0100
,  // measure 46
0000
1000
0000
0001
,  // measure 47
0000
0100
0000
0001
,  // measure 48
0000
1000
0000
0010
,  // measure 49
0000
1000
0000
0001
,  // measure 50
0000
0100
0000
0010
,  // measure 51
0000
0100
0000
0001
,  // measure 52
0000
1000
0000
0100
,  // measure 53
0000
0010
0000
0100
,  // measure 54
0000
1000
0000
0001
,  // measure 55
0000
1000
0000
0000
,  // measure 56
0000
0100
0000
0000
;

//---------------dance-single - ----------------
#NOTES:
     dance-single:
     X-Scale 5:
     Easy:
     3:
     0.196101,0.298850,0.038131,0.181121,0.000000,144.000000,140.000000,4.000000,19.000000,0.000000,0.000000,0.196101,0.298850,0.038131,0.181121,0.000000,144.000000,140.000000,4.000000,19.000000,0.000000,0.000000:
0000
0000
0000
0000
,
0000
0000
0000
0000
,
0000
0000
0000
0000
,
0000
0000
0000
0000
,
0000
0001
0000
0100
,
0001
0000
1000
0000
0000
0100
0000
0000
,
0010
0001
0000
1000
,
0002
0100
0000
0103
,
0000
0000
0101
0000
,
1000
0000
0001
0000
,
0100
0000
0001
0000
,
1000
0000
0100
0000
,
0010
0000
0100
0000
,
1000
0000
0001
0000
,
0010
0000
0100
0000
,
0010
0000
0001
0000
,
0000
0000
2001
0000
0000
3200
0000
0000
,
0000
0300
0100
0000
0000
0000
1000
0000
,
0000
0010
1000
0100
,
0010
0002
0000
0000
0103
0000
0000
0000
,
0001
0000
0020
0000
0000
0230
0000
0000
,
0000
1300
0000
0001
,
0000
1000
0010
0100
,
0002
0000
1003
0000
,
1000
0200
0000
0000
,
0000
0000
0300
0000
,
0000
0000
0000
0000
,
0000
0000
0000
0000
,
0000
0000
0000
0000
,
0000
0000
0000
0000
,
0000
0000
0000
0000
,
0000
0000
0000
0000
0000
0002
0000
0000
,
1003
1001
0000
0100
,
0000
1000
0000
0001
,
0000
0100
0000
0001
,
0000
1000
0000
0100
,
0000
0010
0000
0001
,
0000
1000
0000
0001
,
0000
0100
0000
0010
,
0000
1000
0000
0001
,
0000
1001
1000
0010
,
1000
0001
1000
0010
,
1000
0001
0010
0000
0100
0000
0010
0000
,
0001
1000
0001
0100
,
0010
0100
0001
0000
0010
0000
0100
0000
,
1000
0001
1000
0010
,
1000
0100
0010
0000
0001
0000
0100
0000
,
0010
1000
0001
0100
,
0001
1000
0100
0000
0010
0200
1000
0000
,
0010
1300
0100
0020
,
0001
0230
2300
0001
,
3010
2000
3002
0100
,
1003
0001
1000
0000
0100
0000
0010
0000
,
0100
0000
1000
0000
0001
0000
0010
0100
,
1000
0002
0000
0203
0001
0000
0010
0000
,
0301
0000
0100
0000
0010
2000
0000
0000
,
3100
0010
0002
0000
0000
0000
0000
0000
,
0003
0000
0000
0000
;

//---------------dance-single - ----------------
#NOTES:
     dance-single:
     X-Scale 8:
     Medium:
     6:
     0.349987,0.434691,0.104860,0.362243,0.171589,257.000000,246.000000,11.000000,38.000000,0.000000,0.000000,0.349987,0.434691,0.104860,0.362243,0.171589,257.000000,246.000000,11.000000,38.000000,0.000000,0.000000:
0000
0000
0000
0000
,
0000
0000
0000
0000
,
0000
0000
0000
0000
,
0000
0000
0000
0000
,
0000
1000
0001
0100
,
0001
0000
1000
0000
0100
0020
0000
0000
,
0032
0203
0000
0320
,
2030
0001
0000
3001
,
0000
0100
0101
0001
,
1001
0000
1000
0000
0100
2000
0010
0000
,
0001
3010
1001
0100
,
0101
0000
0001
0000
1000
0200
0001
0000
,
0010
1300
1100
0001
,
1001
0100
0101
0001
,
1000
0001
0020
0000
1000
0000
0032
0000
,
0203
1000
0010
0301
,
0100
0000
0102
0000
0000
2003
0001
0000
,
0100
3001
0010
0100
,
1000
0020
0230
0302
,
0013
0200
0010
0000
1300
0001
0100
0000
,
0001
0010
0200
0000
0000
0320
0001
0000
,
0130
0010
1000
0000
0001
0010
0100
0000
,
1000
0001
0200
0000
0302
0000
2003
0000
,
3200
0000
0010
0000
1300
0100
0010
0000
,
0100
0010
0001
0000
0000
0000
0000
0000
,
0000
0000
0000
0000
,
0000
1000
0000
0000
,
0000
0000
0000
0000
,
0000
0001
0000
0000
,
0000
0000
0000
0000
,
0000
0000
0000
0000
1000
0000
0000
1000
0000
0000
1000
0000
0001
0000
0000
0001
,
0000
0000
0001
0000
0100
0000
0000
0100
0000
0000
0100
0000
0010
0000
0000
0010
,
0000
0010
0110
0000
0100
0000
0001
0000
,
1000
0001
0010
0100
,
0010
0001
1000
0001
,
0100
0010
1000
0100
,
0010
0000
0000
0000
0011
0000
0000
0001
0000
0000
0001
0000
1000
0000
0000
1000
,
0000
1000
0010
0000
0100
0010
1000
0001
,
0010
0000
0200
0000
0000
0000
2300
0000
0000
0000
0001
0000
0001
0000
0000
0001
,
3000
0000
1000
0000
1000
0000
0000
1000
0000
0000
0010
0000
0010
0000
0000
0010
,
0000
0000
0000
0000
1010
0000
0000
1000
0001
0000
1000
0000
0100
0000
0000
0010
,
0000
0000
0001
0000
0100
0000
0000
0010
0100
0000
0001
0000
1000
0000
0000
0100
,
0000
0000
1000
0000
0001
0000
0000
0010
0000
0000
0100
0000
1000
0000
0000
0001
,
0000
0000
0100
0000
0001
0000
0000
0010
0000
0000
0100
0000
1000
0100
0000
0100
,
0010
0000
0001
0000
1000
0000
0000
0001
0000
0000
0100
0000
0001
0000
0000
1000
,
0000
0000
0010
0000
1000
0000
0000
0001
0000
0000
0010
0000
0100
1000
0000
1000
,
0001
0000
0100
0000
0001
0000
0000
1000
0000
0000
0100
0000
0010
0000
0000
0100
,
0000
0000
1000
0000
0001
0000
0000
0001
0000
0000
0020
0000
1000
0000
0000
0000
,
1030
0010
0002
0000
0103
0020
0001
0000
,
0130
0000
0010
0000
1000
0000
0000
1000
0000
0000
0001
0000
0002
0000
0000
0000
,
0100
0000
0000
0000
2003
0000
0000
0000
3200
0000
0000
0000
0310
0000
0000
0100
,
0000
0000
1000
0000
0002
0000
0000
0000
0203
0000
0000
0000
0310
0000
0000
0010
,
0000
0000
0100
0000
0001
0000
0000
0001
0000
0000
0010
0000
0100
0000
0000
0100
,
0000
0000
1000
0000
0001
0000
0000
0001
1000
0000
0100
0000
0001
0000
1000
0000
,
0010
0000
0002
0000
0000
0000
0203
0000
0001
0000
0000
0000
0310
0100
0000
0100
,
0000
0000
0001
0000
1000
0100
0000
0100
0000
0000
0020
0000
0000
0000
0000
0000
,
1030
0010
0002
0000
0023
0200
0000
0000
,
0330
0000
0000
0000
;

//---------------dance-single - ----------------
#NOTES:
     dance-single:
     X-Scale 11:
     Hard:
     8:
     0.420801,0.543364,0.104860,0.448037,0.281215,309.000000,298.000000,11.000000,47.000000,0.000000,0.000000,0.420801,0.543364,0.104860,0.448037,0.281215,309.000000,298.000000,11.000000,47.000000,0.000000,0.000000:
0000
0000
0000
0000
,
0000
0000
0000
0000
,
0000
0000
0000
0000
,
0000
0000
0000
0000
,
0000
0001
1000
0010
,
1000
0000
0001
0000
0010
0100
1000
0000
,
0001
0200
1000
0302
,
0023
0000
0000
0000
0100
0000
0000
0100
0030
0000
0100
0000
1000
0000
0000
1000
,
0000
1000
0100
0000
1100
0000
0200
0000
,
0320
0000
0032
0000
1003
0020
0001
0000
,
0100
1030
1001
0010
,
0012
0000
2003
0000
3001
0200
1000
0000
,
0010
0301
0101
2000
,
3200
0000
0302
0000
0103
0020
0001
0000
,
0130
1000
0002
0000
0100
0000
1003
0000
,
0001
0000
0000
0000
0100
0001
0000
0001
0000
0000
0010
0000
0100
1000
0000
1000
,
0000
0001
2001
0000
0100
3200
0010
0000
,
1300
0000
0000
0000
0100
1000
0000
1000
0000
0000
0001
0000
0100
0001
0000
0001
,
0000
1000
0020
0000
1030
0000
0200
0000
,
0310
0000
0002
0000
0010
0000
0000
0000
1003
0000
0000
0000
0001
0010
0000
0010
,
0000
0100
2000
0000
0010
3020
0001
0000
,
0130
0000
0000
0000
0010
0100
0000
0100
0000
0000
0010
0000
1000
0100
0000
0100
,
0000
0010
0002
0000
0203
0000
2300
0000
,
3200
0000
0000
0000
0001
0000
0000
0000
0310
0000
0000
0000
0100
0001
0000
0001
,
0000
1000
2002
0000
0000
0000
0000
0000
,
3003
0000
0000
0000
0000
0000
0000
0000
0000
0000
0100
0000
0100
0000
0000
1000
,
0000
0000
0001
0000
0000
0000
0100
0000
0000
0100
0000
0000
0100
0000
0000
0000
,
0000
0000
0000
0000
0000
0000
0000
0000
0000
0000
0010
0000
0010
0000
0000
0001
,
0000
0000
1000
0000
0000
0000
0001
0000
0000
0001
0000
0000
0001
0000
0000
0000
,
0000
0000
0000
0000
1000
0000
0000
0100
0000
0000
1000
0000
0000
0001
0000
0000
,
1000
0000
0001
0000
0100
0000
0000
0010
0000
0000
0001
0000
1000
0000
0000
0010
,
0000
0100
1000
0000
0000
0020
0000
0000
,
1030
0001
2001
0000
3100
0020
0000
0000
,
0031
0010
0001
0020
,
1000
0031
0100
0001
,
0010
0200
2300
3001
,
0100
0000
0000
0000
0101
0000
0000
0001
0000
0000
1000
0000
0100
0000
0000
0100
,
0000
0000
0010
0000
0001
0000
0000
0001
0000
0000
1000
0000
0010
0000
0000
0010
,
0000
0000
2020
0000
3030
0000
0202
0000
0000
0000
0303
0000
0001
0000
0000
0001
,
0000
0000
1000
0000
0010
0000
0000
0010
0000
0000
1000
0000
0100
0000
0000
0010
,
0000
0000
0001
0000
0011
0000
0000
0001
0010
0000
0100
0000
0010
0000
0000
0001
,
0100
0000
0010
0000
0100
0000
0000
0001
0010
0000
0100
0000
1000
0000
0000
0100
,
0010
0000
0100
0000
1000
0000
0000
0010
0100
0000
0010
0000
1000
0000
0000
0100
,
0010
0000
0100
0000
1000
0000
0000
0001
0100
0000
0010
0000
0100
0000
0000
0001
,
0010
0000
0100
0000
0010
0000
0000
0001
1000
0000
0001
0000
0100
0000
0000
0001
,
0010
0100
1000
0000
0100
0010
0001
1000
,
0001
0020
0000
0230
0010
0000
1000
0000
,
0310
0000
0100
0000
1000
0000
0000
0001
1000
0000
0200
0000
0001
0000
0000
0000
,
0310
0000
0100
0000
1000
0000
0000
0000
0001
0000
0100
0000
0010
0000
0000
0010
,
1000
0000
0001
0000
0010
0000
0000
0010
0100
0000
1000
0000
0001
0000
0000
0001
,
1000
0000
0100
0000
0010
0000
0000
0010
0100
0000
1000
0000
0001
0000
0000
0001
,
0100
0000
0001
0000
1000
0000
0000
1000
0010
0000
0100
0000
0100
0001
0000
1000
,
0100
0000
0010
0000
0100
1000
0000
0001
0100
0000
0001
0000
1000
0000
0000
1000
,
0001
0000
0100
0000
0001
0010
0000
0010
0100
0000
0010
0000
0001
0000
1000
0000
,
0010
0000
0200
0000
0000
0000
0302
0000
0000
0000
1000
0000
1000
0000
0000
1000
,
0003
0000
0001
0000
0100
0000
0000
0100
0001
0000
0020
0000
0000
0000
0000
0000
,
1030
0010
0200
0000
2300
0002
0000
0000
,
3003
0000
0000
0000
;

//---------------dance-single - ----------------
#NOTES:
     dance-single:
     X-Scale 12 (DANCERUSH Special):
     Challenge:
     8:
     0.288705,0.434691,0.028598,0.409906,0.090561,212.000000,209.000000,3.000000,43.000000,110.000000,0.000000,0.288705,0.434691,0.028598,0.409906,0.090561,212.000000,209.000000,3.000000,43.000000,110.000000,0.000000:
0000
0000
0000
0000
,
0000
0000
0000
0000
,
0000
0000
0000
0000
,
0000
0000
0000
0000
,
0000
1000
0000
0002
,
0203
0000
0320
0030
0010
0002
0100
0000
,
2003
3200
0001
2300
,
3020
0100
0000
0130
,
0000
1000
MMMM
1000
,
MMMM
0000
1000
0000
0100
0020
0001
0000
,
0100
0031
MMMM
0001
,
MMMM
0000
0001
0000
0010
0200
0001
0000
,
0010
1300
MMMM
1000
,
MMMM
0000
1000
0000
0001
0200
0010
0000
,
0301
1000
0200
0000
0001
0000
2300
0000
,
3002
0100
1000
0103
,
0001
0000
0102
0000
0000
2003
0000
0000
,
3001
0100
0001
0010
,
0100
0010
0001
0100
,
0001
2000
0010
0000
3001
0000
0100
0000
,
0010
0000
2000
0000
0000
3200
0000
0000
,
0301
0100
1000
0001
,
1000
0100
0001
0010
,
2000
0010
3001
1000
,
0001
MMMM
0000
0000
,
0000
0000
0000
0000
0000
0000
0000
0000
0000
0000
1000
0000
1000
0000
0000
0100
,
0000
0010
0001
0000
0000
0000
0000
0000
,
0000
0000
0000
0000
0000
0000
0000
0000
0000
0000
0001
0000
0001
0000
0000
0100
,
0000
0010
1000
0000
0000
0000
0000
0000
,
0000
0000
0000
0000
0000
0000
0000
0000
0000
0000
0000
0000
0000
0000
0000
1000
,
0000
0000
0M10
0000
0010
0000
0000
0001
0000
0000
1000
0000
1000
0000
0000
0M10
,
0000
0000
0010
0000
0001
0000
0000
1000
0000
0000
0200
0000
0000
0000
0000
0000
,
0300
0000
1001
0000
0100
2000
0000
0000
,
3001
0000
0000
0200
,
0000
0302
2003
3000
,
0000
0200
0320
0030
,
0000
0011
0010
0100
,
1000
0000
0001
0000
0100
1000
0100
0010
,
0100
0002
0000
2000
0000
0000
3003
0000
,
0000
1000
0000
0001
,
0000
0000
1000
MMMM
1000
MMMM
1000
MMMM
,
1000
0000
MMMM
0000
1000
0000
0000
0000
1000
0000
0100
0000
0020
0000
0030
0010
,
0000
1000
0001
MMMM
0001
MMMM
0001
MMMM
,
0001
0000
MMMM
0000
0001
0000
0000
0000
0001
0000
0010
0000
0200
0000
0300
0100
,
0000
0001
1000
MMMM
1000
MMMM
1000
MMMM
,
1000
MMMM
1000
0000
0001
0100
1000
0001
,
0010
0000
2000
0000
0000
0000
3002
0000
1000
0000
0003
0000
0001
0000
0000
0200
,
0000
0300
0100
0000
1000
0000
0000
0001
0000
0000
0020
0000
0000
0000
0000
0000
,
1030
0010
0001
MMMM
0001
MMMM
0001
MMMM
,
0001
0000
MMMM
0000
0001
0000
0000
0001
0100
0000
0010
0000
2000
0000
0000
0000
,
0100
0000
3001
MMMM
0001
MMMM
0001
MMMM
,
0001
0000
MMMM
0000
0002
0000
0000
0000
1003
0000
0001
0000
0200
0000
0300
0100
,
0000
0000
1000
0000
0001
0000
0000
0001
0000
0000
0010
0000
0100
0000
0000
0100
,
0000
0000
1000
0000
0010
0000
0000
0010
1000
0000
0100
0000
0001
0000
1000
0000
,
0010
0000
0002
0000
0000
0000
2003
0000
0010
0000
0000
0000
3010
1000
0000
1000
,
0000
0000
0001
0000
0010
0001
0000
0001
0000
0000
2000
0000
0000
0000
0000
0000
,
3100
0010
0002
0000
0013
0200
0000
0000
,
0300
0000
0000
0000
;
