#TITLE:Shit On My Ass (Eliminate Remix);
#SUBTITLE:;
#ARTIST:Brian Robert Jones;
#TITLETRANSLIT:;
#SUBTITLETRANSLIT:;
#ARTISTTRANSLIT:;
#GENRE:MemeDM;
#CREDIT:;
#BANNER:Shit on My Ass (Eliminate Remix)-bn.png;
#BACKGROUND:Shit on My Ass (Eliminate Remix)-bg.png;
#LYRICSPATH:;
#CDTITLE:cdtitle.png;
#MUSIC:Shit On My Ass (Eliminate Remix).ogg;
#OFFSET:0.086000;
#SAMPLESTART:24.176001;
#SAMPLELENGTH:14.667000;
#SELECTABLE:YES;
#BPMS:0.000000=165.000000
;
#STOPS:59.000000=2.545000,
120.000000=0.364000,
120.500000=0.182000,
121.000000=0.182000,
176.500000=0.364000
;
#BGCHANGES:0.125=Shit on My Ass (Eliminate Remix).avi=1.000=1=0=0=StretchNoLoop==CrossFade==,
99999=-nosongbg-=1.000=0=0=0 // don't automatically add -songbackground-
;
#KEYSOUNDS:;
#ATTACKS:;

//---------------dance-single - ----------------
#NOTES:
     dance-single:
     X-Scale 7:
     Easy:
     5:
     0.324693,0.457573,0.101632,0.415766,0.000000,246.000000,235.000000,11.000000,45.000000,0.000000,0.000000,0.324693,0.457573,0.101632,0.415766,0.000000,246.000000,235.000000,11.000000,45.000000,0.000000,0.000000:
0000
0000
0000
0000
,
0000
0000
0000
0000
,
0000
0000
0000
0000
,
0000
0000
0000
0000
,
0000
0000
0000
1000
,
0000
0000
0001
0000
0000
2002
0000
0000
,
0000
3003
0000
0001
,
0000
0010
0000
0100
,
0000
1000
0000
0000
0001
1000
0001
0000
,
0100
0001
0100
0010
,
1000
0010
1000
0100
,
0010
0100
0010
0001
,
1000
0001
1000
0010
,
0100
0010
0100
0001
,
0010
0001
0010
0000
,
1100
0000
1000
0000
0200
0000
0000
0320
,
0000
0031
1000
0001
,
0010
0100
0010
0001
,
1000
0000
0010
0200
0000
0000
0301
0000
,
2000
0000
3200
0000
0320
0000
0000
0032
,
0000
0000
0100
0000
1003
0001
0100
0000
,
0010
0100
0001
0010
,
0100
0000
1000
0200
0000
0010
0310
0000
,
0110
0000
0000
0000
0000
0000
0000
2000
,
0000
0000
0000
0000
0000
0001
3001
0000
,
0011
0000
0001
0000
0010
0000
0100
1000
,
0200
0300
0100
0020
0000
0130
1000
0000
,
1100
0000
0100
0000
0010
0100
1000
0000
,
0001
0000
0100
0000
0010
0100
0001
0000
,
1000
0000
0100
0000
0010
0100
1000
0000
,
1100
0000
1002
2003
,
3020
0000
0000
0230
0010
0000
0001
0000
,
0310
0100
0002
0000
1003
0000
0100
0000
,
0010
0100
1000
0000
0001
0000
0100
0002
,
0000
1000
1003
0000
0001
0000
0010
0000
,
0100
0010
0001
2000
0001
0000
3100
0000
,
1000
0001
0100
0000
0001
0000
0010
0000
,
0100
0010
0001
0000
1000
0001
0100
0020
,
0000
0100
0130
0000
1001
0000
0001
0010
,
0200
0000
0310
0002
0100
0000
1003
0100
,
0020
0000
0130
2000
0100
0000
3001
0000
,
1000
0001
0100
0000
0020
0000
0130
0002
,
0000
0103
0001
0000
1000
0000
0010
1000
,
0002
0000
0000
0203
0010
0000
0001
0001
,
0300
0000
1100
0000
1000
0200
0000
0000
,
0300
0100
0010
0001
1000
0002
0000
0000
,
0103
0001
0010
0200
,
0000
2300
0000
0000
0000
0000
3000
0001
,
2000
3100
1000
0001
,
0100
0000
0010
0100
0001
0020
0000
0000
,
0130
0010
0001
0000
1000
0000
0200
0000
,
0000
0320
0000
0000
0030
0000
0001
1000
,
0001
2000
0000
0000
0000
0000
0000
0000
,
3100
0020
0000
0000
0000
0000
0000
0000
,
0031
0200
0000
0000
0000
0000
0000
0000
,
0000
0302
0000
0000
0000
0000
0000
0003
,
0000
1000
0000
0000
0001
0000
1000
0010
,
0000
0100
0000
0000
0001
0100
0001
0000
,
0000
0001
0000
0010
0000
0100
0000
0010
,
0001
0000
1000
0001
0000
0100
0000
0010
,
0100
0001
0010
0200
,
2000
0000
0000
0000
,
0000
0000
0000
3300
,
0000
0000
0000
0000
,
0000
0001
0000
1000
,
0000
0001
0000
0000
0010
0000
0100
0000
,
0000
0000
0000
1010
0000
0000
0000
0000
,
0000
0000
0001
0000
,
0010
0000
0000
2002
,
0000
0000
0000
0000
,
0000
0000
0000
3003
;

//---------------dance-single - ----------------
#NOTES:
     dance-single:
     X-Scale 10:
     Medium:
     7:
     0.364290,0.522941,0.092392,0.443484,0.023098,276.000000,266.000000,10.000000,48.000000,0.000000,0.000000,0.364290,0.522941,0.092392,0.443484,0.023098,276.000000,266.000000,10.000000,48.000000,0.000000,0.000000:
0000
0000
0000
0000
,
0000
0000
0000
0000
,
0000
0000
0000
0000
,
0000
0000
0000
0000
,
0000
0000
0000
0002
,
0023
0000
0230
0000
0300
2200
0000
0000
,
0000
0000
3300
1000
0001
0000
0200
0000
,
0000
0000
0302
0023
,
0000
0230
0000
0000
1300
0100
1000
0000
,
0001
0000
0100
0000
0001
0010
0100
0000
,
0010
0001
1000
0010
,
0001
0100
1000
0001
,
0010
0100
1000
0000
0001
0100
0001
0000
,
1000
0100
0001
0010
,
1000
0000
0001
0000
0100
0001
0000
0000
,
1001
0000
1000
0000
0010
0000
0001
0010
,
1000
0000
0001
0000
0010
0100
1000
0000
,
0001
0000
0100
0000
0010
0100
1000
0000
,
1000
0100
0001
2000
0000
0000
3010
1000
,
0001
0000
0100
0000
0010
0000
1000
0100
,
0000
0100
0020
0000
0000
0000
0000
0000
0031
0000
0010
0000
0100
0000
0000
0000
,
1000
0000
0010
0000
0100
0010
0001
0000
,
0001
0010
1000
0002
0000
0000
0103
0001
,
1000
0000
0000
0000
0001
0000
0000
0101
,
0000
0000
0000
0000
0000
0001
1000
0001
,
1000
0000
0100
1000
0010
0001
0010
1000
,
0100
0000
0010
0001
0000
1000
0001
0100
,
0001
0000
0010
0000
0100
1000
0100
0000
1000
0000
0000
0000
0001
0000
0200
0000
,
0000
0302
0000
0000
0003
0001
0100
0001
,
1000
0000
0100
0000
0001
0100
1000
0000
,
2002
0000
0000
0000
0000
3003
0000
0000
1001
0000
0000
0000
1000
0000
0000
0000
,
0010
0100
0001
0000
0010
0000
0100
0000
,
1000
0010
0001
0010
1000
0000
0100
0000
,
1000
0001
0100
0000
0010
0100
0001
0020
,
0000
0000
0130
0010
0001
0000
1000
0000
,
0010
1000
0001
0000
0100
0000
0010
1000
,
0000
0001
1000
0100
1000
0000
0001
0000
,
0100
0010
0100
0000
0001
1000
1000
1000
,
1000
0100
0100
0000
1100
0000
1000
0100
,
0001
0000
1000
0010
0001
0000
0100
0001
,
1000
0000
0010
0100
0001
0000
1000
0000
,
0001
0100
0001
0000
0010
0000
0100
1000
,
0000
0001
0100
0001
1000
0000
0100
0000
,
0010
0100
1000
0000
0001
0000
0100
0010
,
0001
0000
1001
0000
1000
0020
0000
0000
,
0000
0130
0010
0001
0010
2000
0000
0000
,
3001
2000
3200
0302
,
0000
0023
0000
0000
0000
0000
0030
0100
,
0020
1030
1000
0001
,
0001
0000
0100
0001
1000
0002
0000
0000
,
0013
0100
2000
0000
3020
0000
0230
0000
,
0000
0302
0000
0000
0013
0000
0100
0000
,
1000
0002
0000
0000
0000
0000
0000
0000
,
0000
0203
0000
0000
0000
0000
0000
0000
,
0000
2300
0000
0000
0000
0000
0000
0000
,
0000
3020
0000
0000
0000
0000
0000
0000
,
0000
0032
0000
0000
1000
0000
0010
0010
,
0000
0203
0000
0000
0010
0000
0001
0000
,
0000
0320
0000
2030
0000
3200
0000
0310
,
0002
0000
0103
0002
0000
2003
0000
3010
,
0200
0302
0023
0230
,
2000
0000
0000
0000
,
0000
0000
0000
0000
0000
0000
0000
3300
,
0000
0000
0000
0000
,
0000
0001
0000
1000
,
0000
1001
0000
0000
0001
0000
0010
0000
,
0000
0000
0000
0011
0000
0000
0000
0000
,
0000
0000
0000
0000
0000
0000
1000
0000
0100
0000
0010
0000
,
0001
0000
0000
0000
1000
0000
0000
0001
0000
0000
0000
0000
2002
0000
0000
0000
,
0000
0000
0000
0000
,
0000
0000
0000
3003
;

//---------------dance-single - ----------------
#NOTES:
     dance-single:
     X-Scale 12:
     Hard:
     8:
     0.492320,0.588309,0.277177,0.341852,0.050816,373.000000,343.000000,30.000000,37.000000,0.000000,0.000000,0.492320,0.588309,0.277177,0.341852,0.050816,373.000000,343.000000,30.000000,37.000000,0.000000,0.000000:
// measure 0
0000
0000
0000
0000
,  // measure 1
0000
0000
0000
0000
,  // measure 2
0000
0000
0000
0000
,  // measure 3
0000
0000
0000
0000
,  // measure 4
0000
0000
0000
1000
,  // measure 5
0001
0000
0000
0000
0202
0000
0000
0000
0303
0000
1001
0000
1000
0002
0000
0000
,  // measure 6
0000
0000
0003
0010
0200
0000
0300
1000
,  // measure 7
0010
0100
1000
0001
0010
0100
0001
1000
,  // measure 8
0100
0020
0000
0000
0031
1000
1100
0000
,  // measure 9
1000
0100
0010
0000
0001
0200
0010
0000
,  // measure 10
0001
0000
1300
0100
1000
0100
0001
0000
,  // measure 11
0010
0000
0001
1000
0001
0000
0011
0000
,  // measure 12
0010
0200
1000
0000
0301
0100
1000
0001
,  // measure 13
0100
0000
0101
0000
0001
0200
1000
0000
,  // measure 14
0010
0000
0301
1000
0010
1000
0000
0000
,  // measure 15
0110
0000
1001
0000
1000
0010
1000
0100
,  // measure 16
0010
0000
0011
0000
0001
0010
1000
0000
,  // measure 17
0001
0100
1000
0100
0001
0100
0010
0001
,  // measure 18
0100
0010
1000
0200
0000
0310
0100
0000
,  // measure 19
1100
0000
1001
0000
1000
0001
0100
0010
,  // measure 20
0100
0002
0000
0000
1000
0000
0000
0000
0103
0000
0001
0000
0020
0000
0000
0000
,  // measure 21
0130
0010
0001
1000
0010
0001
0010
1000
,  // measure 22
0100
0010
0001
2000
0000
0001
3001
1000
,  // measure 23
1000
0000
0000
0000
0002
0000
0000
2003
,  // measure 24
0000
0000
0000
0000
0000
3100
1000
0001
,  // measure 25
0100
1000
0100
0001
0010
0100
1000
0010
,  // measure 26
1000
0000
0001
0100
0010
0001
0010
1000
,  // measure 27
0001
0000
0100
0000
0010
0100
0010
0000
1000
0000
0001
0000
1000
0000
0200
0000
,  // measure 28
0000
0320
0000
0000
1030
0010
0001
0100
,  // measure 29
0001
0000
0010
0100
1000
0000
0001
0000
0100
0000
0000
0000
0010
0000
0100
0000
,  // measure 30
1001
0000
0000
0000
0000
0000
0000
0000
0000
0000
0000
0000
0000
0000
0000
0000
0000
0000
0000
0000
0000
0000
0000
0000
2000
0000
0000
0000
0000
0000
0000
0000
0000
0000
0000
0000
0000
0000
0000
0000
0000
0000
0000
0000
0000
0000
0000
0000
0002
3003
0000
0000
0000
0000
0000
0000
0000
0000
0000
0000
0000
0000
0000
0000
0000
0000
0000
0000
0000
0000
0000
0000
0000
0000
0000
0000
0000
0000
0000
0000
0000
0000
0000
0000
0000
0000
0000
0000
0000
0000
0000
0000
0000
0000
0000
0000
1001
0000
0000
0000
0000
0000
0000
0000
0000
0000
0000
0000
0000
0000
0000
0000
0000
0000
0000
0000
0000
0000
0000
0000
0000
0000
0000
0000
0000
0000
0000
0000
0000
0000
0000
0000
0000
0000
0000
0000
0000
0000
0000
0000
0000
0000
0000
0000
0110
0000
0000
0000
0000
0000
0000
0000
0000
0000
0000
0000
0000
0000
0000
0000
0000
0000
0000
0000
0000
0000
0000
0000
0000
0000
0000
0000
0000
0000
0000
0000
0000
0000
0000
0000
0000
0000
0000
0000
0000
0000
0000
0000
0000
0000
0000
0000
,  // measure 31
0100
0001
1000
0010
0100
0001
0010
1000
,  // measure 32
0010
0100
0010
0001
1000
0010
0100
1000
,  // measure 33
0100
0010
0100
0001
1000
0001
0010
0200
,  // measure 34
0000
0301
0100
1000
1100
0000
0110
0000
,  // measure 35
0101
0000
0001
0000
1000
0000
0010
0000
0100
0020
0000
0000
0031
0000
0020
0000
,  // measure 36
0000
0130
0010
1000
0100
0010
0001
1000
,  // measure 37
0010
0100
1000
0100
0001
0010
0010
0100
,  // measure 38
0100
1000
1000
0001
0100
0000
0010
0000
,  // measure 39
1000
0001
0100
0001
1000
0000
0100
0000
,  // measure 40
0001
0100
0010
0100
1000
0000
0001
0000
,  // measure 41
0010
0001
1000
0001
0100
0000
0010
0000
,  // measure 42
1000
0010
0001
0010
1000
0000
0001
0000
,  // measure 43
0100
0001
1000
0100
0010
0000
0001
0010
,  // measure 44
0100
0000
1001
1000
0010
0100
1000
0001
,  // measure 45
0010
0100
0001
0000
1000
0000
0000
0000
,  // measure 46
1010
0000
0010
0000
1000
0100
0010
0000
,  // measure 47
0010
0002
0000
0000
0000
0000
0003
0010
,  // measure 48
0200
0000
1300
0100
0001
0100
0010
0100
,  // measure 49
0001
0100
0010
0001
1000
0002
0000
0000
,  // measure 50
0013
0100
1000
0000
0010
1000
0001
0000
,  // measure 51
0100
0020
0000
0000
1030
0000
0001
0010
,  // measure 52
0100
2000
0000
0000
0000
0000
0000
0000
,  // measure 53
3001
0020
0000
0000
0000
0000
0000
0030
,  // measure 54
0001
0200
0000
0000
0000
0000
0000
0000
,  // measure 55
0300
0000
0020
0000
0000
0000
0030
0100
0020
0000
0000
0000
0000
0000
0000
0000
,  // measure 56
0030
1010
0000
0001
1000
0100
1000
0001
,  // measure 57
0000
0011
0000
0010
0001
1000
0010
0000
,  // measure 58
0000
1001
0000
0011
0000
1010
0000
0010
,  // measure 59
1000
0000
1100
0100
0000
1001
0000
0001
,  // measure 60
0100
0000
0000
0000
0101
0000
0000
0000
0110
0000
0000
0000
1020
0000
0000
0001
,  // measure 61
0000
0000
1000
0000
0000
2000
0000
0000
0000
0000
0000
0000
0000
0000
0000
0000
,  // measure 62
0000
0000
0000
3030
,  // measure 63
0000
0002
0000
0000
,  // measure 64
0000
0000
0103
0000
0001
0010
0100
0000
,  // measure 65
1000
0100
0000
1000
0001
0100
0001
0000
,  // measure 66
0000
0000
0000
2002
0000
0000
0000
0000
,  // measure 67
0000
0000
0000
0000
0000
0000
0000
0000
0000
3003
0000
0000
0001
0000
0000
0000
0010
0000
0000
0000
0100
0000
0000
0000
,  // measure 68
1000
0000
0000
0000
0001
0000
0000
1000
0000
0000
0000
0000
2002
0000
0000
0000
,  // measure 69
0000
0000
0000
0000
,  // measure 70
0000
0000
0000
3003
;

//---------------dance-single - ----------------
#NOTES:
     dance-single:
     X-Scale 2:
     Beginner:
     2:
     0.108231,0.158799,0.009239,0.000000,0.000000,82.000000,81.000000,1.000000,0.000000,0.000000,0.000000,0.108231,0.158799,0.009239,0.000000,0.000000,82.000000,81.000000,1.000000,0.000000,0.000000,0.000000:
0000
0000
0000
0000
,
0000
0000
0000
0000
,
0000
0000
0000
0000
,
0000
0000
0000
0000
,
0000
0000
0000
0001
,
0000
0000
0000
0000
,
0000
0000
0000
1000
,
0000
0000
0000
0010
,
0000
0000
0000
1000
,
0000
0000
0000
0000
,
0000
0000
0000
0100
,
0000
0000
0000
0010
,
0000
0000
0000
0001
,
0000
0000
0000
0000
,
0000
0000
0000
0000
,
1000
0000
0000
0000
,
0001
0000
0000
0000
,
0100
0000
0000
0000
,
0001
0000
0000
0000
,
1000
0000
0000
0000
,
0100
0000
0000
0000
,
0010
0000
0000
0000
,
0100
0000
0000
0000
,
1000
0000
0000
0000
0100
0000
0000
0010
,
0000
0000
0000
0000
,
0001
0000
0000
0000
,
0100
0000
0000
0000
,
0001
0000
0000
0000
,
1000
0000
0000
0000
,
0010
0000
0000
0000
,
1000
0000
0001
0000
,
0100
0000
0001
0000
,
1000
0000
0010
0000
,
1000
0000
0100
0000
,
1000
0000
0001
0000
,
0010
0000
0100
0000
,
1000
0000
0100
0000
,
0010
0000
0001
0000
,
1000
0000
0001
0000
,
0100
0000
0001
0000
,
0010
0000
0100
0000
,
0010
0000
0001
0000
,
1000
0000
0010
0000
,
1000
0000
0001
0000
,
0000
0000
0100
0000
0000
0001
0000
0000
,
0000
0000
1000
0000
0000
0001
0000
0000
,
0000
0001
0000
1000
,
0000
0010
0000
0000
0000
0000
0000
0000
,
0000
1000
0000
0001
,
0000
0000
0100
0000
0000
0001
0000
0000
,
0000
0010
0000
0100
,
0000
1000
0000
0000
0000
0000
0000
0000
,
0000
0010
0000
0000
0000
0000
0000
0000
,
0000
1000
0000
0000
0000
0000
0000
0000
,
0000
0001
0000
0000
0000
0000
0000
0000
,
0000
0100
0000
0000
0000
0000
0000
0000
,
0000
0001
0000
0000
0000
0000
0000
0000
,
0000
0010
0000
0000
0000
0000
0000
0000
,
0000
0100
0000
0000
0000
0000
0000
0000
,
0000
1000
0000
0000
,
0000
0001
0000
0000
,
0100
0000
0000
0000
,
0000
0000
0000
0000
,
0000
0000
0000
0000
,
0000
0001
0000
0000
,
0000
1000
0000
0000
0000
0000
0000
0000
,
0000
0000
0000
0001
0000
0000
0000
0000
,
0000
0000
1000
0000
,
0100
0000
0000
1001
;
