#TITLE:Sekret;
#SUBTITLE:;
#ARTIST:Ronela Hajati;
#TITLETRANSLIT:;
#SUBTITLETRANSLIT:;
#ARTISTTRANSLIT:;
#GENRE:Moombah Pop;
#CREDIT:;
#BANNER:Sekret-bn.png;
#BACKGROUND:Sekret-bg.png;
#LYRICSPATH:;
#CDTITLE:cdtitle.png;
#MUSIC:Sekret.ogg;
#OFFSET:-0.152000;
#SAMPLESTART:54.711998;
#SAMPLELENGTH:19.200001;
#SELECTABLE:YES;
#BPMS:0.000000=100.000000
;
#STOPS:
;
#BGCHANGES:-0.152=Sekret.avi=1.000=1=0=0=StretchNoLoop==CrossFade==,
99999=-nosongbg-=1.000=0=0=0 // don't automatically add -songbackground-
;
#KEYSOUNDS:;
#ATTACKS:;

//---------------dance-single - ----------------
#NOTES:
     dance-single:
     X-Scale 14:
     Hard:
     9:
     0.563856,0.595905,0.380331,0.042259,0.608530,467.000000,422.000000,45.000000,5.000000,0.000000,0.000000,0.563856,0.595905,0.380331,0.042259,0.608530,467.000000,422.000000,45.000000,5.000000,0.000000,0.000000:
// measure 0
0000
0000
0000
0000
,  // measure 1
0000
0000
0000
0000
,  // measure 2
0000
0000
0000
0000
,  // measure 3
0000
0000
0000
0000
,  // measure 4
0000
0000
0000
0000
0000
0000
0100
0100
,  // measure 5
0001
0000
0000
0000
0000
0000
0001
0000
0000
0000
0000
0000
1000
0000
0000
0010
0000
0000
0100
0000
0000
0001
0000
0000
0010
0000
0000
0000
0100
0000
0010
0000
0000
0001
0000
0000
0010
0000
0000
0000
0000
0000
0000
0000
0000
0010
0000
0000
,  // measure 6
0000
0010
0100
0000
1000
0010
1000
0000
0001
0000
0001
0000
1001
0000
1000
0100
,  // measure 7
0001
0000
0000
0100
0000
0000
1000
0000
0000
0000
0000
0000
0001
0000
0000
0100
0000
0000
0010
0000
0000
1000
0000
0000
0100
0000
0000
0000
0010
0000
0100
0000
0000
1000
0000
0000
0001
0000
0000
0000
0000
0000
0000
0000
0000
0100
0000
0000
,  // measure 8
0000
0100
0001
0000
1000
0010
1000
0000
0001
0000
0001
0000
0101
0000
1000
0000
,  // measure 9
1000
0000
0000
0000
0000
0000
0001
0000
0000
0000
0000
0000
0001
0000
0000
0100
0000
0000
0001
0000
0000
1000
0000
0000
0010
0000
0000
0000
0010
0000
1000
0000
0000
0001
0000
0000
0010
0000
0000
0000
0000
0000
0000
0000
0000
0010
0000
0000
,  // measure 10
0000
0010
0100
0000
1000
0001
1000
0000
1000
0000
1100
0000
1010
0000
1000
0010
,  // measure 11
0001
0000
0000
0010
0000
0000
1000
0000
0000
0000
0000
0000
0001
0000
0000
0010
0000
0000
0100
0000
0000
1000
0000
0000
0010
0000
0000
0000
0100
0000
0001
0000
0000
0010
0000
0000
0100
0000
0000
0000
0000
0000
0000
0000
0000
1000
0000
0000
,  // measure 12
0000
0000
0000
1000
0000
0000
0001
0000
0000
0000
0000
0000
0001
0000
0000
1000
0000
0000
0001
0000
0000
0000
0000
0000
0100
0000
0000
0000
0000
0000
0100
0000
0000
0000
0000
0000
1001
0000
0000
0000
1000
0000
0000
0000
1000
0000
0000
0000
,  // measure 13
0001
0000
0000
0000
0001
0000
0000
0000
0001
0000
0000
0000
0101
0000
0000
0100
0000
0000
0000
0000
0000
0100
0000
0000
0000
0000
0000
0000
0000
0000
0000
0000
0000
0000
0000
0000
0010
0000
0000
0100
0000
0000
0000
0000
0000
0010
0000
0000
,  // measure 14
1000
0001
0000
0010
0001
1000
0001
0010
0100
1000
0010
1000
1001
0000
0000
1000
,  // measure 15
0010
0000
1000
0001
0100
0000
0001
0010
0100
0000
0010
0000
0001
0000
0000
1000
,  // measure 16
0100
0000
1000
0001
0100
0000
0010
0100
0001
0000
0010
0000
0100
0000
0000
1000
,  // measure 17
0100
0000
0010
0001
0100
0000
0010
0100
0001
0000
1000
0000
0010
0000
0100
0010
,  // measure 18
0001
0000
0010
0100
1000
0000
0100
0010
1000
0000
0001
0000
1001
0000
0000
1000
,  // measure 19
0010
0000
0100
0001
0010
0000
0100
0010
0001
0000
0100
0000
1001
0000
0000
0010
,  // measure 20
1000
0000
0001
0010
1000
0000
0001
0100
1000
0000
0001
0000
1001
0000
0000
1000
,  // measure 21
0100
0000
1000
0001
0100
0000
0010
0100
1000
0000
0100
0000
0010
0000
1000
0000
,  // measure 22
0001
0000
0000
0100
0000
0000
0010
0000
0000
1000
0000
0001
0000
0010
0000
0001
0000
0000
0200
0000
0000
0000
0000
0000
,  // measure 23
0000
0000
0300
0000
0001
1000
0000
0100
0000
1000
0100
0000
1001
0000
0000
1000
,  // measure 24
0000
1000
0001
0000
0010
0100
0000
0010
0000
0001
1000
0000
0100
0000
0000
0010
,  // measure 25
0000
0010
0001
0000
1000
0000
0010
0000
0001
0000
0010
0000
1000
0000
0000
0100
,  // measure 26
1000
0000
0001
0000
0100
0000
0010
0000
1000
0000
0100
0000
1100
0000
0000
1000
,  // measure 27
0100
0000
1000
0000
0001
0100
0000
0010
0000
0100
0010
0000
1001
0000
0000
0001
,  // measure 28
0100
0000
0001
0000
1000
0100
0000
1000
0000
0001
0100
0000
0001
0000
0000
0010
,  // measure 29
0001
0000
1000
0000
0100
1000
0000
0001
0010
0000
0001
0000
0100
0000
0010
0000
,  // measure 30
0001
0000
0000
1000
0000
0000
0100
0000
0000
0010
0000
0000
1000
0000
0000
0001
0000
0000
1001
0000
1000
0000
0010
0000
,  // measure 31
0100
0000
1000
0000
0100
0000
0010
0000
1000
0000
0001
0000
0100
0000
0000
0101
0000
0000
1001
0000
1000
0000
0100
0000
,  // measure 32
0001
0000
1000
0000
0010
0000
0001
0000
1000
0000
0001
0000
0100
0000
0000
0110
0000
0000
1001
0000
1000
0000
0100
0000
,  // measure 33
1000
0000
0000
1100
0100
0010
0001
0000
0000
0011
0000
0000
,  // measure 34
1100
0000
1001
0110
1010
0101
1001
1000
,  // measure 35
0001
0000
1000
0000
0100
0010
0001
1000
0001
0000
0400
0000
0301
0000
0010
0100
,  // measure 36
1000
0000
0001
0000
1000
0000
0010
1000
0001
0000
0100
0000
0101
0000
0000
0110
,  // measure 37
0000
0000
1001
0000
1001
0000
0000
1100
0000
0000
1010
0000
1010
0000
0000
1000
,  // measure 38
0001
1000
0001
0000
0011
0000
1010
0000
1100
0000
0101
0000
1001
0000
1000
0100
,  // measure 39
1000
0000
0000
0000
0000
0000
0001
0000
0000
0000
0000
0000
0100
0000
0000
0010
0000
0000
1000
0000
0000
0001
0000
0000
0010
0000
0000
0000
0001
0000
1000
0000
0000
0010
0000
0000
1000
0000
0000
0000
0000
0000
0000
0000
0000
0010
0000
0000
,  // measure 40
0100
0001
1000
0000
1000
0100
1000
0000
0001
0000
0001
0000
0101
0000
0100
0010
,  // measure 41
1000
0000
0000
0001
0000
0000
0010
0000
0000
0000
0000
0000
0100
0000
0000
0010
0000
0000
0001
0000
0000
1000
0000
0000
0010
0000
0000
0000
0100
0000
0001
0000
0000
0100
0000
0000
0010
0000
0000
0000
0000
0000
0000
0000
0000
1000
0000
0000
,  // measure 42
0100
0000
1000
0000
0001
0100
0001
0000
0010
0000
0010
0000
0210
0000
0000
0000
,  // measure 43
0000
2300
3002
0203
,  // measure 44
1000
0000
0000
0000
0301
0000
0001
0000
1000
0000
1000
0000
1001
0001
0000
0100
,  // measure 45
0001
0000
0010
0000
0100
1000
0000
0100
0010
0000
0001
0000
0101
0000
0100
0010
,  // measure 46
0100
0001
0010
0000
0100
1000
0001
0100
1000
0100
0001
0000
1001
1000
0000
0100
,  // measure 47
1000
0000
0001
0000
0010
0001
0000
1000
0010
0000
1000
0000
1010
0000
0000
0000
,  // measure 48
0011
0000
0001
0001
1000
1000
0000
0000
;

//---------------dance-single - ----------------
#NOTES:
     dance-single:
     X-Scale 11:
     Medium:
     8:
     0.470886,0.493162,0.447945,0.143681,0.321168,390.000000,337.000000,53.000000,17.000000,0.000000,0.000000,0.470886,0.493162,0.447945,0.143681,0.321168,390.000000,337.000000,53.000000,17.000000,0.000000,0.000000:
// measure 0
0000
0000
0000
0000
,  // measure 1
0000
0000
0000
0000
,  // measure 2
0000
0000
0000
0000
,  // measure 3
0000
0000
0000
0000
,  // measure 4
0000
0000
0000
0001
,  // measure 5
1000
0000
0000
0000
0001
0000
0010
0000
0100
0000
0010
0000
0001
0000
0000
0100
,  // measure 6
0000
0100
0010
1000
0001
0100
0201
0000
,  // measure 7
1000
0000
0000
0000
0301
0000
0100
0000
0010
0000
1000
0000
0100
0000
0000
1000
,  // measure 8
0000
0000
1000
0000
0001
0000
0100
0000
0001
0000
0010
0000
0110
0000
0000
1010
,  // measure 9
0000
0000
0001
0000
0011
0000
0000
0110
0000
0000
1000
0000
1001
0000
0000
0101
,  // measure 10
0000
0000
0001
0000
0011
0000
0010
0000
0100
0000
1000
0000
1100
0000
0000
0110
,  // measure 11
0000
0000
0001
0000
0101
0000
0000
0110
0000
0000
1000
0000
1001
0000
0000
0011
,  // measure 12
0000
0000
0000
0000
0000
0000
0001
0000
0000
0000
0000
0000
0101
0000
0000
0000
0000
0000
0000
0000
0000
0100
0000
0000
0010
0000
0000
0000
0000
0000
0100
0000
0000
0000
0000
0000
0001
0000
0000
0000
1000
0000
0000
0000
0001
0000
0000
0000
,  // measure 13
1000
0010
1000
0020
0000
0000
0000
0000
0000
0100
0000
0000
,  // measure 14
0100
0000
0000
0000
0130
0000
0010
0000
1000
0000
0001
0000
1001
0000
0000
1000
,  // measure 15
0100
0000
1000
0000
0001
0000
0000
0010
0100
0000
0010
0000
0101
0000
0000
0001
,  // measure 16
1000
0000
0010
0000
1000
0000
0000
0001
0100
0000
0010
0000
1001
0000
0000
1000
,  // measure 17
0100
0000
1000
0000
0001
0000
0000
0010
0100
0000
1000
0000
0010
0000
0100
0010
,  // measure 18
0100
0000
0001
0010
0001
0000
1000
0010
1000
0000
0100
0000
1100
0000
0000
1000
,  // measure 19
0100
1000
0001
0000
0010
0000
0000
0100
1000
0001
2000
0000
3010
0000
0000
0100
,  // measure 20
0010
0100
0001
0000
0010
0000
0000
0001
0100
0001
2000
0000
3010
0000
0000
0100
,  // measure 21
0010
1000
0100
0000
1000
0000
0000
0001
0100
0001
0010
0000
0011
0000
0000
0001
,  // measure 22
1000
0000
0000
0010
0000
0000
1000
0000
0000
0100
0000
1000
0000
0001
0000
0100
0000
0000
0020
0000
0000
0000
0000
0000
,  // measure 23
0000
0000
0030
0000
0100
0010
0000
1000
0000
0001
1000
0000
1001
0000
0001
0000
,  // measure 24
0001
0000
0001
0000
0100
0001
0000
1000
0000
0100
1000
0000
0010
0000
0100
0000
,  // measure 25
0100
0100
0001
1000
0001
0100
0010
0001
,  // measure 26
0010
0000
0100
0000
0001
0000
0010
0000
0100
0000
1000
0000
1200
0000
0000
0010
,  // measure 27
0000
0000
0310
0000
0100
1000
0000
0001
0000
0100
0001
0000
0101
0000
0000
0110
,  // measure 28
0000
0000
1001
0000
0001
0100
0000
0001
0000
0010
0100
0000
1100
0000
0000
1001
,  // measure 29
0000
0101
0100
0010
1000
0100
0001
0100
,  // measure 30
0010
0000
0000
0001
0000
0000
1000
0000
0000
0001
0000
0000
0020
0000
0000
0100
0000
0000
0130
0000
0000
0000
0010
0000
,  // measure 31
0001
0000
0000
0000
0010
0000
0100
0000
0000
0000
1000
0000
0100
0000
0000
0010
0000
0000
0010
0000
0000
0000
0001
0000
,  // measure 32
0100
0000
0000
0000
0001
0000
1000
0000
0000
0000
0010
0000
0100
0000
0000
0001
0000
0000
0101
0000
0000
0000
0001
0000
,  // measure 33
1000
0000
0000
1001
0000
1000
0010
0000
0000
0110
0000
0000
,  // measure 34
1100
0000
1001
0001
0101
0100
0110
0010
,  // measure 35
1000
0001
0000
0010
0100
2000
3001
1000
,  // measure 36
0010
0000
1000
0000
0100
0000
0001
0000
0100
0000
1000
0000
2200
0000
3300
1000
,  // measure 37
0000
1000
0001
0000
0022
0000
0033
0001
0000
0001
1000
0000
1001
0000
0000
0000
,  // measure 38
0110
0000
1100
1000
1001
0001
0101
0100
,  // measure 39
0010
0000
0100
0000
0001
0000
0010
0000
0100
0000
1000
0000
1001
0000
0000
1100
,  // measure 40
0000
1000
0001
0000
0100
0010
0100
0000
0100
0000
0001
0000
0011
0000
0010
0000
,  // measure 41
0100
0000
1000
0000
0001
0000
0100
0000
1000
0000
0100
0000
0001
0000
0000
0101
,  // measure 42
0000
0001
1000
0000
0100
1000
0100
0000
0100
0000
0010
0000
0210
0000
0000
0000
,  // measure 43
0000
2300
3002
0203
,  // measure 44
1000
0000
0302
0100
0103
0001
0011
0010
,  // measure 45
0100
0000
1000
0000
0010
1000
0010
0000
0100
0001
0100
0000
0101
0000
0001
0000
,  // measure 46
1000
0000
0100
0000
1000
0100
1000
0000
0001
0100
0001
0000
0101
0000
0100
0000
,  // measure 47
0001
0000
0010
0000
0100
1000
0100
0000
0010
0001
0010
0000
0011
0000
0000
0000
,  // measure 48
1001
0000
1010
1000
0001
0001
0000
0000
;

//---------------dance-single - ----------------
#NOTES:
     dance-single:
     X-Scale 6:
     Easy:
     4:
     0.243895,0.309019,0.160584,0.050711,0.000000,202.000000,183.000000,19.000000,6.000000,0.000000,0.000000,0.243895,0.309019,0.160584,0.050711,0.000000,202.000000,183.000000,19.000000,6.000000,0.000000,0.000000:
// measure 0
0000
0000
0000
0000
,  // measure 1
0000
0000
0000
0000
,  // measure 2
0000
0000
0000
0000
,  // measure 3
0000
0000
0000
0000
,  // measure 4
0000
0000
0000
0000
,  // measure 5
0000
1000
0001
1000
,  // measure 6
0000
0100
0000
0110
,  // measure 7
0000
0010
0001
0010
,  // measure 8
0000
0100
0000
1010
,  // measure 9
1000
0000
0001
0100
0010
0100
0001
0000
,  // measure 10
0010
0000
0100
0000
0000
1000
1100
0000
,  // measure 11
0100
0000
0010
0001
1000
0010
1000
0000
,  // measure 12
0001
0000
0100
0000
0000
0001
0101
0000
,  // measure 13
0000
0110
0000
1010
,  // measure 14
1000
0001
1000
1001
,  // measure 15
0001
0000
1000
0000
0100
0010
0001
0000
,  // measure 16
1000
0000
0001
0000
0100
0001
1000
0000
,  // measure 17
0010
0000
0100
0000
0001
0010
0100
0000
,  // measure 18
1000
0000
0100
0000
1000
0001
0010
0000
,  // measure 19
0001
0000
1000
0000
0010
1000
1010
0000
,  // measure 20
1000
0000
0001
0000
0010
0001
0011
0000
,  // measure 21
0010
0000
0100
0000
1000
0100
0010
0000
,  // measure 22
0100
1000
0000
0001
,  // measure 23
0000
0100
0000
0010
,  // measure 24
0000
1000
0000
0100
,  // measure 25
0000
0010
0000
0001
,  // measure 26
0000
1000
0000
0001
,  // measure 27
0000
0100
0000
0001
,  // measure 28
0000
1000
0000
0010
,  // measure 29
0000
1000
0000
0001
,  // measure 30
0000
0010
0000
0011
,  // measure 31
1000
0010
1000
1010
,  // measure 32
0010
0100
0001
0011
,  // measure 33
0000
0110
0000
1001
,  // measure 34
1000
0000
0001
0010
0100
1000
0010
1000
,  // measure 35
0001
0100
0000
0010
0100
0001
0000
0000
,  // measure 36
0010
0100
1000
0001
0100
0010
0110
0000
,  // measure 37
1000
1010
0001
0011
,  // measure 38
0010
0100
1000
0001
0100
0010
1000
0000
,  // measure 39
0001
0100
0001
0000
1000
0100
1000
0000
,  // measure 40
0010
0100
0010
0000
1000
0010
1000
0000
,  // measure 41
0001
0100
0001
0000
0010
0100
0010
0000
,  // measure 42
0001
1000
0001
0100
0010
1000
2010
0000
,  // measure 43
0000
3200
0320
0032
,  // measure 44
0000
0000
0203
0000
0310
0100
0110
0000
,  // measure 45
0010
1000
0001
0000
0010
0100
1000
0000
,  // measure 46
0010
0000
1000
0001
0100
0001
1000
0000
,  // measure 47
0100
0010
0001
0000
1000
0001
0100
0000
,  // measure 48
0001
0020
0100
0030
;

//---------------dance-single - ----------------
#NOTES:
     dance-single:
     X-Scale 1:
     Beginner:
     1:
     0.086933,0.122340,0.025355,0.000000,0.000000,72.000000,69.000000,3.000000,0.000000,0.000000,0.000000,0.086933,0.122340,0.025355,0.000000,0.000000,72.000000,69.000000,3.000000,0.000000,0.000000,0.000000:
// measure 0
0000
0000
0000
0000
,  // measure 1
0000
0000
0000
0000
,  // measure 2
0000
0000
0000
0000
,  // measure 3
0000
0000
0000
0000
,  // measure 4
0000
0000
0000
0000
,  // measure 5
0000
0000
0000
0000
,  // measure 6
0000
0000
0000
1001
,  // measure 7
0000
0000
0000
0000
,  // measure 8
0000
0000
0000
0001
,  // measure 9
0000
1000
0000
0010
,  // measure 10
0000
0100
0000
0001
,  // measure 11
0000
1000
0000
0100
,  // measure 12
0000
0010
0000
0001
,  // measure 13
0000
0000
0000
1000
,  // measure 14
0000
0000
0000
1001
,  // measure 15
0000
0010
0000
1000
,  // measure 16
0000
0001
0000
1000
,  // measure 17
0000
0010
0000
1000
,  // measure 18
0000
0100
0000
0010
,  // measure 19
0000
0001
0000
1000
,  // measure 20
0000
0001
0000
0010
,  // measure 21
0000
0001
0000
1000
,  // measure 22
0000
0001
0000
0100
,  // measure 23
0000
0000
0000
0010
,  // measure 24
0000
0000
0000
1000
,  // measure 25
0000
0000
0000
0001
,  // measure 26
0000
0000
0000
0010
,  // measure 27
0000
0001
0000
1000
,  // measure 28
0000
0010
0000
1000
,  // measure 29
0000
0001
0000
1000
,  // measure 30
0000
0100
0000
1000
,  // measure 31
0000
0000
0000
0001
,  // measure 32
0000
0000
0000
1000
,  // measure 33
0000
0100
0000
0010
,  // measure 34
0000
0001
0000
1000
,  // measure 35
0000
0000
0000
0001
,  // measure 36
0000
0000
0000
0100
,  // measure 37
0000
0010
0000
0100
,  // measure 38
0000
0001
0000
1000
,  // measure 39
0000
0100
0000
0010
,  // measure 40
0000
0001
0000
1000
,  // measure 41
0000
0001
0000
0010
,  // measure 42
0000
0100
0000
1000
,  // measure 43
0000
0000
0000
0001
,  // measure 44
0000
0000
0000
1001
,  // measure 45
0000
1000
0000
0001
,  // measure 46
0000
1000
0000
0010
,  // measure 47
0000
1000
0000
0001
,  // measure 48
0000
1000
0000
0000
;
