#VERSION:0.83;
#TITLE:Secrets;
#SUBTITLE:;
#ARTIST:mija;
#TITLETRANSLIT:;
#SUBTITLETRANSLIT:;
#ARTISTTRANSLIT:;
#GENRE:Drum & Bass;
#ORIGIN:;
#CREDIT:;
#BANNER:secrets-bn.png;
#BACKGROUND:secrets-bg.png;
#PREVIEWVID:;
#JACKET:secrets-jacket.png;
#CDIMAGE:;
#DISCIMAGE:;
#LYRICSPATH:;
#CDTITLE:cdtitle.png;
#MUSIC:secrets.ogg;
#OFFSET:0.000000;
#SAMPLESTART:43.764999;
#SAMPLELENGTH:11.325000;
#SELECTABLE:YES;
#BPMS:0.000=85.000,
64.000=170.000;
#STOPS:;
#DELAYS:;
#WARPS:;
#TIMESIGNATURES:0.000=4=4;
#TICKCOUNTS:0.000=4;
#COMBOS:0.000=1;
#SPEEDS:0.000=1.000=0.000=0;
#SCROLLS:0.000=1.000;
#FAKES:;
#LABELS:0.000=Song Start;
#BGCHANGES:
;
#KEYSOUNDS:;
#ATTACKS:
;

//---------------dance-single - ----------------
#NOTEDATA:;
#CHARTNAME:X-Scale 14;
#STEPSTYPE:dance-single;
#DESCRIPTION:;
#CHARTSTYLE:;
#DIFFICULTY:Hard;
#METER:9;
#RADARVALUES:0.639462,0.822428,0.267718,0.064252,0.615750,418.000000,393.000000,25.000000,6.000000,0.000000,0.000000,1.000000,0.000000,0.000000,0.639462,0.822428,0.267718,0.064252,0.615750,418.000000,393.000000,25.000000,6.000000,0.000000,0.000000,1.000000,0.000000,0.000000;
#CREDIT:;
#NOTES:
// measure 0
0000
0000
0000
0000
,  // measure 1
0000
0000
0000
0000
,  // measure 2
0000
0000
0000
0000
,  // measure 3
0000
0000
0000
0000
,  // measure 4
1001
0000
0000
0001
0000
0000
0010
0000
0000
1000
0000
0000
0010
0000
0000
0001
0100
0000
0010
0000
1000
0000
0001
0000
0010
0000
0000
0000
0100
0000
0000
0000
,  // measure 5
0010
0000
0000
0001
0000
0000
1000
0000
0000
0010
0000
0000
0001
0000
0000
1000
0000
0000
0100
0000
0000
0001
0000
0000
0100
0000
0010
0000
0100
0000
0001
0000
,  // measure 6
0100
0000
0000
0010
0000
0000
1000
0000
0000
0100
0000
0000
1000
0000
0000
0001
0010
0000
0001
0000
1000
0000
0100
0000
0010
0000
0000
0000
0001
0000
0000
0000
,  // measure 7
0011
0000
0000
0010
0110
0000
0101
0000
0001
0010
1000
0010
0001
0000
1000
0000
,  // measure 8
1001
0000
0000
0001
0000
0000
1000
0000
1100
1000
0000
0000
0100
0000
0000
0010
0000
0000
0100
0000
0000
1000
0000
0000
1100
0000
0000
0000
0100
0000
0010
0000
,  // measure 9
0100
0000
0000
0010
0000
0000
0001
0000
1001
1000
0000
0000
0010
0000
0000
0100
0000
0000
0001
0000
0000
0100
0000
0000
0010
0000
0000
0000
0010
0000
0000
0000
,  // measure 10
0110
0000
0000
0100
0000
0000
0010
0000
1010
1000
0000
0000
0100
0000
0000
0010
0000
0000
0001
0000
0000
0000
0010
0000
0101
0000
0000
0000
0010
0000
1000
0000
,  // measure 11
0020
0000
1000
0000
0000
0000
0130
0010
,  // measure 12
0110
0000
0000
0100
0010
0000
1000
0000
0001
0010
0000
0000
0001
0000
0000
0100
0010
0000
0100
0000
0000
0001
1000
0000
0100
0000
0000
0000
0100
0000
0000
0000
,  // measure 13
0110
0000
0000
0010
0001
0000
1000
0000
0001
0010
0000
0000
0100
0000
0000
1000
0001
0000
0000
1000
0000
0010
0100
0000
0010
0000
0000
0000
0010
0000
0000
0000
,  // measure 14
0010
0100
0001
1000
0010
0100
0001
1000
0100
0010
0001
1000
0100
0010
0001
1000
,  // measure 15
0100
0100
0100
0100
0010
0010
0010
0010
0001
0010
1000
0100
0001
0000
0010
0000
,  // measure 16
0012
0000
0100
0000
0003
0001
1000
0010
,  // measure 17
0001
0000
0010
0000
1000
0000
0100
0000
0010
0000
0001
0000
1000
0001
1000
0000
,  // measure 18
2001
0000
0100
0000
3001
0010
1000
0001
,  // measure 19
0100
0000
1000
0000
0100
0000
0010
0100
1000
0000
0001
0000
1000
0000
0100
0000
,  // measure 20
2100
0000
0001
0000
3010
1000
0001
0010
,  // measure 21
1000
0000
0010
0000
0001
0000
1000
0100
0010
0000
0100
0000
0010
0000
0000
0000
,  // measure 22
0101
0000
0010
0000
0100
0000
0001
0010
0100
0000
0010
0000
0100
0000
0010
0000
,  // measure 23
0001
0000
0100
0000
1000
0000
0100
0000
0001
0100
0010
0100
0001
0000
0000
0000
,  // measure 24
1002
1000
1000
0000
0103
0001
0010
1000
,  // measure 25
0001
0000
0100
0000
1000
0000
0001
0000
0100
0000
0001
0000
1000
0001
1000
0000
,  // measure 26
0021
0000
1000
0000
0031
0010
1000
0001
,  // measure 27
0100
0000
1000
0000
0001
0000
0010
0000
0001
1000
0001
0100
0010
0000
0000
0000
,  // measure 28
0110
0000
0100
0010
1000
0001
0010
0100
,  // measure 29
1000
0100
1000
0100
1000
0000
0001
0000
0010
0000
1000
0000
0010
0000
0001
0000
,  // measure 30
1000
0100
0010
0001
1000
0001
0010
0100
,  // measure 31
4000
0000
3001
0000
0000
0001
1000
0001
,  // measure 32
1001
0000
0000
0001
0000
0000
1000
0000
0000
0100
0000
0000
1000
0000
0001
0000
,  // measure 33
0010
1000
0001
0100
1000
0001
1000
0000
,  // measure 34
1001
0000
0000
1000
0001
0000
0010
0000
0001
0100
0000
0010
1000
0000
0100
0010
,  // measure 35
0000
0000
0100
0000
0010
0001
0000
0000
0001
0000
1000
0000
0001
0000
0000
0000
,  // measure 36
1000
0000
0000
0100
0000
0000
0001
0000
0000
0100
0000
0000
1000
0000
0001
0000
,  // measure 37
0100
1000
0001
0010
1000
0100
0010
0000
,  // measure 38
0110
0000
0000
0100
0010
0000
0100
0000
1000
0001
0000
0010
0001
0000
0000
0010
,  // measure 39
0100
0000
1000
0000
0010
0100
0000
0000
0001
0000
0010
0000
0100
0000
1000
0000
,  // measure 40
1001
0000
0000
0001
0000
0000
0010
0000
0000
0001
0000
0000
1000
0000
0010
0000
,  // measure 41
0100
0001
0010
0100
1000
0001
1000
0000
,  // measure 42
0010
0000
0000
0100
0001
0000
0010
0000
0100
1000
0000
0001
0100
0000
0000
0010
,  // measure 43
1000
0000
0000
0100
0010
0000
0001
0000
1000
0000
0100
0000
0001
0000
0100
0000
,  // measure 44
1000
0000
0000
0100
1000
0000
0010
0000
0100
0001
0000
0010
0100
0000
0000
1000
,  // measure 45
0010
0000
0000
0100
0010
0000
0100
0000
0001
0000
0010
0000
1000
0000
0010
0000
,  // measure 46
0001
0000
0000
0010
0001
0000
1000
0000
0100
0010
0000
0001
1000
0000
0001
0000
,  // measure 47
1000
0001
1000
0001
1000
0001
1000
0001
0010
0000
0100
0000
0010
0000
0001
0000
,  // measure 48
1001
0000
0000
0000
;

//---------------dance-single - ----------------
#NOTEDATA:;
#CHARTNAME:X-Scale 10;
#STEPSTYPE:dance-single;
#DESCRIPTION:;
#CHARTSTYLE:;
#DIFFICULTY:Medium;
#METER:7;
#RADARVALUES:0.455885,0.642522,0.117796,0.224883,0.385513,298.000000,287.000000,11.000000,21.000000,0.000000,0.000000,0.000000,0.000000,0.000000,0.455885,0.642522,0.117796,0.224883,0.385513,298.000000,287.000000,11.000000,21.000000,0.000000,0.000000,0.000000,0.000000,0.000000;
#CREDIT:;
#NOTES:
0000
0000
0000
0000
,
0000
0000
0000
0000
,
0000
0000
0000
0000
,
0000
0000
0000
0000
,
1001
0000
0000
0001
0000
0000
1000
0000
0000
0001
0000
0000
1000
0000
0000
0000
0100
0000
0010
0000
0100
0000
1000
0000
0100
0000
0000
0000
0010
0000
0000
0000
,
0001
0000
0000
1000
0000
0000
0001
0000
0000
1000
0000
0000
0100
0000
0000
0010
0000
0000
0100
0000
0000
0010
0000
0000
0001
0000
1000
0000
0100
0000
1000
0000
,
0001
0000
0000
0010
0000
0000
0001
0000
0000
1000
0000
0000
0100
0000
0000
0000
0010
0000
0100
0000
0001
0000
0100
0000
0010
0000
0000
0000
0001
0000
0000
0000
,
0011
0000
0000
0100
0100
0000
0001
0000
0000
1000
1000
0000
0100
0000
1000
0000
,
1100
0000
0000
0100
0000
0000
1000
0000
0100
0000
0000
0000
1000
0000
0000
0010
0000
0000
0100
0000
0000
0001
0000
0000
0010
0000
0000
0000
0100
0000
0010
0000
,
0100
0000
0000
0010
0000
0000
0100
0000
1000
0000
0000
0000
0010
0000
0000
0100
0000
0000
0001
0000
0000
0100
0000
0000
0010
0000
0000
0000
0010
0000
0000
0000
,
0110
0000
0000
0100
0000
0000
0010
0000
0100
0000
0000
0000
0001
0000
0000
0010
0000
0000
0001
0000
0000
0000
1000
0000
1100
0000
0000
0000
0000
0000
1000
0000
,
1002
1000
0000
0203
,
0301
1000
0001
1000
0100
0010
0100
0010
,
0001
0100
0001
0100
1000
0100
1000
0100
,
0010
1000
0001
1000
0010
1000
0001
1000
,
0010
0100
0010
0100
0010
0100
0010
0100
0002
0000
0000
0000
0010
0000
1000
0000
,
0023
0000
0100
0000
0030
0100
0010
0001
,
0000
1000
0000
0001
0000
0100
0001
0000
,
1000
0000
0010
0000
0100
0100
0010
0100
,
1000
0100
0010
0100
0001
0010
0100
0010
,
0002
0000
1000
0000
0003
0001
0100
0010
,
0000
2000
3001
2000
3000
2000
3100
0000
,
0100
0010
0100
1000
0001
1000
0001
1000
,
0100
0010
0100
0010
0001
0010
0002
0000
,
1003
0001
1000
0000
0000
0100
2000
0000
,
3001
0020
0030
0020
0030
0020
0130
0000
,
2000
0000
0001
0000
3100
0000
1000
0010
,
0001
0010
0100
0010
1000
0001
1000
0000
,
0020
0000
0100
0000
0000
1000
1000
0000
,
2030
0000
0100
0000
0000
0001
0001
0000
,
3002
0000
0010
0000
0000
0100
0100
0000
,
0203
0000
0020
0000
0030
0010
0320
0030
,
0110
0000
0000
0100
0000
0000
0010
0000
0000
0100
0000
0000
0001
0000
0000
0010
,
0000
0000
0100
0000
0000
0010
0000
0000
0001
0000
1000
0000
0001
0000
0000
0000
,
0010
0000
0000
1000
0000
0000
0010
0000
0000
0001
0000
0000
1000
0000
0000
0010
,
0000
0000
0100
0000
0000
0010
0000
0000
1000
0000
0001
0000
1000
0000
0000
0000
,
1001
0000
0000
0100
0000
0000
0010
0000
0000
0100
0000
0000
0001
0000
0000
0010
,
0000
0000
0100
0000
0000
1000
0000
0000
0010
0000
0100
0000
0010
0000
0000
0000
,
0100
0000
0000
0010
0000
0000
1000
0000
0000
0001
0000
0000
0100
0000
0000
0010
,
0000
0000
1000
0000
0000
0100
0000
0000
0010
0000
0100
0000
0010
0000
0001
0000
,
0011
0000
0000
0001
0000
0000
1000
0000
0000
0001
0000
0000
0010
0000
0000
0100
,
0000
0000
1000
0000
0000
0001
0000
0000
0100
0000
0001
0000
0100
0000
0000
0000
,
0010
0000
0000
0100
0000
0000
0010
0000
0000
1000
0000
0000
0001
0000
0000
1000
,
0000
0000
0100
0000
0000
0010
0000
0000
0001
0000
0010
0000
0001
0000
0000
0000
,
0011
0000
0000
0100
0000
0000
0001
0000
0000
1000
0000
0000
0100
0000
0000
1000
,
0000
0000
0001
0000
0000
0010
0000
0000
0100
0000
0010
0000
0100
0000
0000
0000
,
1000
0000
0000
0001
0000
0000
0010
0000
0000
0001
0000
0000
1000
0000
0000
0100
,
0020
0000
0000
0000
0031
0010
0100
1000
,
1100
0000
0000
0000
;

//---------------dance-single - ----------------
#NOTEDATA:;
#CHARTNAME:X-Scale 5;
#STEPSTYPE:dance-single;
#DESCRIPTION:;
#CHARTSTYLE:;
#DIFFICULTY:Easy;
#METER:4;
#RADARVALUES:0.302903,0.462616,0.085670,0.149922,0.000000,198.000000,190.000000,8.000000,14.000000,0.000000,0.000000,0.000000,0.000000,0.000000,0.302903,0.462616,0.085670,0.149922,0.000000,198.000000,190.000000,8.000000,14.000000,0.000000,0.000000,0.000000,0.000000,0.000000;
#CREDIT:;
#NOTES:
0000
0000
0000
0000
,
0000
0000
0000
0000
,
0000
0000
0000
0000
,
0000
0000
0000
0000
,
2000
0000
0000
0000
3100
0010
0001
1000
,
0001
0000
0000
0000
0010
0000
0100
1000
,
0200
0000
0000
0000
0310
0100
1000
0001
,
1001
0000
0110
0000
1001
1000
0001
0010
,
0011
0000
0001
0000
0000
0000
1000
0100
,
1100
0000
0001
0000
0000
0000
0100
0010
,
0110
0000
1000
0000
0000
0000
0001
0010
,
0021
0000
0001
0000
0000
0000
0031
0010
,
0100
1000
0001
0010
,
0100
1000
0001
0010
,
0100
1000
0001
0100
0010
1000
0100
0010
,
0001
0100
0010
1000
0001
0010
0100
1000
,
1200
0000
1000
0000
0300
0100
0010
0000
,
0001
0000
1000
0000
0000
0001
0100
0000
,
0020
0000
1000
0000
0130
0010
1000
0000
,
0001
0000
0010
0000
0000
0001
1000
0000
,
2000
0000
0100
0000
3000
1000
0001
0000
,
0010
0000
0100
0000
0000
0010
0100
0000
,
1000
0100
1000
0000
0001
0100
0001
0100
,
0001
0000
0010
0000
0100
1000
0200
0000
,
0320
0000
0001
0000
0030
0010
0100
0000
,
1000
0001
0000
0010
0000
0001
0001
0000
,
0020
0000
0100
0000
0031
0010
0100
0000
,
1000
0010
0000
0100
0000
0010
1000
0000
,
0002
1000
0000
1000
,
2003
0100
0000
0100
,
3200
0010
0000
0010
,
0320
0000
0001
0000
0000
0000
0031
0010
,
0001
0000
1000
0000
0000
0010
1000
0000
,
0100
0000
1000
0000
0000
0010
0100
0000
,
0001
0000
1000
0000
0000
0100
1000
0000
,
0001
0000
0100
0000
0000
0010
0100
0000
,
0001
0000
0010
0000
0000
0001
1000
0000
,
0100
0000
0010
0000
0000
0100
0010
0000
,
0001
0000
1000
0000
0000
0001
0100
0000
,
0010
0000
0100
0000
0000
0001
0010
0000
,
0001
0000
1000
0000
0000
0010
1000
0000
,
0001
0000
1000
0000
0000
0100
0010
0000
,
0100
0000
1000
0000
0000
0001
0100
0000
,
0010
0000
0100
0000
0000
0001
0010
0000
,
0100
0000
1000
0000
0000
0001
1000
0000
,
0100
0000
0010
0000
0000
0100
0010
0000
,
0001
0000
1000
0000
0000
0010
1000
0000
,
0002
0000
0000
0000
,
0003
0000
0000
0000
;
