#TITLE:Searching for You ft. Karra & Eric Zayne;
#SUBTITLE:;
#ARTIST:Unlike Pluto;
#TITLETRANSLIT:;
#SUBTITLETRANSLIT:;
#ARTISTTRANSLIT:;
#GENRE:House;
#CREDIT:;
#BANNER:sfy-bn.png;
#BACKGROUND:sfy-bg.png;
#LYRICSPATH:;
#CDTITLE:cdtitle.png;
#MUSIC:sfy.ogg;
#OFFSET:0.000000;
#SAMPLESTART:46.452000;
#SAMPLELENGTH:15.500000;
#SELECTABLE:YES;
#BPMS:0.000000=124.000000
;
#STOPS:
;
#BGCHANGES:;
#KEYSOUNDS:;
#ATTACKS:;

//---------------dance-single - ----------------
#NOTES:
     dance-single:
     :
     Easy:
     2:
     0.221349,0.247911,0.041318,0.082637,0.000000,150.000000,146.000000,4.000000,8.000000,0.000000,0.000000,0.221349,0.247911,0.041318,0.082637,0.000000,150.000000,146.000000,4.000000,8.000000,0.000000,0.000000:
// measure 0
0000
0000
0000
0000
,  // measure 1
0000
0000
0000
0000
,  // measure 2
0000
0000
0000
0000
,  // measure 3
0000
0000
0000
0000
,  // measure 4
2000
0000
0000
0000
0000
0000
0000
3000
,  // measure 5
0002
0000
0000
0000
0000
0000
0000
0003
,  // measure 6
0020
0000
0000
0000
0000
0000
0030
0200
,  // measure 7
0000
0000
0300
0020
0030
0000
0000
0000
,  // measure 8
1001
0000
0001
0100
,  // measure 9
0010
0000
0001
1000
,  // measure 10
0100
0000
0000
0000
0001
0000
0100
0010
,  // measure 11
0000
0000
0000
0100
0000
0001
1000
0000
,  // measure 12
1010
0000
0001
0100
,  // measure 13
0010
0000
0001
0100
,  // measure 14
0001
0000
1000
0100
,  // measure 15
0010
0001
1000
0000
,  // measure 16
1001
0010
0000
0100
,  // measure 17
0000
0001
0000
1000
,  // measure 18
0000
0100
0000
0010
,  // measure 19
0000
0001
0002
0013
,  // measure 20
2000
3100
0000
1000
,  // measure 21
0000
0001
0000
0010
,  // measure 22
0000
0100
0000
1000
,  // measure 23
0000
0000
0010
0010
,  // measure 24
1010
0000
0100
0010
,  // measure 25
1000
0010
0100
0001
,  // measure 26
0010
0001
0100
0001
,  // measure 27
1000
0000
0001
0000
0100
1000
0010
0000
,  // measure 28
1000
0010
0100
0001
,  // measure 29
1000
0010
0100
0001
,  // measure 30
0010
1000
0001
0100
,  // measure 31
0010
0000
1000
0000
0000
0100
0100
0000
,  // measure 32
1000
0001
0010
0001
,  // measure 33
1000
0010
0100
0001
,  // measure 34
0010
1000
0001
0100
,  // measure 35
0001
0000
0010
0000
1000
0010
0001
0000
,  // measure 36
0100
0010
1000
0010
,  // measure 37
0100
0001
0010
1000
,  // measure 38
0001
0010
0100
0001
,  // measure 39
1000
0000
0010
0000
0000
0010
0001
0000
,  // measure 40
0010
1000
0001
0010
,  // measure 41
0100
1000
0010
0100
,  // measure 42
0001
0010
1000
0001
,  // measure 43
0010
1000
0100
0001
,  // measure 44
0010
0100
0001
1000
,  // measure 45
0010
0100
0001
0010
,  // measure 46
1000
0001
0100
0010
,  // measure 47
1000
0000
0010
0000
0000
0010
0020
0000
,  // measure 48
0030
0000
0000
0000
;

//---------------dance-single - ----------------
#NOTES:
     dance-single:
     :
     Beginner:
     1:
     0.134285,0.173538,0.020659,0.010330,0.000000,91.000000,89.000000,2.000000,1.000000,0.000000,0.000000,0.134285,0.173538,0.020659,0.010330,0.000000,91.000000,89.000000,2.000000,1.000000,0.000000,0.000000:
// measure 0
0000
0000
0000
0000
,  // measure 1
0000
0000
0000
0000
,  // measure 2
0000
0000
0000
0000
,  // measure 3
0000
0000
0000
0000
,  // measure 4
1000
0000
0000
0000
,  // measure 5
0010
0000
0000
0000
,  // measure 6
0001
0000
0000
0000
0000
0000
0000
0100
,  // measure 7
0000
0000
0000
0001
0000
0000
0000
0000
,  // measure 8
1001
0000
0100
0000
,  // measure 9
0010
0000
0001
0000
,  // measure 10
0100
0000
0010
0000
,  // measure 11
0001
0000
0010
0000
,  // measure 12
0001
0000
1000
0000
,  // measure 13
0010
0000
0001
0000
,  // measure 14
0001
0000
0010
0000
,  // measure 15
0001
0000
1000
0000
,  // measure 16
0000
0010
0000
0010
,  // measure 17
0000
0001
0000
0001
,  // measure 18
0000
1000
0000
0001
,  // measure 19
0000
1000
0000
0001
,  // measure 20
0000
0010
0000
1000
,  // measure 21
0000
0001
0000
0010
,  // measure 22
0000
1000
0000
0010
,  // measure 23
0000
0000
0010
0010
,  // measure 24
1010
0000
0001
0000
,  // measure 25
1000
0000
0100
0000
,  // measure 26
0010
0000
0100
0000
,  // measure 27
1000
0000
0100
0100
,  // measure 28
0100
0000
0100
0000
,  // measure 29
1000
0000
0100
0000
,  // measure 30
0010
0000
0001
0000
,  // measure 31
0010
0000
0000
0000
0000
0100
0100
0000
,  // measure 32
1000
0000
0010
0000
,  // measure 33
1000
0000
0100
0000
,  // measure 34
0010
0000
0001
0000
,  // measure 35
0001
0000
0010
0010
,  // measure 36
0010
0000
1000
0000
,  // measure 37
0100
0000
0010
0000
,  // measure 38
0100
0000
0100
0000
,  // measure 39
1000
0000
0000
0000
0000
1000
1000
0000
,  // measure 40
0010
0000
0001
0000
,  // measure 41
0100
0000
0010
0000
,  // measure 42
0001
0000
1000
0000
,  // measure 43
0010
0000
0100
0000
,  // measure 44
0010
0000
0001
0000
,  // measure 45
0010
0000
0001
0000
,  // measure 46
1000
0000
0100
0000
,  // measure 47
1000
0000
0000
2000
,  // measure 48
3000
0000
0000
0000
;

//---------------dance-single - ----------------
#NOTES:
     dance-single:
     :
     Medium:
     6:
     0.320218,0.371866,0.247911,0.072307,0.000000,217.000000,193.000000,24.000000,7.000000,0.000000,0.000000,0.320218,0.371866,0.247911,0.072307,0.000000,217.000000,193.000000,24.000000,7.000000,0.000000,0.000000:
// measure 0
0000
0000
0000
0000
,  // measure 1
0000
0000
0000
0000
,  // measure 2
0000
0000
0000
0000
,  // measure 3
0000
0000
0000
0000
,  // measure 4
2000
0000
0000
0000
0000
0000
0010
3000
,  // measure 5
0020
0000
0000
0000
0000
0000
0000
0030
,  // measure 6
0200
0000
0000
0000
0000
0000
0300
0002
,  // measure 7
0000
0000
0003
2000
3000
0002
0003
0000
,  // measure 8
0101
0010
0001
1100
,  // measure 9
0010
0100
0001
1010
,  // measure 10
0100
0001
0010
0101
,  // measure 11
0001
0000
1000
0000
0010
0100
0010
0100
,  // measure 12
1001
1000
0001
0101
,  // measure 13
0010
0000
0100
0000
0001
0010
1000
0010
,  // measure 14
0000
0010
1000
0000
0010
0000
0100
0010
,  // measure 15
0001
0010
0100
0000
1000
0000
0001
0000
,  // measure 16
0101
1000
0100
0010
,  // measure 17
0001
0010
0100
1000
,  // measure 18
0001
0100
0010
1000
,  // measure 19
0001
1000
0010
0000
0010
0000
0100
0000
,  // measure 20
0110
1000
0001
0100
,  // measure 21
0010
0001
0010
0100
,  // measure 22
0010
0000
1000
0000
0010
0000
0100
0001
,  // measure 23
0100
0010
1000
0000
0001
0000
0001
0000
,  // measure 24
1001
0100
0001
0010
,  // measure 25
1000
0010
0100
1000
,  // measure 26
0001
0100
0010
1000
,  // measure 27
0001
0100
0001
0010
0100
1000
0010
0000
,  // measure 28
1000
0010
0100
0001
,  // measure 29
0001
0100
0010
1000
,  // measure 30
0010
0000
1000
0000
0001
0000
0100
0010
,  // measure 31
0001
0010
0100
0000
0010
0100
0100
0000
,  // measure 32
1010
0000
0001
1000
0010
0000
1010
0000
,  // measure 33
1000
0000
0100
0010
0001
0000
0101
0000
,  // measure 34
0010
0000
0001
1000
0010
0000
0110
0000
,  // measure 35
0000
1000
0010
0000
0100
0001
0010
0000
,  // measure 36
0101
0000
0010
0001
1000
0000
1001
0000
,  // measure 37
0100
0000
0001
0010
0100
0000
0110
0000
,  // measure 38
0001
0000
1000
0010
0100
0000
0010
1000
,  // measure 39
0100
0010
0001
0000
1000
0001
0100
0000
,  // measure 40
0011
1000
0001
0010
,  // measure 41
0110
1000
0010
0100
,  // measure 42
0101
0010
1000
0001
,  // measure 43
0101
0000
0010
0000
1000
0001
1001
0000
,  // measure 44
0010
0100
0001
1010
,  // measure 45
0010
0100
0001
0110
,  // measure 46
1000
0001
0100
0110
,  // measure 47
0001
0000
1000
0000
0000
0100
0002
0000
,  // measure 48
0003
0000
0000
0000
;

//---------------dance-single - ----------------
#NOTES:
     dance-single:
     :
     Hard:
     9:
     0.473687,0.570195,0.309889,0.072307,0.227252,321.000000,291.000000,30.000000,7.000000,0.000000,0.000000,0.473687,0.570195,0.309889,0.072307,0.227252,321.000000,291.000000,30.000000,7.000000,0.000000,0.000000:
// measure 0
0000
0000
0000
0000
,  // measure 1
0000
0000
0000
0000
,  // measure 2
0000
0000
0000
0000
,  // measure 3
0000
0000
0000
0000
,  // measure 4
2000
0000
0000
0000
0000
0000
0100
3010
,  // measure 5
0020
0000
0000
0000
0000
0000
0000
0030
,  // measure 6
2000
0000
0000
0000
0000
0100
3001
0200
,  // measure 7
0000
0000
0300
0002
0003
0200
0300
0000
,  // measure 8
0110
0000
0000
0000
0010
0000
1000
0010
0100
0000
0000
0000
0101
0000
0010
0001
,  // measure 9
0010
0000
0100
0000
0001
0000
1010
0010
,  // measure 10
0100
0000
0000
0000
0001
0000
1000
1000
0010
0000
0000
0000
0101
0000
0010
0010
,  // measure 11
0001
0000
1000
0000
0010
0100
0010
0100
,  // measure 12
0110
0000
0000
0000
1000
0000
0100
0100
0001
0000
0000
0000
0101
0000
0010
0010
,  // measure 13
0100
0000
0001
0000
0001
1000
0100
0010
,  // measure 14
0000
0010
1000
0000
0010
0000
0100
0010
,  // measure 15
0001
0010
0100
0000
1000
0000
0001
0000
,  // measure 16
0101
0000
0000
0000
1000
0000
0000
0000
0100
0000
0000
0010
0100
0010
0000
0000
,  // measure 17
0001
0000
0000
0000
0010
0000
0000
0000
1000
0000
0000
0010
0001
0010
0000
0000
,  // measure 18
0100
0000
0000
0000
1000
0000
0000
0000
0010
0000
0000
1000
0001
0010
0000
0000
,  // measure 19
0010
0000
1000
0000
0100
0000
0000
0000
0010
0000
0000
1000
0001
0100
0000
0000
,  // measure 20
0101
0000
0000
0000
0010
0000
0000
0000
0100
0000
0000
0010
1000
0100
0000
0000
,  // measure 21
0010
0000
0000
0000
0001
0000
0000
0000
0010
0000
0000
0001
0010
0100
0000
0000
,  // measure 22
0100
0000
0000
0000
1000
0000
0000
0000
0010
0000
0000
0100
0010
0100
0010
0000
,  // measure 23
0100
0010
0001
0000
0101
0000
0110
0000
,  // measure 24
1010
0000
0000
0000
0100
0000
0000
0000
0001
0000
0000
0100
0010
0100
0000
0000
,  // measure 25
1100
0000
0000
0000
0010
0000
0000
0000
0100
0000
0000
1000
0001
0100
0000
0000
,  // measure 26
1010
0000
0000
0000
0001
0000
0000
0000
0100
0000
0000
0001
1000
0010
0000
0000
,  // measure 27
1010
0100
0001
0010
0100
1000
0010
0000
,  // measure 28
1010
0000
0000
0000
0010
0000
0000
0000
0100
0000
0000
1000
0001
1000
0000
0000
,  // measure 29
1010
0000
0000
0000
0010
0000
0000
0000
0100
0000
0000
0010
0001
0100
0000
0000
,  // measure 30
1010
0000
0000
0000
1000
0000
0000
0000
0001
0000
0000
0010
0100
1000
0001
0000
,  // measure 31
1001
0100
0010
0000
0010
0100
0100
0000
,  // measure 32
0110
0000
1000
0000
0001
0000
0010
0000
0100
0000
1000
0100
0001
0100
0000
0000
,  // measure 33
1100
0000
0001
0000
1000
0000
0100
0000
0010
0000
0001
1000
0001
0100
0000
0000
,  // measure 34
0101
0000
0001
0000
1000
0000
0001
0000
0010
0000
0100
0010
0100
0010
0000
0000
,  // measure 35
0101
0001
1000
0001
0100
0010
0100
0000
,  // measure 36
0110
0000
1000
0000
0010
0000
0100
0000
0001
0000
1000
0100
0010
0001
0000
0000
,  // measure 37
0101
0000
1000
0000
0001
0000
0100
0000
0010
0000
0100
0001
1000
0010
0000
0000
,  // measure 38
0101
0000
0001
0000
0010
0000
0100
0000
0010
0000
0001
1000
0001
0100
0010
0000
,  // measure 39
1010
0100
0010
0001
0010
0100
1000
0001
,  // measure 40
1001
0001
1000
0001
0010
0100
0010
0001
,  // measure 41
0010
0100
1000
0100
0010
0001
0100
0010
,  // measure 42
0101
0001
1000
0010
1000
0100
0010
0001
,  // measure 43
0010
0100
1000
0001
0100
0010
0100
0010
,  // measure 44
0110
0001
1000
0100
0001
0100
1000
0100
,  // measure 45
0010
0001
0100
0010
0001
0010
0100
0010
,  // measure 46
1001
0100
0001
1000
0010
0100
0010
0100
,  // measure 47
0001
0000
0001
1000
0000
0010
0200
0000
,  // measure 48
0300
0000
0000
0000
;
