#TITLE:Scribble;
#SUBTITLE:(Extended Mix);
#ARTIST:Puppet feat. The Eden Project;
#TITLETRANSLIT:;
#SUBTITLETRANSLIT:;
#ARTISTTRANSLIT:;
#GENRE:Progressive House;
#CREDIT:;
#BANNER:scribble-bn.png;
#BACKGROUND:scribble-bg.png;
#LYRICSPATH:;
#CDTITLE:cdtitle.png;
#MUSIC:scribble.ogg;
#OFFSET:-0.062426;
#SAMPLESTART:185.479996;
#SAMPLELENGTH:15.000000;
#SELECTABLE:YES;
#BPMS:0.000000=60.000000
,6.000000=59.910000
,14.000000=59.750000
,17.000000=59.299999
,22.000000=58.450001
,24.000000=58.025002
,26.000000=57.000000
,27.500000=55.924999
,29.000000=52.424999
,30.000000=50.500000
,32.000000=39.985001
,32.500000=28.375000
,33.000000=33.400002
,33.500000=59.650002
,34.000000=58.915001
,42.000000=59.035000
,74.000000=58.980000
,96.000000=61.399998
,98.000000=65.300003
,102.000000=67.500000
,103.000000=70.699997
,105.000000=72.900002
,107.000000=76.800003
,109.000000=81.300003
,111.000000=84.099998
,112.000000=87.699997
,113.000000=91.300003
,114.000000=95.199997
,115.000000=100.000000
,116.000000=106.000000
,117.000000=113.000000
,118.000000=119.000000
,119.000000=129.000000
,120.000000=134.000000
,121.000000=142.000000
,122.000000=153.000000
,123.000000=165.000000
,124.000000=155.000000
,126.000000=163.000000
,127.000000=156.000000
,128.000000=160.000000
,129.000000=158.000000
,132.000000=159.000000
,133.000000=153.500000
,136.000000=148.000000
,137.000000=143.000000
,138.000000=135.000000
,139.000000=126.999992
,139.500000=117.000000
,140.000000=112.000000
,140.500000=99.000000
,141.000000=94.000000
,141.250000=84.000000
,141.500000=81.000000
,141.750000=73.000000
,142.000000=66.000000
,142.250000=61.000000
,142.500000=50.000000
,143.000000=40.000000
,143.500000=45.396999
,144.000000=128.000000
;
#STOPS:
;
#BGCHANGES:;
#KEYSOUNDS:;
#ATTACKS:;

//---------------dance-single - ----------------
#NOTES:
     dance-single:
     :
     Easy:
     2:
     0.220166,0.244773,0.056660,0.313521,0.096323,408.000000,393.000000,15.000000,83.000000,0.000000,0.000000,0.220166,0.244773,0.056660,0.313521,0.096323,408.000000,393.000000,15.000000,83.000000,0.000000,0.000000:
// measure 0
0000
0000
0000
0000
,  // measure 1
0000
0000
2000
3020
,  // measure 2
0230
0000
0000
0000
0000
0000
0000
0000
0320
0000
0000
0030
2000
0000
0000
0000
,  // measure 3
3000
0000
0010
0000
1000
0000
0010
0000
2000
0000
0000
0000
3020
0000
0000
0030
,  // measure 4
2000
0000
3000
0010
0200
0000
0302
0000
,  // measure 5
0003
1000
0100
0010
0001
0200
0000
0000
,  // measure 6
0300
0020
0000
0000
0030
2000
0000
3002
,  // measure 7
0000
0000
0000
0000
0103
0000
0002
0000
0000
0000
0003
0020
0000
0000
0030
0000
,  // measure 8
0001
1000
0001
1000
2000
0000
0010
0000
,  // measure 9
3020
0100
0230
0001
,  // measure 10
0302
1000
2003
0001
,  // measure 11
3002
0100
0203
0010
,  // measure 12
0320
0100
0230
0001
,  // measure 13
0302
1000
2003
0010
,  // measure 14
3020
0100
0230
0010
,  // measure 15
0320
1000
2030
0001
,  // measure 16
3002
0100
0203
0010
,  // measure 17
0320
1000
2030
0010
,  // measure 18
3020
0000
0000
0200
0030
0320
0000
0000
,  // measure 19
2030
0000
0000
3002
0000
0000
0023
0000
,  // measure 20
0031
0010
0001
0100
0001
0002
0000
1003
,  // measure 21
2000
0000
0010
3000
1000
2000
0000
0000
,  // measure 22
0000
0000
3002
0000
0000
0000
0003
0000
0200
0000
0300
0000
0010
0000
0000
1000
,  // measure 23
0000
0020
0000
2000
0000
0000
0000
3030
,  // measure 24
1000
0000
0000
0000
0000
0100
0000
0000
1000
0000
0020
0000
0000
0100
0000
0000
,  // measure 25
0000
0001
0000
0000
0030
0100
0000
0010
0000
1000
0000
0000
0000
0001
0000
0000
,  // measure 26
0000
1000
0000
0000
0000
0010
0000
0000
0000
0100
0000
0000
0000
0010
0000
0000
,  // measure 27
0000
0100
0000
0000
0000
0001
0000
0000
0000
1000
0000
0000
0000
0001
0000
0000
,  // measure 28
0000
0010
0000
0000
0000
0100
0000
0000
0000
0001
0000
0000
0000
0100
0000
0000
,  // measure 29
0000
1000
0000
0000
0000
0010
0000
0000
0000
0100
0000
0000
0000
0001
0000
0000
,  // measure 30
0000
0100
0000
0000
0000
0010
0000
0000
0000
0100
0000
0000
0000
0001
0000
0000
,  // measure 31
0000
0010
0000
0000
0000
1000
0000
0000
0000
0010
0000
0000
0000
0001
0000
0000
,  // measure 32
0000
0010
0000
0000
0000
0100
0000
0000
0000
0001
0000
0000
0000
1000
0000
0000
,  // measure 33
0000
0001
0000
0000
0000
1000
0000
0000
0000
0001
0000
0000
0000
0010
0000
0000
,  // measure 34
0000
0001
0000
0000
0000
0100
0000
0000
0000
0001
0000
0000
0000
1000
0000
0000
,  // measure 35
0000
0001
0000
0000
0000
1000
0000
0001
0000
0100
0000
0001
0000
0010
0000
0000
,  // measure 36
0011
0000
0010
0000
,  // measure 37
0001
0000
0100
0000
,  // measure 38
0001
0000
1000
0000
,  // measure 39
0010
0010
0100
0100
,  // measure 40
0001
0000
1000
0000
,  // measure 41
0010
0000
0100
0000
,  // measure 42
0001
0000
1000
0000
,  // measure 43
0001
0001
1000
1000
,  // measure 44
1001
0000
0001
0000
,  // measure 45
1000
0000
0010
0100
,  // measure 46
0010
0000
1000
0000
,  // measure 47
0001
0000
0100
0001
,  // measure 48
0100
0000
0001
0000
,  // measure 49
1000
0000
0100
0010
,  // measure 50
0100
0000
0010
0000
,  // measure 51
0001
0000
0001
1000
,  // measure 52
0002
0000
0000
0000
1000
0000
0003
2000
,  // measure 53
0010
0010
0010
3000
,  // measure 54
0020
1000
0000
1000
,  // measure 55
0030
2000
0000
0000
0000
0000
3001
1000
,  // measure 56
0001
0100
0010
1000
,  // measure 57
0100
0000
0020
0000
0000
0030
0100
0010
,  // measure 58
0200
0000
0000
0000
2300
0000
0000
3002
,  // measure 59
0000
1000
0000
0000
0100
0000
0000
0003
,  // measure 60
0200
0000
0000
0300
0020
0000
0030
2000
,  // measure 61
0000
0000
0000
0000
0000
0000
0001
3001
,  // measure 62
1001
0000
0001
0000
,  // measure 63
0100
0000
0010
0000
,  // measure 64
1000
0001
0100
0010
,  // measure 65
1000
0001
0000
2002
,  // measure 66
3003
0001
1000
0001
,  // measure 67
0100
0000
0010
0000
0001
0000
0010
0010
,  // measure 68
0010
0100
0001
1000
,  // measure 69
0001
0100
0001
0010
,  // measure 70
0100
1000
0001
1000
,  // measure 71
0010
0000
0100
0000
0001
0000
0100
0100
,  // measure 72
0100
0010
0100
1000
,  // measure 73
0200
0000
0000
0310
,  // measure 74
0110
0100
0000
0001
0000
0100
0000
1000
,  // measure 75
0000
0100
0000
0001
0000
0010
0100
0010
,  // measure 76
0100
0010
0000
0100
0000
1000
0000
0001
,  // measure 77
0000
1000
0000
0100
0000
0010
0100
0000
,  // measure 78
1100
1000
0000
0001
0000
1000
0000
0010
,  // measure 79
0000
0100
0000
0001
0000
0100
0010
0100
,  // measure 80
0010
0100
0000
0001
0000
1000
0000
0010
,  // measure 81
0100
0000
0100
0000
0100
0010
0100
0000
,  // measure 82
0110
0100
0001
1000
,  // measure 83
0001
0000
0100
0000
0010
0000
0100
0001
,  // measure 84
0100
0010
0100
0001
,  // measure 85
1000
0001
0010
0100
,  // measure 86
0110
0010
0001
1000
,  // measure 87
0001
0000
0100
0000
0001
0000
1000
0010
,  // measure 88
1000
0001
0100
0001
,  // measure 89
0100
0000
0010
0000
0100
0000
0010
1000
,  // measure 90
2010
0000
3000
0000
0002
0000
0003
0100
,  // measure 91
0010
0000
0010
0000
0010
0000
0010
1000
,  // measure 92
0002
0000
0003
0000
0200
0000
0300
0010
,  // measure 93
0100
0100
0100
0110
,  // measure 94
2001
0000
3000
0000
0020
0000
0030
0100
,  // measure 95
0001
0000
0001
0000
0001
0000
0001
1000
,  // measure 96
0020
0000
0030
0000
2000
0000
3000
0010
,  // measure 97
1000
0000
1000
0000
1000
0001
2002
3003
,  // measure 98
0210
0000
0300
0000
0020
0000
0030
0100
,  // measure 99
0010
1000
0010
0100
,  // measure 100
0002
0000
0003
0000
2000
0000
3000
0010
,  // measure 101
1000
0001
1000
1010
,  // measure 102
0201
0000
0300
0000
0002
0000
0003
1000
,  // measure 103
0001
0000
0100
0000
0010
0000
1000
1000
,  // measure 104
2000
0000
3000
0000
0020
0000
0030
1000
,  // measure 105
0001
0100
0010
2000
,  // measure 106
3001
0000
1000
0000
,  // measure 107
0010
0000
0100
0200
,  // measure 108
0300
0000
0000
0000
;

//---------------dance-single - ----------------
#NOTES:
     dance-single:
     :
     Hard:
     9:
     0.471631,0.673126,0.033996,0.154872,0.394734,874.000000,865.000000,9.000000,41.000000,0.000000,0.000000,0.471631,0.673126,0.033996,0.154872,0.394734,874.000000,865.000000,9.000000,41.000000,0.000000,0.000000:
// measure 0
0000
0000
0000
0000
,  // measure 1
0000
0000
0000
0000
1000
0100
0010
0001
,  // measure 2
1000
0001
0010
0100
1000
0010
0100
0001
,  // measure 3
1000
0001
0100
0001
2000
0100
3200
0000
,  // measure 4
0320
0100
0031
0100
2000
0001
3002
1000
,  // measure 5
1003
0010
0100
0002
1000
2003
0010
0000
,  // measure 6
3100
0200
0010
0010
0310
0200
0000
2300
,  // measure 7
0000
0000
3001
0002
1000
0103
2000
0001
,  // measure 8
0100
0010
3100
0001
1000
0001
1000
0001
,  // measure 9
1000
0010
0100
0001
1000
0001
0010
0001
,  // measure 10
1000
0010
0100
0010
1000
0100
0010
0001
,  // measure 11
1000
0000
0010
1000
0000
0002
0000
0003
1000
0000
0100
0000
1000
0000
0001
0000
,  // measure 12
1000
0010
0100
0010
0001
0010
0100
0010
,  // measure 13
1000
0000
0010
0000
0000
0000
0000
0020
0000
0000
0000
0030
1000
0000
0000
0001
0000
0000
0010
0000
0000
0100
0000
0000
,  // measure 14
1000
0010
0100
0001
1000
0001
0010
0100
,  // measure 15
0010
0001
1000
0001
2000
0010
3020
1000
,  // measure 16
2030
0010
0000
0001
0000
0100
3200
0000
,  // measure 17
0010
0000
0300
0100
0010
0001
1000
0001
,  // measure 18
0010
0100
0010
0100
1000
0100
0010
0001
,  // measure 19
1000
0000
0001
0000
0100
0000
0010
0000
1000
0000
0100
0000
0010
0001
0010
0001
,  // measure 20
0010
0100
1000
0001
1000
0010
0100
0001
,  // measure 21
0010
0100
1000
0001
1000
0100
0010
0001
,  // measure 22
1000
0010
1000
0010
1000
0000
0001
0000
0100
0000
0010
0000
0100
0000
0001
0000
,  // measure 23
1000
0000
0001
0000
0100
0010
0001
0010
1000
0010
0001
0010
0100
0010
0001
0010
,  // measure 24
1000
0001
0000
0000
0000
1000
0000
0000
0000
1000
0000
0000
0000
0000
0010
0000
1000
0000
0100
0000
0010
0000
0100
0000
1000
0000
0100
0000
0010
0000
0100
0000
,  // measure 25
1000
0100
0010
0100
1000
0010
0100
0001
0100
0010
0100
0001
0100
0010
0100
0001
,  // measure 26
0100
0010
1000
0100
1000
0010
1000
0001
1000
0010
1000
0100
1000
0010
1000
0001
,  // measure 27
1000
0010
0100
0010
1000
0010
0100
0010
1000
0010
0100
0010
1000
0010
0100
0010
,  // measure 28
1000
0100
0010
0001
1000
0001
0000
1000
0000
0001
0000
0100
0000
0010
0000
1000
,  // measure 29
0000
0100
0000
0001
0000
0010
0000
0100
0000
0010
0000
1000
0000
0010
0000
0100
,  // measure 30
0000
0001
0000
0010
0000
0100
0000
1000
0000
0100
0000
0010
0000
0001
0000
0010
,  // measure 31
0000
0100
0000
0010
0000
0001
0000
0010
0000
0100
0000
1000
0000
0010
0000
0100
,  // measure 32
0000
0001
0000
0010
0000
0100
0000
1000
0000
0100
0000
0010
0000
0100
0000
1000
,  // measure 33
0000
0100
0000
0001
0000
0100
0000
1000
0000
0100
0000
0010
0000
0100
0000
1000
,  // measure 34
0000
0100
0000
0010
0000
0001
0000
0010
0000
0100
0000
1000
0000
0010
0000
0100
,  // measure 35
0000
0001
0000
0100
0010
0100
0010
0100
0001
1000
0001
1000
0001
0100
0000
0000
,  // measure 36
0101
0001
0100
0001
1000
0001
0100
0001
,  // measure 37
1000
0010
1000
0001
1000
0010
1000
0001
,  // measure 38
1000
0100
0010
0100
1000
0100
0010
0100
,  // measure 39
1000
0001
0010
0100
0010
0001
0010
0100
,  // measure 40
0010
0001
1000
0010
0100
0001
0010
0100
,  // measure 41
1000
0010
0001
0010
0100
0010
0001
0010
,  // measure 42
1000
0100
0001
0100
0010
0100
0001
0100
,  // measure 43
1000
0010
1000
0010
1000
0001
1000
0001
,  // measure 44
1001
2000
0100
0000
0010
0000
0001
3000
,  // measure 45
1000
0001
1000
0001
1000
0010
0100
0010
,  // measure 46
1000
0000
1000
0002
0100
0203
0001
0302
,  // measure 47
0010
0000
0003
0000
0001
0000
0100
0000
0001
0000
0000
0001
0000
0000
0001
0000
,  // measure 48
1000
0020
0100
0000
0001
0000
0100
0030
,  // measure 49
1000
0010
0100
0010
1000
0000
1000
0001
,  // measure 50
1000
0000
0001
0100
0010
0100
0001
0200
,  // measure 51
0010
0000
1000
0000
0010
0300
0100
0001
,  // measure 52
1000
0100
0010
0100
1000
0100
1000
0001
,  // measure 53
1000
0000
0010
0000
0100
0001
0100
0001
,  // measure 54
0000
1000
0010
0001
0100
1000
0001
1000
,  // measure 55
0000
0010
0100
0010
0100
0010
0100
0001
,  // measure 56
2000
0100
3200
0010
0320
0001
0032
0010
,  // measure 57
0023
0100
0230
0000
0010
0000
1300
0100
,  // measure 58
2000
0000
0001
3000
2000
0000
0010
3010
,  // measure 59
1000
0020
0100
0000
0001
0000
0100
0130
,  // measure 60
0200
0000
0001
0300
0002
0000
1000
2003
,  // measure 61
0000
0001
0001
0000
0010
0000
0100
3100
,  // measure 62
1100
0000
0000
1000
0100
0000
1000
0000
0000
0001
0000
0000
1000
0000
0001
0000
,  // measure 63
1000
0000
0000
0001
0100
0000
0001
0000
0000
1000
0000
0000
0001
0000
1000
0000
,  // measure 64
0001
0010
0001
0010
0001
0010
0001
0010
0001
0010
0001
0010
0001
0010
0001
0010
,  // measure 65
0004
1000
0103
1001
,  // measure 66
1001
0000
0000
0001
0100
0000
0001
0100
0000
0000
0010
1000
0010
0000
0010
0100
,  // measure 67
0010
0000
0000
1000
0100
0000
1000
0010
0000
0000
0010
0100
0010
0000
0010
0000
,  // measure 68
0100
0000
0000
0001
0100
0000
0001
1000
0000
0000
1000
0010
1000
0000
0010
0100
,  // measure 69
0010
0000
0000
1000
0001
0000
0100
0001
0000
0000
1000
0001
0000
1000
0001
1000
,  // measure 70
0010
0000
0000
0010
0100
0000
0001
1000
0000
0000
1000
0010
1000
0000
0010
0100
,  // measure 71
0010
0000
0000
0100
0001
0000
1000
0001
0000
0000
1000
0100
1000
0000
1000
0000
,  // measure 72
0010
0000
0000
0100
0010
0000
1000
0001
0000
0000
0001
0100
0001
0000
0100
0000
,  // measure 73
0020
1000
0100
1030
,  // measure 74
1010
0000
1000
0010
0000
1000
0001
0000
0000
0000
1000
0000
0100
0000
0010
0000
,  // measure 75
0100
0000
0010
0100
0000
0100
1000
0000
0000
0000
0010
0000
1000
0000
1000
0000
,  // measure 76
0001
0000
0100
0001
0000
1000
0001
0000
0000
0000
0100
0000
0010
0000
0100
0000
,  // measure 77
0001
0000
1000
0001
0000
0001
0100
0000
0000
0000
0010
0000
1000
0000
0010
0000
,  // measure 78
1000
0000
0100
1000
0000
1000
0001
0000
0000
0000
0100
0000
0001
0000
1000
0000
,  // measure 79
0001
0000
0100
0010
0000
1000
0010
0000
0000
0000
0100
0000
0001
0000
0001
0000
,  // measure 80
1000
0000
0010
1000
0000
0010
1000
0000
0000
0000
0001
0000
1000
0000
0010
0000
,  // measure 81
1000
0000
0001
0000
1000
1000
0200
0300
,  // measure 82
1100
0000
0000
1000
0001
0000
1000
0010
0000
0000
0010
0100
0010
0000
0100
0001
,  // measure 83
0100
0000
0001
1000
0000
0001
1000
0000
0000
0000
1000
0100
1000
0000
1000
0000
,  // measure 84
0001
0000
0000
0100
0001
0000
1000
0001
0000
0000
0100
0001
0100
0000
0010
0000
,  // measure 85
1000
0000
0000
0001
1000
0000
0010
1000
0000
0000
1000
0100
0000
0100
0010
0100
,  // measure 86
0010
0000
0000
0010
0001
0000
1000
0001
0000
0000
0001
0100
0001
0000
0010
0000
,  // measure 87
0001
0000
0000
1000
0010
0000
0100
0010
0000
0000
0100
0001
0100
0000
0100
0000
,  // measure 88
0001
0000
0000
0001
1000
0000
0010
1000
0000
0000
0100
0010
0100
0000
1000
0000
,  // measure 89
0002
0000
1000
0000
0100
0000
1003
0001
,  // measure 90
1001
0000
0000
1000
0001
0000
1000
0000
0010
0000
0000
0010
0100
0000
0001
0000
,  // measure 91
1000
0001
0100
0001
1000
0001
0100
0100
,  // measure 92
0001
0000
0000
0001
1000
0000
0001
0000
0100
0000
0000
0010
0100
0000
0010
0000
,  // measure 93
1000
0001
1000
0010
1000
0001
1000
0000
,  // measure 94
0010
0000
0000
1000
0001
0000
0100
0000
0001
0000
0000
0001
0100
0000
0001
0000
,  // measure 95
1000
0010
0001
0010
1000
0010
0100
0100
,  // measure 96
0001
0000
0000
1000
0001
0000
1000
0000
0010
0000
0000
0000
0100
0000
0000
0000
,  // measure 97
0010
1000
0010
0001
0010
0100
0020
0030
,  // measure 98
0110
0000
0000
0100
0001
0000
0100
0000
0010
0000
0000
0010
1000
0000
0010
0000
,  // measure 99
0100
0001
0100
1000
0100
0001
0100
0100
,  // measure 100
0001
0000
0000
1000
0001
0000
0100
0000
0001
0000
0000
0001
1000
0000
0010
0000
,  // measure 101
1000
0100
0010
0100
1000
0100
0010
0000
,  // measure 102
0010
0000
0000
0001
0010
0000
0001
0000
0100
0000
0000
0100
0001
0000
1000
0000
,  // measure 103
0001
0010
0100
0010
0001
0010
0100
0100
,  // measure 104
0010
0000
0000
0100
1000
0000
0001
0000
1000
0000
0000
1000
0010
0000
0100
0000
,  // measure 105
0010
1000
0010
0001
0010
1000
0020
0000
,  // measure 106
1030
0000
0010
0000
0000
1000
0000
0001
1000
0000
0001
0000
0000
0100
0000
0010
,  // measure 107
0100
0000
0001
0000
0000
1000
0000
0100
0010
0000
0100
0000
1000
0001
1000
0001
,  // measure 108
1000
0000
0000
0000
;

//---------------dance-single - ----------------
#NOTES:
     dance-single:
     :
     Medium:
     6:
     0.307585,0.346762,0.041551,0.302189,0.149206,570.000000,559.000000,11.000000,80.000000,0.000000,0.000000,0.307585,0.346762,0.041551,0.302189,0.149206,570.000000,559.000000,11.000000,80.000000,0.000000,0.000000:
// measure 0
0000
0000
0000
0000
,  // measure 1
0000
0000
2000
3200
,  // measure 2
0320
0000
0000
0000
0001
0000
0001
0000
0032
0000
0000
0003
2000
0000
0000
0000
,  // measure 3
3010
0000
0001
0000
0010
0000
1000
0000
2000
0000
0000
0000
3002
0000
0000
0003
,  // measure 4
0020
0000
0130
0010
0200
0000
2300
0000
,  // measure 5
3100
1000
0100
0010
0100
0200
0010
0000
,  // measure 6
0310
0020
0100
0000
0130
0002
1000
2003
,  // measure 7
0001
0000
3100
0200
1000
0300
0100
0000
,  // measure 8
0010
0100
1000
0001
2000
0000
0010
0100
,  // measure 9
3020
0000
0000
0000
0100
0000
0001
0000
0230
0000
0010
0000
0000
0010
0000
0000
,  // measure 10
0320
0000
1000
0100
2030
0000
0010
0001
,  // measure 11
3020
0000
0100
1000
0230
0000
0010
0001
,  // measure 12
0320
0000
1000
0100
2030
0000
0001
0100
,  // measure 13
3002
0000
1000
0010
2003
0000
3020
0000
,  // measure 14
2030
0000
0000
0000
3200
0000
0000
0000
0010
0000
1000
0000
0300
0020
0000
0000
,  // measure 15
0001
0000
1030
0010
0002
0000
0010
1000
,  // measure 16
0023
0000
0100
1000
0230
0000
1000
0001
,  // measure 17
2300
0000
0001
0010
3002
0000
0100
0010
,  // measure 18
0203
0000
0000
0002
0300
2003
0001
0100
,  // measure 19
3002
0000
0100
0203
0001
0001
0302
0000
,  // measure 20
0103
0001
1000
0100
0010
0002
0000
1003
,  // measure 21
2000
0000
0010
3100
1000
2000
0001
0100
,  // measure 22
0001
0000
3002
0000
0100
0000
0013
0000
0200
0000
0300
0000
0010
0000
0000
1000
,  // measure 23
0000
0020
0000
2000
0000
0000
0000
3030
,  // measure 24
1000
0000
0000
0000
0000
0100
0000
0000
0000
1000
0000
0000
0000
0100
0000
0000
,  // measure 25
0000
0010
0000
0000
0000
0100
0000
0010
0000
0001
0000
1000
0000
0001
0000
0010
,  // measure 26
0000
1000
0000
0010
0000
0001
0000
0010
0000
0100
0000
1000
0000
0100
0000
1000
,  // measure 27
0000
0010
0000
1000
0000
0001
0000
0100
0000
1000
0000
0010
0000
0001
0000
1000
,  // measure 28
0000
0010
0000
1000
0000
0100
0000
1000
0000
0001
0000
0010
0000
0100
0000
0010
,  // measure 29
0000
0001
0000
1000
0000
0001
0000
0010
0000
0100
0000
1000
0000
0001
0000
1000
,  // measure 30
0000
0000
0000
0100
0000
0000
0000
0010
0000
0000
0000
0100
0000
0000
0000
0010
,  // measure 31
0000
0000
0000
1000
0000
0000
0000
0001
0000
0000
0000
1000
0000
0000
0000
0001
,  // measure 32
0000
0000
0000
0100
0000
0000
0000
0010
0000
0000
0000
1000
0000
0000
0000
0001
,  // measure 33
0000
0000
0000
0010
0000
0000
0000
0100
0000
0000
0000
0010
0000
0000
0000
0100
,  // measure 34
0000
0000
0000
1000
0000
0000
0000
0001
0000
0000
0000
1000
0000
0000
0000
0100
,  // measure 35
0000
0000
0000
0010
0000
0000
0000
0001
0000
1000
0000
0100
0000
1000
0000
0000
,  // measure 36
1100
1000
0001
0010
,  // measure 37
0100
1000
0100
0010
,  // measure 38
0001
0100
0010
1000
,  // measure 39
0010
0100
0010
0000
0100
0001
0100
0000
,  // measure 40
0001
0010
1000
0010
,  // measure 41
0001
0010
0100
1000
,  // measure 42
0010
0100
0001
1000
,  // measure 43
0001
0100
0001
0000
1000
0001
1000
0000
,  // measure 44
1001
1000
0001
0100
,  // measure 45
0010
0000
0100
0000
1000
0001
1000
0001
,  // measure 46
1000
0000
0010
0100
0000
0100
0000
0100
,  // measure 47
0001
0000
0000
0000
1000
0000
0001
0000
1000
0000
0000
1000
0000
0000
1000
0000
,  // measure 48
0100
1000
0001
0010
,  // measure 49
1000
0000
0100
0000
0010
0000
0100
0020
,  // measure 50
0100
0000
1030
0010
0000
0100
0000
0010
,  // measure 51
1000
0001
1000
0001
1000
0001
1000
0001
,  // measure 52
2000
0000
0001
0000
0100
0000
3010
0100
,  // measure 53
0002
0000
0010
0000
1000
0000
0013
0100
,  // measure 54
0020
0000
1000
0000
0001
0000
0100
0100
,  // measure 55
0030
0200
0000
0000
1000
0010
1300
0100
,  // measure 56
2000
3002
0023
0230
,  // measure 57
2300
0000
3020
0000
0100
0030
0100
0010
,  // measure 58
0200
0000
0001
0000
0302
0000
0000
1003
,  // measure 59
0001
1000
0010
0000
0100
0000
0010
0010
,  // measure 60
0200
0000
0001
0300
0002
0000
0003
1000
,  // measure 61
0001
0000
0100
0000
0010
0000
1000
1000
,  // measure 62
1010
0000
0000
0010
0000
0000
0010
0000
0000
0010
0000
0000
0010
0000
0100
0000
,  // measure 63
0001
0000
0000
0001
0000
0000
0001
0000
0000
0001
0000
0000
0001
0000
0010
0000
,  // measure 64
0100
0010
0001
0010
0100
1000
0100
0010
,  // measure 65
0100
0010
0000
0110
,  // measure 66
0110
0000
0010
0000
0001
0000
1000
0001
,  // measure 67
1000
0000
0010
0000
0100
0000
0001
0001
,  // measure 68
0001
0000
0100
0000
0001
0000
1000
0100
,  // measure 69
1000
0000
0000
0000
0001
0000
0000
0000
1000
0000
0010
0000
0000
0010
0000
0000
,  // measure 70
0100
0000
0010
0000
0001
0000
0010
0100
,  // measure 71
0001
0000
1000
0000
0001
0000
1000
1000
,  // measure 72
1000
0010
0100
0001
,  // measure 73
1000
1000
1000
1010
,  // measure 74
1010
0010
0000
1000
0000
0001
0100
0001
,  // measure 75
0000
0100
0000
0001
0000
0010
1000
0010
,  // measure 76
0001
0010
0000
0100
0000
1000
0000
0001
,  // measure 77
0100
0001
0000
0010
0000
0001
0100
0010
,  // measure 78
0100
0001
0000
1000
0000
0010
1000
0010
,  // measure 79
0000
0100
0000
0001
0000
0100
1000
0100
,  // measure 80
0010
0100
0000
0001
0000
1000
0000
0010
,  // measure 81
1000
0000
0001
0000
1000
0001
1000
0000
,  // measure 82
1001
0000
0001
0000
0010
0000
1000
0100
,  // measure 83
0001
0000
0100
0000
0010
0000
0100
0001
,  // measure 84
0100
0000
0001
0000
0010
0000
0100
1000
,  // measure 85
0100
0000
0010
0000
0001
0000
0100
0001
,  // measure 86
1000
0000
0001
0000
0010
0000
0100
0010
,  // measure 87
0100
0000
1000
0000
0001
0000
0100
0010
,  // measure 88
1000
0000
0001
0000
0100
0000
0001
0010
,  // measure 89
0100
0000
0010
0000
0100
0000
0010
0010
,  // measure 90
0120
0000
0130
0000
0200
0000
1300
0100
,  // measure 91
1000
0000
0010
0000
1000
0000
0001
0001
,  // measure 92
0002
0000
1003
0000
2000
0000
3010
1000
,  // measure 93
0010
0100
0001
1000
,  // measure 94
2000
0000
3001
0000
0002
0000
0103
0001
,  // measure 95
0100
0000
0001
0000
1000
0000
0001
1000
,  // measure 96
0002
0000
0013
0000
0020
0000
0130
0010
,  // measure 97
1000
0000
0001
0000
1000
0010
1000
0000
,  // measure 98
2010
0000
3010
0000
1020
0000
1030
0010
,  // measure 99
1000
0001
0100
0001
,  // measure 100
0002
0000
1003
0000
2000
0000
3010
1000
,  // measure 101
0001
0100
0001
0010
,  // measure 102
0002
0000
1003
0000
2000
0000
3100
1000
,  // measure 103
0001
0000
0100
0000
0010
0000
1000
1000
,  // measure 104
2000
0000
3010
0000
0020
0000
0130
0010
,  // measure 105
0100
0001
1000
0200
,  // measure 106
1300
0000
0000
1000
0000
0000
1000
0000
0001
0000
0000
0001
0000
0000
0001
0000
,  // measure 107
0010
0000
0000
0010
0000
0000
0010
0000
0100
0000
0010
0000
0100
0000
1000
0000
,  // measure 108
0100
0000
0000
0000
;
