#VERSION:0.83;
#TITLE:Santa's Comin' Down the Chimney;
#SUBTITLE:;
#ARTIST:Confidence Man;
#TITLETRANSLIT:;
#SUBTITLETRANSLIT:;
#ARTISTTRANSLIT:;
#GENRE:House;
#ORIGIN:;
#CREDIT:;
#BANNER:Santa's Comin' Down The Chimney-bn.png;
#BACKGROUND:Santa's Comin' Down The Chimney-bg.png;
#PREVIEWVID:;
#JACKET:Santa's Comin' Down The Chimney-jacket.png;
#CDIMAGE:;
#DISCIMAGE:;
#LYRICSPATH:;
#CDTITLE:cdtitle.png;
#MUSIC:Santa's Comin' Down The Chimney.ogg;
#OFFSET:-0.007000;
#SAMPLESTART:24.007000;
#SAMPLELENGTH:16.000000;
#SELECTABLE:YES;
#BPMS:0.000=120.000;
#STOPS:;
#DELAYS:;
#WARPS:;
#TIMESIGNATURES:0.000=4=4;
#TICKCOUNTS:0.000=4;
#COMBOS:0.000=1;
#SPEEDS:0.000=1.000=0.000=0;
#SCROLLS:0.000=1.000;
#FAKES:;
#LABELS:0.000=Song Start;
#BGCHANGES:-0.100=Santa's Comin' Down The Chimney.avi=1.000=1=0=0=StretchNoLoop==CrossFade==,
99999=-nosongbg-=1.000=0=0=0 // don't automatically add -songbackground-
;
#KEYSOUNDS:;
#ATTACKS:
;

//---------------dance-single - ----------------
#NOTEDATA:;
#CHARTNAME:X-Scale 14;
#STEPSTYPE:dance-single;
#DESCRIPTION:;
#CHARTSTYLE:;
#DIFFICULTY:Hard;
#METER:9;
#RADARVALUES:0.549627,0.614448,0.217420,0.160702,0.534097,407.000000,384.000000,23.000000,17.000000,0.000000,0.000000,0.000000,0.000000,0.000000,0.549627,0.614448,0.217420,0.160702,0.534097,407.000000,384.000000,23.000000,17.000000,0.000000,0.000000,0.000000,0.000000,0.000000;
#CREDIT:iamthek3n;
#NOTES:
// measure 0
0000
0000
0000
0000
,  // measure 1
0000
0000
0000
0000
,  // measure 2
0000
0000
0000
0000
,  // measure 3
0000
0000
0000
0000
,  // measure 4
1001
0000
0000
0000
1000
0000
0100
0000
0000
0100
0010
0100
1000
0100
0010
0000
,  // measure 5
0001
0000
0000
0000
0100
0000
0010
0000
0000
0010
1000
0001
1000
0010
1000
0000
,  // measure 6
0100
0000
0000
0000
1000
0000
0001
0000
0000
0001
0100
0010
0100
0001
0100
0000
,  // measure 7
0101
1010
1100
0011
,  // measure 8
0001
1000
0001
1000
0001
1000
0001
0000
0020
0000
0000
0000
0130
0000
0000
0000
,  // measure 9
1000
0100
1000
0100
1000
0100
1000
0000
0002
0000
0003
0002
0000
0003
0002
0000
,  // measure 10
0103
0001
0100
0001
0100
0001
0100
0000
0020
0000
0000
0000
1030
0000
0000
0000
,  // measure 11
0001
1000
0001
1000
0001
1000
0001
0000
0020
0000
0030
0020
0100
0000
0030
0000
,  // measure 12
0101
0001
1000
0010
0100
0001
0020
0000
,  // measure 13
1030
0010
0001
0100
0010
1000
0002
0000
,  // measure 14
0013
1000
0010
0100
1000
0010
0001
1000
,  // measure 15
0100
0000
0001
0000
1000
0000
0010
0000
1000
0000
0100
1000
0000
0000
1000
0000
,  // measure 16
1100
0011
0101
1010
,  // measure 17
1001
1000
0010
1000
0001
0010
0001
1000
,  // measure 18
0200
0000
0301
0100
2000
0000
3001
1000
,  // measure 19
0010
0100
0001
0010
0100
0010
0001
1000
,  // measure 20
1001
0000
0000
1000
0000
0000
1000
0000
0000
1000
0000
0000
1000
0000
0010
0000
,  // measure 21
1000
0000
0000
0100
0000
0000
0010
0000
0010
0000
0000
0001
0000
0000
1000
0000
,  // measure 22
1000
0000
0000
0001
0000
0000
1000
0000
1000
0000
0000
0010
0000
0000
0100
0000
,  // measure 23
0100
0000
0000
0001
0000
0000
1000
0000
1000
0000
0000
0010
0000
0000
1000
0000
,  // measure 24
0200
0000
0000
1000
0000
0000
0010
0000
0310
0000
0000
0100
0000
0000
1000
0000
,  // measure 25
0002
0000
0000
0010
0000
0000
1000
0000
1003
0000
0000
0100
0000
0000
1000
0000
,  // measure 26
0020
0000
0000
0001
0000
0000
0100
0000
0130
0000
0000
0010
0000
0000
1000
0000
,  // measure 27
1010
0000
0000
0110
0000
0000
0101
0000
0000
0000
0000
0000
0000
0000
0000
0000
,  // measure 28
1001
0000
1000
0000
0010
0000
1000
0000
0100
0010
0000
0100
0000
0000
1000
0100
,  // measure 29
1000
0000
0001
0000
0100
0000
0001
0000
0010
0001
0000
1000
0000
0000
0010
1000
,  // measure 30
0010
0000
0100
0000
0010
0000
1000
0000
0001
0010
0000
0001
0000
0000
0100
0010
,  // measure 31
0100
0000
0001
0000
0010
0000
0100
0000
1000
0100
0000
1000
0000
0000
0001
0100
,  // measure 32
0001
0000
1000
0000
0010
0000
1000
0000
0001
0010
0000
0001
0000
0000
0100
0010
,  // measure 33
0100
0000
0001
0000
0010
0000
0001
0000
1000
0100
0000
1000
0000
0000
0001
1000
,  // measure 34
0001
0000
0100
0000
0010
0000
0100
0000
0001
1000
0000
0100
0000
0000
1000
0100
,  // measure 35
1100
0000
0000
0000
1001
0000
0000
0000
0011
0000
0001
0000
1000
0100
0010
0000
,  // measure 36
0001
1000
0000
1000
0000
0100
1000
0000
0000
0001
0000
0100
0010
0000
1000
0100
,  // measure 37
0000
0100
0000
1000
0001
0000
0100
0000
0001
0010
0001
0010
0000
0000
0100
0000
,  // measure 38
1000
0000
0000
0010
1000
0000
0010
0000
0001
0000
0010
0000
0100
0000
0001
0000
,  // measure 39
1000
0000
0100
0000
0001
0000
0100
0000
1000
0000
0001
0000
0100
0001
0100
0000
,  // measure 40
0001
0010
0000
0010
0000
0001
1000
0000
0000
0010
0000
0100
0010
0000
1000
0001
,  // measure 41
0000
0001
0000
0100
0001
0000
1000
0000
0001
0010
0001
0010
0000
0000
0100
0000
,  // measure 42
1000
0000
0000
0010
1000
0000
0010
0000
0001
0000
0010
0000
0100
0000
0001
0000
,  // measure 43
0101
0100
0110
0010
1001
0001
0101
0100
,  // measure 44
0001
1000
0010
0100
0001
1000
0100
0000
1000
0000
0000
0100
1000
0000
0001
0000
,  // measure 45
0010
0001
1000
0010
0100
0001
1000
0000
0001
0100
0000
0010
1000
0000
0001
0000
,  // measure 46
1000
0001
0100
0010
1000
0100
0010
0000
0100
0000
0000
1000
0100
0000
1000
0000
,  // measure 47
0001
1000
0010
0100
0010
1000
0001
0000
0010
0001
0000
0010
0100
0000
1000
0000
,  // measure 48
0010
0000
0000
1000
0000
0000
0001
0000
0100
0001
0000
1000
0000
0000
0010
0000
,  // measure 49
1000
0000
0000
0100
0000
0000
1000
0000
0001
0010
0000
0100
0000
0000
0010
0000
,  // measure 50
0001
0000
0000
0100
0000
0000
0001
0000
0010
0100
0000
1000
0000
0000
0010
0000
,  // measure 51
1000
0000
0000
0001
0000
0000
0010
0000
0200
0000
0300
0200
0000
0300
0200
0000
,  // measure 52
0300
0000
0000
0000
;

//---------------dance-single - ----------------
#NOTEDATA:;
#CHARTNAME:X-Scale 9;
#STEPSTYPE:dance-single;
#DESCRIPTION:;
#CHARTSTYLE:;
#DIFFICULTY:Medium;
#METER:6;
#RADARVALUES:0.392977,0.465858,0.160702,0.066171,0.132343,291.000000,274.000000,17.000000,7.000000,0.000000,0.000000,0.000000,0.000000,0.000000,0.392977,0.465858,0.160702,0.066171,0.132343,291.000000,274.000000,17.000000,7.000000,0.000000,0.000000,0.000000,0.000000,0.000000;
#CREDIT:iamthek3n;
#NOTES:
// measure 0
0000
0000
0000
0000
,  // measure 1
0000
0000
0000
0000
,  // measure 2
0000
0000
0000
0000
,  // measure 3
0000
0000
0000
0000
,  // measure 4
1000
0000
0001
1000
0001
0000
0010
0000
,  // measure 5
0100
0000
1000
0010
1000
0000
0001
0000
,  // measure 6
0100
0000
0010
0100
0010
0000
1000
0000
,  // measure 7
1010
0011
1010
0011
,  // measure 8
2001
0010
3002
0013
,  // measure 9
0200
0000
0000
0000
0001
0000
0000
0000
1300
0000
0000
1000
0000
0000
1000
0000
,  // measure 10
0020
0001
0230
0301
,  // measure 11
0002
0000
0000
0000
0010
0000
0000
0000
1003
0000
0000
1000
0000
0000
0000
0000
,  // measure 12
0001
0000
1000
0000
0001
0000
0000
0000
0100
0000
0000
0100
0010
0000
0100
0000
,  // measure 13
0001
0000
1000
0000
0001
0000
0000
0000
0010
0000
0000
0010
0100
0000
1000
0000
,  // measure 14
0010
0000
1000
0000
0001
0000
0000
0000
0010
0000
0000
0010
0001
0000
1000
0000
,  // measure 15
0100
0000
1000
0000
0001
0000
0000
0000
0100
0000
0000
0100
0010
0000
0100
0000
,  // measure 16
0210
0000
0301
0000
1000
0100
1100
0000
,  // measure 17
1000
0000
0010
0000
1000
0000
0000
0000
0001
0000
0000
0001
0010
0000
0001
0000
,  // measure 18
0100
0000
0010
0000
0100
0000
0000
0000
0001
0000
0000
0001
1000
0000
0100
0000
,  // measure 19
0010
0000
0100
0000
1000
0000
0000
0000
0010
0000
0000
0010
1000
0000
0001
0000
,  // measure 20
1000
0000
0010
1000
0001
0000
0100
0000
,  // measure 21
0001
0000
0010
0100
1000
0000
0001
0000
,  // measure 22
0100
0000
0001
0010
0100
0000
0010
0000
,  // measure 23
0001
0000
1000
0100
0010
0000
0100
0000
,  // measure 24
1000
0010
0100
0001
0010
0100
0001
0100
,  // measure 25
1000
0010
0001
0010
0100
0010
1000
0001
,  // measure 26
0010
1000
0010
0100
1000
0001
0100
0010
,  // measure 27
0110
0000
0000
1010
0000
0000
1001
0000
0000
0000
0000
0000
0000
0000
0000
0000
,  // measure 28
0001
0000
0010
0000
1000
0000
0010
0000
0001
0000
0000
0100
0000
0000
0001
0000
,  // measure 29
1000
0000
0010
0000
0001
0000
0010
0000
1000
0000
0000
0100
0000
0000
1000
0000
,  // measure 30
0001
0000
0100
0000
0010
0000
0100
0000
0001
0000
0000
1000
0000
0000
0010
0000
,  // measure 31
0100
0000
0001
0000
1000
0000
0010
0000
0100
0000
0000
0001
0000
0000
1000
0000
,  // measure 32
0100
0000
0001
0000
0100
0000
0010
0000
0001
0000
0000
1000
0000
0000
0001
0000
,  // measure 33
0010
0000
1000
0000
0010
0000
0100
0000
1000
0000
0000
0010
0000
0000
1000
0000
,  // measure 34
0001
0000
0100
0000
0010
0000
0100
0000
0001
0000
0000
0010
0000
0000
0100
0000
,  // measure 35
1100
0101
1100
0000
,  // measure 36
1001
0000
0000
1000
0000
0000
0100
0000
1000
0001
0000
0010
0000
0000
0001
0000
,  // measure 37
0100
0000
0000
0010
0000
0000
0100
0000
0001
0010
0000
0001
0000
0000
1000
0000
,  // measure 38
0010
0000
1000
0001
0100
0000
0010
0100
,  // measure 39
0001
0000
1000
0000
0100
0000
0000
0000
1000
0000
0100
0000
0010
0100
1000
0000
,  // measure 40
0001
0000
0000
0000
1000
0000
0000
0000
0100
0000
0000
1000
0000
0000
0001
0000
,  // measure 41
0100
0000
0000
0000
0001
0000
0000
0000
0010
0000
0000
0100
0000
0000
1000
0000
,  // measure 42
0010
0000
1000
0001
0100
0000
0010
0100
,  // measure 43
0001
1000
0100
0000
1000
0000
0100
0000
,  // measure 44
0010
0000
0100
1000
0001
0000
0100
0000
,  // measure 45
0001
0000
0000
0000
0010
0000
0100
0000
1000
0000
0000
1000
0000
0000
1000
0000
,  // measure 46
0001
0000
0100
0010
1000
0000
0001
0000
,  // measure 47
0100
0000
0001
0000
1000
0100
0001
0100
,  // measure 48
1000
0001
1000
0001
,  // measure 49
0100
0010
0100
0010
,  // measure 50
0000
0110
0000
1001
,  // measure 51
0000
0000
0000
0000
1010
0000
0000
0000
1000
0000
0000
1000
0000
0000
1000
0000
;

//---------------dance-single - ----------------
#NOTEDATA:;
#CHARTNAME:X-Scale 5;
#STEPSTYPE:dance-single;
#DESCRIPTION:;
#CHARTSTYLE:;
#DIFFICULTY:Easy;
#METER:3;
#RADARVALUES:0.213369,0.290681,0.028359,0.141796,0.000000,158.000000,155.000000,3.000000,15.000000,0.000000,0.000000,0.000000,0.000000,0.000000,0.213369,0.290681,0.028359,0.141796,0.000000,158.000000,155.000000,3.000000,15.000000,0.000000,0.000000,0.000000,0.000000,0.000000;
#CREDIT:iamthek3n;
#NOTES:
// measure 0
0000
0000
0000
0000
,  // measure 1
0000
0000
0000
0000
,  // measure 2
0000
0000
0000
0000
,  // measure 3
0000
0000
0000
0000
,  // measure 4
1000
0000
0000
1000
0000
0000
1000
0000
,  // measure 5
0001
0000
0000
0001
0000
0000
0001
0000
,  // measure 6
0100
0000
0000
0100
0000
0000
0100
0000
,  // measure 7
0010
1000
0001
1000
,  // measure 8
0010
0000
0000
0010
0000
0000
0010
0000
,  // measure 9
1000
0000
0000
1000
0000
0000
1000
0000
,  // measure 10
0100
0000
0000
0100
0000
0000
0100
0000
,  // measure 11
0010
0000
0000
0010
0000
0000
0010
0000
,  // measure 12
0011
0000
0001
0000
1000
0010
2000
0000
,  // measure 13
3001
0000
0100
0000
0001
0010
0002
0000
,  // measure 14
0103
0000
0001
0000
1000
0100
1000
0000
,  // measure 15
0010
1000
0001
0010
,  // measure 16
0100
0100
0100
0100
,  // measure 17
0100
1000
0000
0000
1000
0000
0010
1000
,  // measure 18
0010
0000
0100
0001
0100
0000
0001
0010
,  // measure 19
0001
0000
1000
0000
0010
0000
1000
0010
,  // measure 20
1000
0001
0000
0001
,  // measure 21
0000
0010
0000
0010
,  // measure 22
0000
0100
0000
0100
,  // measure 23
0000
1000
0000
1000
,  // measure 24
2000
0000
0010
0000
,  // measure 25
3002
0000
0010
0000
,  // measure 26
2003
0000
0010
0000
,  // measure 27
3100
0000
1000
0000
,  // measure 28
1001
1000
0001
1000
,  // measure 29
0100
1000
0001
0100
,  // measure 30
0001
0010
0100
0010
,  // measure 31
0001
1000
0010
1000
,  // measure 32
0001
0010
0001
1000
,  // measure 33
0100
0010
0100
1000
,  // measure 34
0001
0010
0100
0010
,  // measure 35
0001
1000
0001
0000
,  // measure 36
2001
0010
0000
0010
,  // measure 37
0000
0100
0000
0100
,  // measure 38
3000
1000
0001
1000
,  // measure 39
0001
0010
0100
0010
,  // measure 40
0200
1000
0000
1000
,  // measure 41
0000
0010
0000
0010
,  // measure 42
0300
0100
1000
0001
,  // measure 43
1000
0010
1000
0010
,  // measure 44
0200
0000
0302
0013
,  // measure 45
0002
0000
2003
3001
,  // measure 46
2000
0000
3020
1030
,  // measure 47
0200
0000
0320
0130
,  // measure 48
0000
0010
0000
0001
,  // measure 49
0000
1000
0000
0001
,  // measure 50
0000
0010
0000
0001
,  // measure 51
0000
1000
0000
0000
;

//---------------dance-single - ----------------
#NOTEDATA:;
#CHARTNAME:X-Scale 2;
#STEPSTYPE:dance-single;
#DESCRIPTION:;
#CHARTSTYLE:;
#DIFFICULTY:Beginner;
#METER:2;
#RADARVALUES:0.122890,0.169564,0.009453,0.000000,0.000000,91.000000,90.000000,1.000000,0.000000,0.000000,0.000000,0.000000,0.000000,0.000000,0.122890,0.169564,0.009453,0.000000,0.000000,91.000000,90.000000,1.000000,0.000000,0.000000,0.000000,0.000000,0.000000,0.000000;
#CREDIT:iamthek3n;
#NOTES:
// measure 0
0000
0000
0000
0000
,  // measure 1
0000
0000
0000
0000
,  // measure 2
0000
0000
0000
0000
,  // measure 3
0000
0000
0000
0000
,  // measure 4
0000
1000
0000
0001
,  // measure 5
0000
1000
0000
0001
,  // measure 6
0000
0010
0000
0100
,  // measure 7
0000
0010
0000
0100
,  // measure 8
0000
1000
0000
0010
,  // measure 9
0000
1000
0000
0010
,  // measure 10
0000
0100
0000
0001
,  // measure 11
0000
0100
0000
0001
,  // measure 12
0000
0010
0000
0100
,  // measure 13
0000
0010
0000
0001
,  // measure 14
0000
1000
0000
0010
,  // measure 15
0000
0100
0000
0010
,  // measure 16
0000
1000
0000
0001
,  // measure 17
0000
0100
0000
0001
,  // measure 18
0000
1000
0000
0100
,  // measure 19
0000
0010
0000
0001
,  // measure 20
0001
0000
0000
0000
,  // measure 21
0010
0000
0000
0000
,  // measure 22
0100
0000
0000
0000
,  // measure 23
1000
0000
0000
0000
,  // measure 24
0010
0000
0000
0000
,  // measure 25
0100
0000
0000
0000
,  // measure 26
0001
0000
0000
0000
,  // measure 27
1000
0000
0000
0000
,  // measure 28
0001
0000
1000
0000
,  // measure 29
0001
0000
0010
0000
,  // measure 30
0001
0000
1000
0000
,  // measure 31
0010
0000
0100
0000
,  // measure 32
0010
0000
1000
0000
,  // measure 33
0001
0000
0100
0000
,  // measure 34
0001
0000
0010
0000
,  // measure 35
0100
0100
0100
0000
,  // measure 36
1001
0000
1000
0000
,  // measure 37
0010
0000
1000
0000
,  // measure 38
0001
0000
0100
0000
,  // measure 39
0001
1000
0001
0000
,  // measure 40
0100
0000
0010
0000
,  // measure 41
1000
0000
0010
0000
,  // measure 42
0100
0000
0001
0000
,  // measure 43
1000
0001
1000
0000
,  // measure 44
0000
0001
0000
0010
,  // measure 45
0000
0001
0000
1000
,  // measure 46
0000
0001
0000
0010
,  // measure 47
0000
0100
0000
1000
,  // measure 48
0000
0010
0000
0100
,  // measure 49
0000
0010
0000
1000
,  // measure 50
0000
0010
0000
0100
,  // measure 51
0000
0010
0000
0000
;
