#TITLE:Sand;
#SUBTITLE:;
#ARTIST:Molly Sandén;
#TITLETRANSLIT:;
#SUBTITLETRANSLIT:;
#ARTISTTRANSLIT:;
#GENRE:Ballad;
#CREDIT:;
#BANNER:Sand-bn.png;
#BACKGROUND:Sand-bg.png;
#LYRICSPATH:;
#CDTITLE:cdtitle.png;
#MUSIC:Sand.ogg;
#OFFSET:-0.006000;
#SAMPLESTART:41.653000;
#SAMPLELENGTH:16.690001;
#SELECTABLE:YES;
#BPMS:0.000000=57.500000
;
#STOPS:
;
#BGCHANGES:0.000=Sand.avi=1.000=1=0=0=StretchNoLoop==CrossFade==,
99999=-nosongbg-=1.000=0=0=0 // don't automatically add -songbackground-
;
#KEYSOUNDS:;
#ATTACKS:;

//---------------dance-single - ----------------
#NOTES:
     dance-single:
     X-Scale 10:
     Hard:
     7:
     0.363060,0.363724,0.017710,0.256799,0.549018,287.000000,285.000000,2.000000,29.000000,0.000000,0.000000,0.363060,0.363724,0.017710,0.256799,0.549018,287.000000,285.000000,2.000000,29.000000,0.000000,0.000000:
// measure 0
0000
0000
0000
0000
,  // measure 1
0000
0000
0000
0000
,  // measure 2
1000
0100
0010
0001
1000
0001
0100
0010
2000
0000
3000
0000
0000
0000
0000
0000
,  // measure 3
0001
0010
1000
0010
0100
1000
0001
0100
0020
0000
0030
0000
0000
0000
0000
0000
,  // measure 4
1000
0100
0010
0001
1000
0010
0100
0002
0000
2003
0000
3000
0000
0000
0000
0000
,  // measure 5
0001
0010
1000
0001
0100
1000
0001
0100
0020
0000
0030
0000
0000
0000
0000
0000
,  // measure 6
1000
0000
0100
0000
1000
0000
0001
0000
0100
0000
0010
0000
0001
0000
0010
0000
2000
0000
0000
3000
0002
0000
0000
0003
1000
0000
0000
0000
0100
0000
0000
0000
,  // measure 7
0010
0000
0001
0000
1000
0000
0001
0000
0010
0000
0000
0001
1000
0000
0001
0000
0020
0000
0030
0000
0010
0000
0100
0000
1000
0000
0000
0000
0001
0000
0000
0000
,  // measure 8
1000
0000
0010
0000
0100
0000
1000
0000
0100
0000
0001
0000
1000
0000
0001
0000
0020
0000
0000
0030
0200
0000
0000
0300
0010
0000
0000
0000
0001
0000
1000
0000
,  // measure 9
0010
0000
0000
1000
0010
0000
1000
0000
0001
0000
0000
0000
0000
0000
0010
0000
0100
0000
0000
1000
0100
0000
0000
2000
0000
0000
3000
0000
0000
0000
0000
0000
,  // measure 10
1001
1000
0001
1000
0100
0010
0001
0000
2000
0000
3010
1000
0001
0000
1000
0100
,  // measure 11
0010
0001
1000
0001
0100
0010
1000
0000
0010
0000
0100
0010
1000
0000
0001
0010
,  // measure 12
0100
0010
0001
1000
0001
1000
0100
0000
1000
0000
0001
0010
0100
0000
0010
0100
,  // measure 13
1000
0000
0001
0000
1000
0000
0010
0000
0100
0000
0000
0000
0001
0000
0000
0000
1000
0000
0000
0100
1000
0000
0000
0000
0001
0000
0000
0000
0010
0000
0001
0000
,  // measure 14
1000
0001
0100
0010
0001
0010
1000
0000
0002
0000
0013
0001
1000
0000
0001
0010
,  // measure 15
0100
1000
0001
1000
0010
0001
0010
0100
0001
0000
1000
0100
0010
0000
0100
0010
,  // measure 16
0001
1000
0001
0100
0010
0100
0001
0000
2000
0000
3010
1000
0001
0000
1000
0100
,  // measure 17
0010
0001
1000
0001
0100
0000
0000
0000
0001
0010
0100
1000
0002
0000
0003
0000
,  // measure 18
1000
0000
0000
0000
0100
0000
1000
0000
0000
0000
0001
0000
1000
0000
0001
0000
0010
0000
0000
0100
0010
0000
0000
0002
0000
0000
0000
0003
0000
0000
0000
0000
,  // measure 19
1000
0000
0000
0000
0100
0000
0010
0000
0000
0000
0001
0000
1000
0000
0010
0000
0100
0000
0000
0001
0100
0000
0001
0000
1000
0000
0000
0100
0010
0000
0002
0000
,  // measure 20
2000
0000
0003
0000
3100
0000
1000
0000
0000
0000
0001
0000
1000
0000
0100
0000
0010
0000
0001
0010
0000
0000
0001
0000
1000
0000
0100
0000
1000
0000
0001
0000
,  // measure 21
0010
0000
0100
0000
1000
0000
0001
0000
1000
0000
0010
0000
0100
0000
0000
0002
0000
0000
0003
0000
1000
0000
0002
0000
0000
0000
2003
0000
3000
0000
0000
0000
,  // measure 22
0000
0000
0010
0200
0000
0320
2030
3000
1010
0010
0001
0010
0100
0001
1000
0001
,  // measure 23
0100
0000
0000
0000
0010
0000
0100
0000
0001
0000
0000
0000
1000
0000
0100
0000
0010
0000
0001
0000
1000
0000
0001
0000
0100
0000
0000
0010
1000
0000
0000
0020
,  // measure 24
0100
0000
0000
0000
1000
0000
0000
0030
0100
0000
0010
0000
1000
0000
0001
0000
0010
0000
0000
0100
0010
0000
0001
0000
1000
0000
0100
0000
0010
0000
0000
0000
,  // measure 25
0002
0000
0000
0000
0000
0000
0003
0010
0001
1000
0001
0010
0200
0000
0300
0000
,  // measure 26
1000
0000
0000
0001
1000
0000
0200
0000
0300
2000
0000
0000
0000
0000
0000
0000
3000
0000
0000
0000
0000
0000
0000
0000
0000
0000
0000
0000
0000
0000
0000
0000
;

//---------------dance-single - ----------------
#NOTES:
     dance-single:
     X-Scale 7:
     Medium:
     5:
     0.271979,0.269860,0.035420,0.345350,0.305502,215.000000,211.000000,4.000000,39.000000,0.000000,0.000000,0.271979,0.269860,0.035420,0.345350,0.305502,215.000000,211.000000,4.000000,39.000000,0.000000,0.000000:
// measure 0
0000
0000
0000
0000
,  // measure 1
0000
0000
0000
0000
,  // measure 2
2000
0000
0000
0000
0100
0000
0000
3000
0002
0000
0000
0000
0100
0000
0000
0003
2000
0000
0000
0000
0000
0000
0000
0000
0000
0000
0000
0000
0000
0000
0000
3000
,  // measure 3
0020
0000
0000
0000
0100
0000
0000
0030
2000
0000
0000
0000
0100
0000
0000
3000
0002
0000
0000
0000
0000
0000
0000
0000
0000
0000
0000
0000
0000
0000
0000
0003
,  // measure 4
0200
0000
0000
0000
0010
0000
0000
0300
0002
0000
0000
0000
0010
0000
0000
0003
2000
0000
0000
0000
0000
0000
0000
0000
0000
0000
0000
0000
0000
0000
0000
3000
,  // measure 5
0200
0000
0000
0000
0010
0000
0000
0300
2000
0000
0000
0000
0010
0000
0000
3000
0002
0000
0000
0000
0000
0000
0000
0000
0000
0000
0000
0000
0000
0000
0000
0003
,  // measure 6
2000
0000
0000
0000
0100
0000
0000
3000
0002
0000
0000
0000
0100
0000
0000
0003
2000
0000
0000
0000
3200
0000
0000
0000
0310
0000
0001
0000
1000
0000
0001
0000
,  // measure 7
0020
0000
0000
0000
0100
0000
0000
0030
0002
0000
0000
0000
0100
0000
0000
0003
0020
0000
0000
0000
0030
0000
0000
0000
0100
0000
1000
0000
0001
0000
1000
0000
,  // measure 8
0200
0000
0000
0000
0010
0000
0000
0300
2000
0000
0000
0000
0010
0000
0000
3000
0002
0000
0000
0000
0023
0000
0000
0000
0031
0000
0100
0000
0010
0000
0100
0000
,  // measure 9
0001
0000
0000
1000
0000
0000
0001
0000
0010
0000
0000
0000
0000
0000
0100
0000
1000
0000
0000
0001
0000
0000
1000
0000
0000
0000
0000
0000
0000
0000
0000
0000
,  // measure 10
1100
0000
0000
0000
1000
0000
0100
0000
0010
0000
0000
0000
0001
0000
0000
0020
0000
0000
0000
0000
0030
0000
0001
0000
0010
0000
0100
0000
1000
0000
0000
0000
,  // measure 11
0001
0000
0000
0000
0100
0000
0010
0000
1000
0000
0000
0000
0001
0000
0000
0020
0000
0000
0000
0000
0030
0000
0001
0000
0010
0000
0100
0000
1000
0000
0000
0000
,  // measure 12
0010
0000
0000
0000
1000
0000
0100
0000
0010
0000
0000
0000
0001
0000
0000
0200
0000
0000
0000
0000
0300
0000
0001
0000
0010
0000
0100
0000
1000
0000
0000
0000
,  // measure 13
0001
0000
0100
0000
0010
0000
0100
0000
0002
0000
0000
0000
0000
0000
0000
0000
1003
0000
0000
0100
2000
0000
0000
3000
0002
0000
0000
0000
0003
0000
0000
0000
,  // measure 14
1001
0000
0000
0000
1000
0000
0001
0000
0100
0000
0000
0000
0010
0000
0000
0200
0000
0000
0000
0000
0300
0000
0001
0000
0100
0000
0010
0000
1000
0000
0000
0000
,  // measure 15
0001
0000
1000
0100
0010
0000
0001
0200
0000
0000
0300
0001
0100
0010
1000
0000
,  // measure 16
0100
0000
0000
0000
1000
0000
0001
0000
0100
0000
0000
0000
0010
0000
0000
2000
0000
0000
0000
0000
3000
0000
0001
0000
0100
0000
0010
0000
1000
0000
0000
0000
,  // measure 17
0001
0010
1000
0010
0002
0000
0003
0000
1000
0100
0010
0001
2000
0000
3000
0000
,  // measure 18
1100
0000
0000
0000
0100
0000
1000
0000
0000
0000
0100
0000
1000
0000
0000
0000
0001
0000
0000
0000
0010
0000
0000
0002
0000
0000
0000
0000
0003
0000
0000
0000
,  // measure 19
1000
0000
0100
0010
0000
0100
0010
0000
0001
0000
1000
0000
0010
0000
1000
0000
,  // measure 20
0001
0000
0100
0010
0000
0100
0010
0000
0100
0000
0001
0000
1000
0000
0001
0000
,  // measure 21
0010
0000
0100
0000
1000
0000
0001
0000
0100
0000
0010
0100
0000
0010
0000
0000
,  // measure 22
0000
0000
0000
0000
0010
0000
0100
0000
0000
0000
0010
0000
0100
0000
0000
0000
0110
0000
0000
0000
0001
0000
0100
0000
0010
0000
0000
0000
1000
0000
0000
0200
,  // measure 23
0000
0000
0000
0000
0300
0000
0001
0000
0100
0000
1000
0000
0100
0000
1000
0000
0001
0000
0000
0000
0100
0000
0010
0000
1000
0000
0000
0000
0001
0000
0000
0020
,  // measure 24
0000
0000
0000
0000
0000
0000
0000
0000
0031
0000
0010
0000
0100
0000
0010
0000
0001
0000
0000
0000
0100
0000
0000
0000
0010
0000
0000
0000
1000
0000
0000
2000
,  // measure 25
0000
0000
0000
3000
0000
0000
0000
0001
0010
0100
1000
0001
1000
0000
0000
0000
,  // measure 26
0010
0000
0000
0100
0010
0000
0100
0000
0000
0002
0000
0000
0000
0000
0000
0000
0003
0000
0000
0000
0000
0000
0000
0000
0000
0000
0000
0000
0000
0000
0000
0000
;

//---------------dance-single - ----------------
#NOTES:
     dance-single:
     X-Scale 2:
     Easy:
     2:
     0.134092,0.164263,0.017710,0.309929,0.000000,106.000000,104.000000,2.000000,35.000000,0.000000,0.000000,0.134092,0.164263,0.017710,0.309929,0.000000,106.000000,104.000000,2.000000,35.000000,0.000000,0.000000:
// measure 0
0000
0000
0000
0000
,  // measure 1
0000
0000
0000
0000
,  // measure 2
0001
1000
0001
0000
,  // measure 3
0100
0010
0100
0000
,  // measure 4
0001
1000
0001
0000
,  // measure 5
0100
0010
0100
0000
,  // measure 6
1000
0000
0100
0000
2000
3002
0003
0000
,  // measure 7
0010
0100
0010
0000
,  // measure 8
1000
0000
0010
0000
2000
3002
0003
0000
,  // measure 9
0100
0010
2000
0000
,  // measure 10
3001
0010
0100
0010
0002
0000
1000
0000
,  // measure 11
0013
0001
1000
0001
0200
0000
1000
0000
,  // measure 12
0301
0010
0100
0010
0002
0000
1000
0000
,  // measure 13
0103
0001
2000
3000
0010
0100
0002
0003
,  // measure 14
1000
0100
0010
0100
2000
0000
0001
0000
,  // measure 15
3100
1000
0001
1000
0020
0000
0001
0000
,  // measure 16
0130
0010
1000
0010
0200
0000
1000
0000
,  // measure 17
0301
0100
0020
0030
1000
0100
0020
0030
,  // measure 18
0012
0000
0000
0003
2000
0000
0000
3000
0002
0000
0000
0000
0000
0000
0000
0000
,  // measure 19
0023
0000
0000
0030
0002
0000
0000
0003
2000
0000
0000
0000
0000
0000
0000
0000
,  // measure 20
3020
0000
0000
0030
0200
0000
0000
0300
0002
0000
0000
0000
0000
0000
0000
0000
,  // measure 21
2003
0000
0000
3000
0200
0000
0000
0300
0020
0000
0000
0000
0000
0000
0000
0000
,  // measure 22
0030
0000
0000
0000
0011
0010
0001
1000
,  // measure 23
0200
0000
0001
0000
1300
0100
0010
0100
,  // measure 24
2000
0000
0000
0000
0001
0000
0000
0000
3020
0000
0000
0030
2000
0000
0000
3000
,  // measure 25
0002
0000
0000
0000
0000
0000
0000
0000
0203
0000
0000
0300
0020
0000
0000
0030
,  // measure 26
2000
0000
3000
0000
;

//---------------dance-single - ----------------
#NOTES:
     dance-single:
     X-Scale 1:
     Beginner:
     1:
     0.070841,0.079032,0.000000,0.000000,0.000000,56.000000,56.000000,0.000000,0.000000,0.000000,0.000000,0.070841,0.079032,0.000000,0.000000,0.000000,56.000000,56.000000,0.000000,0.000000,0.000000,0.000000:
// measure 0
0000
0000
0000
0000
,  // measure 1
0000
0000
0000
0000
,  // measure 2
1000
0000
0100
0000
,  // measure 3
0010
0000
0001
0000
,  // measure 4
1000
0000
0010
0000
,  // measure 5
0100
0000
0001
0000
,  // measure 6
1000
0000
0100
0000
,  // measure 7
0010
0000
0001
0000
,  // measure 8
1000
0000
0010
0000
,  // measure 9
0100
0000
0001
0000
,  // measure 10
1000
0010
1000
0000
,  // measure 11
0001
0010
0001
0000
,  // measure 12
1000
0010
1000
0000
,  // measure 13
0001
0010
0001
0000
,  // measure 14
0100
0010
0100
0000
,  // measure 15
0001
0100
0001
0000
,  // measure 16
0100
0010
0100
0000
,  // measure 17
0001
0100
0001
0000
,  // measure 18
1000
0000
0100
0000
,  // measure 19
0010
0000
0001
0000
,  // measure 20
1000
0000
0010
0000
,  // measure 21
0100
0000
0001
0000
,  // measure 22
0000
0000
1000
0100
,  // measure 23
1000
0000
0001
0100
,  // measure 24
0001
0000
1000
0000
,  // measure 25
0000
0000
0001
0000
;
