#TITLE:Sanctuary;
#SUBTITLE:(William Black Remix);
#ARTIST:Gareth Emery ft. Lucy Saunders;
#TITLETRANSLIT:;
#SUBTITLETRANSLIT:;
#ARTISTTRANSLIT:;
#GENRE:Melodic Dubstep;
#CREDIT:;
#BANNER:sanctuary_wb-bn.png;
#BACKGROUND:sanctuary_wb-bg.png;
#LYRICSPATH:;
#CDTITLE:cdtitle.png;
#MUSIC:sanctuary - wb.ogg;
#OFFSET:-0.008000;
#SAMPLESTART:44.558998;
#SAMPLELENGTH:12.000000;
#SELECTABLE:YES;
#BPMS:0.000000=70.000000
,44.000000=140.000000
,56.000000=70.000000
,58.000000=140.000000
,122.000000=70.000000
;
#STOPS:
;
#BGCHANGES:;
#KEYSOUNDS:;
#ATTACKS:;

//---------------dance-single - ----------------
#NOTES:
     dance-single:
     X-Scale 11:
     Hard:
     8:
     0.440045,0.608458,0.126762,0.114086,0.297891,243.000000,233.000000,10.000000,9.000000,0.000000,0.000000,0.440045,0.608458,0.126762,0.114086,0.297891,243.000000,233.000000,10.000000,9.000000,0.000000,0.000000:
// measure 0
0000
0000
0000
0000
,  // measure 1
0101
0000
0000
0010
0001
0000
0001
1000
0000
0100
0000
0010
0000
0001
0000
0100
,  // measure 2
0001
0000
0000
0000
1000
0000
0001
1000
0010
0000
0010
0000
0010
0000
0000
0000
,  // measure 3
1010
0000
0000
1000
0010
0000
0010
0100
0000
0001
0000
0010
0001
0000
0100
0000
,  // measure 4
0100
0000
0010
0000
1000
0000
0000
1000
0100
0000
1000
0000
0010
0000
0000
0000
,  // measure 5
0110
0000
0000
0100
0001
0000
0100
0010
0000
1000
0000
0001
0000
0010
0000
0100
,  // measure 6
0010
0000
0001
0000
1000
0000
0001
1000
0001
0000
1000
0000
0100
0000
0000
0000
,  // measure 7
1100
0000
0000
1000
0001
0000
1000
0010
0000
0100
0000
1000
0000
0200
0000
0000
,  // measure 8
0010
0300
0020
0000
0100
0000
0000
0000
1030
0000
0010
0000
2000
0000
0000
0000
,  // measure 9
3001
0000
1000
0000
0001
0000
1000
0001
0000
0000
0000
0000
0100
0000
0010
0000
0100
0000
0000
0000
0001
0100
0001
0000
0100
0000
0000
0000
0010
0000
1000
0000
,  // measure 10
0001
0000
1000
0000
0010
0000
0100
0010
0000
0000
0000
0000
0010
0000
0001
0000
0010
0000
0000
0000
0100
0010
0100
0000
0001
0000
0000
0000
1000
0000
0010
0000
,  // measure 11
1010
0000
0000
0000
1000
0010
1000
0000
0001
0000
0100
0000
0001
0000
0100
0000
,  // measure 12
0001
0000
0000
0000
0001
0010
0001
0000
1000
0000
0010
0000
1000
0000
0010
0000
,  // measure 13
1000
0000
0100
0000
0010
0000
0001
0000
0010
0001
0010
0001
0100
0010
0100
0010
,  // measure 14
1000
0001
1000
0001
1000
0001
1000
0000
1001
0000
0000
0000
0001
0000
0010
0000
,  // measure 15
0100
0010
0001
0001
1000
0100
1000
0100
,  // measure 16
1000
1000
0010
0010
0100
0010
0100
0000
,  // measure 17
0010
1000
0010
0000
0010
1000
0001
0000
,  // measure 18
0100
0001
0100
0000
0101
0001
1000
0010
,  // measure 19
1000
0100
0010
0100
0010
0001
0010
0001
,  // measure 20
0001
0001
1000
1000
0010
1000
0001
0000
,  // measure 21
0100
0000
0100
0000
0200
0000
0010
0300
,  // measure 22
0002
0000
1000
0003
2001
0000
0100
3000
,  // measure 23
1000
0100
0001
0100
1000
0000
0001
1000
,  // measure 24
0010
0001
0010
0100
0010
1000
0001
0000
,  // measure 25
1000
0100
0010
0100
1000
0000
0001
0000
,  // measure 26
0100
0001
0010
0100
0110
0010
0001
0010
,  // measure 27
1000
0010
0001
0010
0100
1000
0100
1000
,  // measure 28
0100
1000
0001
0010
0200
1000
0010
0000
,  // measure 29
0310
0100
0010
0001
0010
0000
0000
0000
,  // measure 30
2001
0010
0100
0010
0002
0000
0000
0000
,  // measure 31
0000
0000
0000
0000
,  // measure 32
3003
0000
0000
0000
;

//---------------dance-single - ----------------
#NOTES:
     dance-single:
     X-Scale 8:
     Medium:
     6:
     0.383908,0.425920,0.215495,0.139438,0.196481,212.000000,195.000000,17.000000,11.000000,0.000000,0.000000,0.383908,0.425920,0.215495,0.139438,0.196481,212.000000,195.000000,17.000000,11.000000,0.000000,0.000000:
// measure 0
0000
0000
0000
0000
,  // measure 1
1001
0000
0000
0001
1000
0000
0001
1000
0000
0100
0000
0010
0000
0100
0000
1000
,  // measure 2
0001
0000
0000
0000
0001
0000
1000
0100
1000
0000
0010
0000
1000
0000
0000
0000
,  // measure 3
0100
0000
0000
0010
0100
0000
0010
0100
0000
1000
0000
0001
0000
0000
0200
0000
,  // measure 4
0301
0200
1000
0300
0001
0100
0001
0000
,  // measure 5
0101
0000
0000
0001
1000
0000
0100
1000
0000
0100
0000
0001
0000
0100
0000
1000
,  // measure 6
0001
0000
0000
0000
0001
0000
1000
0010
1000
0000
0100
0000
1000
0000
0000
0000
,  // measure 7
0100
0000
0000
0010
0100
0000
0010
0100
0000
0010
0000
0001
0000
0002
0000
0000
,  // measure 8
0010
0003
0020
0000
0100
0000
0000
0000
0031
0000
0010
0000
0002
0000
0000
0000
,  // measure 9
0013
0000
0001
0000
1000
0000
1000
0001
1000
0000
0100
0000
1000
0000
0001
1000
,  // measure 10
0001
0000
0010
0000
0001
0000
0100
0010
0100
0000
1000
0000
0100
0000
0010
0000
,  // measure 11
0110
0000
0010
0000
0010
0000
1000
0010
1000
0000
0000
0000
0100
0000
1000
0000
,  // measure 12
0100
0000
0010
0000
0001
0000
0010
0100
,  // measure 13
0010
0000
0010
0000
0010
0000
0001
0010
0001
0000
1000
0000
0010
0000
0100
0000
,  // measure 14
0001
1000
0001
1000
0001
1000
0001
0000
1001
0000
0000
0000
0001
0000
0010
0000
,  // measure 15
0100
0000
0010
0001
0011
0000
0011
0000
,  // measure 16
0001
0001
1000
1000
0001
1000
0001
0000
,  // measure 17
0110
0000
0110
0000
0100
0001
0100
0000
,  // measure 18
0101
0000
0101
0000
0001
0000
1000
0100
,  // measure 19
1000
0000
0010
0100
0110
0000
0110
0000
,  // measure 20
0010
0010
0100
0100
0001
0010
0001
0000
,  // measure 21
0011
0000
0011
0000
0002
0000
0000
0003
,  // measure 22
2000
0000
3000
0002
1000
0000
0000
0003
,  // measure 23
1000
0001
1000
0001
1000
0000
0001
0000
,  // measure 24
0010
0100
0010
0100
0010
0000
0001
0000
,  // measure 25
1000
0100
0010
0100
1000
0000
0001
0000
,  // measure 26
0100
0001
1000
0100
1000
0010
0001
0010
,  // measure 27
1000
0010
0001
0010
0110
0000
0110
0000
,  // measure 28
0100
0001
1000
0010
0200
0000
0000
0000
,  // measure 29
0310
0100
0010
0001
0010
0000
0000
0000
,  // measure 30
2010
0000
0020
0000
,  // measure 31
0000
0000
0000
0000
,  // measure 32
3030
0000
0000
0000
;

//---------------dance-single - ----------------
#NOTES:
     dance-single:
     X-Scale 5:
     Easy:
     3:
     0.244470,0.289968,0.038029,0.342257,0.000000,135.000000,132.000000,3.000000,27.000000,0.000000,0.000000,0.244470,0.289968,0.038029,0.342257,0.000000,135.000000,132.000000,3.000000,27.000000,0.000000,0.000000:
// measure 0
0000
0000
0000
0000
,  // measure 1
1200
0000
0010
0000
2300
0010
0010
0000
,  // measure 2
3002
0000
0100
0000
0023
0001
0001
0000
,  // measure 3
0230
0000
0001
0000
0320
0100
0100
0000
,  // measure 4
0032
0000
0100
0000
2003
0010
0010
0000
,  // measure 5
3200
0000
1000
0000
0320
0100
0001
0000
,  // measure 6
0032
0000
0010
0000
0203
1000
0010
0000
,  // measure 7
2300
0000
0010
0000
3200
1000
0001
0000
,  // measure 8
0320
0000
0001
0000
2030
0010
0100
0000
,  // measure 9
3200
1000
0000
0010
0010
0001
0000
0010
,  // measure 10
0310
0100
0001
0010
0001
1000
0010
0100
,  // measure 11
0001
0010
1000
0010
,  // measure 12
0100
1000
0001
1000
,  // measure 13
0100
0000
0010
0000
0001
1000
0001
1000
,  // measure 14
0001
0010
0100
1000
1100
0000
1000
0000
,  // measure 15
0100
1000
0001
0001
,  // measure 16
1000
0000
0010
0000
1000
0100
1000
0000
,  // measure 17
0001
0000
0001
0000
0010
0100
0010
0000
,  // measure 18
0001
0001
1000
0010
,  // measure 19
1000
0001
1000
1000
,  // measure 20
0001
0000
0100
0000
0001
0010
0001
0000
,  // measure 21
1000
1000
0001
0000
,  // measure 22
1000
0000
1002
0000
,  // measure 23
0013
0000
0001
0000
0020
0030
0020
0030
,  // measure 24
0010
0100
1000
0001
,  // measure 25
1000
0010
0100
0001
,  // measure 26
0010
0100
2000
0000
,  // measure 27
3010
0000
1000
0000
0002
0003
0002
0003
,  // measure 28
0001
1000
0200
0000
,  // measure 29
0320
0000
0230
0000
,  // measure 30
2300
0000
3100
0000
;

//---------------dance-single - ----------------
#NOTES:
     dance-single:
     X-Scale 1:
     Beginner:
     1:
     0.132195,0.173981,0.012676,0.430991,0.000000,73.000000,72.000000,1.000000,34.000000,0.000000,0.000000,0.132195,0.173981,0.012676,0.430991,0.000000,73.000000,72.000000,1.000000,34.000000,0.000000,0.000000:
// measure 0
0000
0000
0000
0000
,  // measure 1
2000
0000
3020
0000
,  // measure 2
0230
0000
0302
0000
,  // measure 3
2003
0000
3200
0000
,  // measure 4
0320
0000
0032
0000
,  // measure 5
0203
0000
0320
0000
,  // measure 6
2030
0000
3200
0000
,  // measure 7
0320
0000
0032
0000
,  // measure 8
2003
0000
3002
0000
,  // measure 9
0013
0000
0001
0000
,  // measure 10
1000
0000
0100
0000
,  // measure 11
1000
0010
0100
0001
,  // measure 12
1000
0100
0010
0001
,  // measure 13
0100
0010
1000
0001
,  // measure 14
2000
0000
0000
3000
1200
0000
0000
0000
,  // measure 15
0310
0000
0100
0100
,  // measure 16
0100
0000
2000
0000
,  // measure 17
3001
1000
0002
0000
,  // measure 18
1003
0001
2000
0000
,  // measure 19
3100
0000
0010
0010
,  // measure 20
0010
0000
0020
0000
,  // measure 21
0130
0010
0200
0000
,  // measure 22
2300
0000
3020
0000
,  // measure 23
1030
0000
0001
0001
,  // measure 24
0001
0000
2000
0000
,  // measure 25
3200
0000
0320
0000
,  // measure 26
0032
0000
2003
0000
,  // measure 27
3001
0000
1000
1000
,  // measure 28
1000
0000
0002
0000
,  // measure 29
0023
0000
0032
0000
,  // measure 30
0023
0000
0030
0000
;
