#TITLE:STARGAZING;
#SUBTITLE:;
#ARTIST:Travis Scott;
#TITLETRANSLIT:;
#SUBTITLETRANSLIT:;
#ARTISTTRANSLIT:;
#GENRE:Trap;
#CREDIT:;
#BANNER:STARGAZING-bn.png;
#BACKGROUND:STARGAZING-bg.png;
#LYRICSPATH:;
#CDTITLE:cdtitle.png;
#MUSIC:STARGAZING.ogg;
#OFFSET:-0.007000;
#SAMPLESTART:12.800000;
#SAMPLELENGTH:32.000000;
#SELECTABLE:YES;
#DISPLAYBPM:150.000000;
#BPMS:0.000000=150.000000
,180.000000=75.000000
,181.000000=150.000000
;
#STOPS:180.500000=0.800000
;
#BGCHANGES:;
#KEYSOUNDS:;
#ATTACKS:;

//---------------dance-single - ----------------
#NOTES:
     dance-single:
     X-Scale 11:
     Hard:
     8:
     0.539120,0.512451,0.016923,0.761537,0.046538,446.000000,444.000000,2.000000,90.000000,0.000000,0.000000,0.539120,0.512451,0.016923,0.761537,0.046538,446.000000,444.000000,2.000000,90.000000,0.000000,0.000000:
// measure 0
0000
0000
0000
0000
,  // measure 1
0000
0000
0000
0000
,  // measure 2
0000
0000
0000
0000
,  // measure 3
0000
0000
0000
0000
,  // measure 4
1000
0100
0010
0001
1000
0100
0010
0001
,  // measure 5
1000
0010
0100
0001
1000
0010
0100
0001
,  // measure 6
1000
0100
0010
0100
1000
0001
0010
0100
,  // measure 7
0010
0001
1000
0001
0100
0001
1000
0000
,  // measure 8
1020
0000
0000
1000
0000
0000
0030
0000
0010
0000
0100
0000
0010
0000
0100
0000
,  // measure 9
0002
0023
0032
0023
0032
0023
0130
1000
,  // measure 10
0020
2030
3002
1003
,  // measure 11
0010
0100
0010
0001
0010
0100
0001
1000
,  // measure 12
0002
0000
0203
0000
0320
0000
1030
0001
,  // measure 13
0100
0000
0000
0001
0100
0000
0001
0000
0010
0000
0100
0000
1000
0000
0010
0000
,  // measure 14
1000
0001
0010
0000
0100
0000
1000
0010
,  // measure 15
1000
0000
0001
0010
1000
0010
0001
0100
,  // measure 16
0010
0100
0001
0000
1000
0000
0010
1000
,  // measure 17
0002
0203
0302
0203
0301
0010
1000
0010
,  // measure 18
0002
0000
0000
0000
1000
0000
0000
0000
0013
0000
0000
0000
0001
0000
0000
0010
,  // measure 19
0001
0100
0010
1000
0100
0010
0001
1000
,  // measure 20
0020
0000
1000
2030
0010
0000
3002
0000
,  // measure 21
1003
0100
0001
0100
1000
0010
0100
0001
,  // measure 22
0020
0000
0000
0001
0032
0000
0103
0001
,  // measure 23
0010
0100
1000
0010
0100
0010
1000
0001
,  // measure 24
1000
0000
0010
0000
1000
0000
0001
0010
,  // measure 25
0100
0000
0100
0000
1000
0010
1000
0001
,  // measure 26
0100
0010
0100
0001
,  // measure 27
1000
0001
1000
0000
0100
0000
0020
0030
,  // measure 28
0010
0000
0000
0001
0000
0000
1000
0000
0001
0000
1000
0010
0000
0000
1000
0000
,  // measure 29
0010
0000
0100
0000
0010
0000
0100
0000
0010
0000
1000
0010
0000
0000
1000
0000
,  // measure 30
0100
0000
0000
0010
0000
0000
0001
0000
0100
0000
0001
0100
0000
0000
0010
0000
,  // measure 31
1000
0000
0010
0000
1000
0000
0010
0000
0100
0000
0001
0100
0000
0000
0001
0000
,  // measure 32
0020
1000
0032
0023
,  // measure 33
0230
0320
0230
0320
0230
0320
0031
0100
,  // measure 34
0020
0000
2030
0000
3200
0000
1300
0100
,  // measure 35
1000
0100
0010
0001
0010
1000
0010
0001
,  // measure 36
0001
0010
0100
0000
1000
0000
0001
1000
,  // measure 37
0001
0010
0100
0010
0002
2003
3002
2003
,  // measure 38
3002
2003
3100
0000
0010
0001
0200
0300
,  // measure 39
0200
0301
0100
1000
0100
0001
0010
0100
,  // measure 40
2000
0000
3001
1000
0010
0100
0001
0000
,  // measure 41
1000
0100
0010
0100
1000
0010
1000
0100
,  // measure 42
0010
0001
0100
0001
0010
0100
1000
0010
,  // measure 43
1000
0100
0001
1000
0010
0001
0100
0001
,  // measure 44
0020
0230
2300
3002
,  // measure 45
2003
3000
0000
0000
0011
0000
1000
0000
0100
0000
0010
0000
0100
0000
1000
0000
,  // measure 46
0002
0203
0302
0203
0310
0001
0010
1000
,  // measure 47
0200
0000
0310
0001
1000
0001
0100
0010
,  // measure 48
4000
3000
4000
3001
0010
1000
0020
0032
,  // measure 49
0023
0032
0013
0000
0100
1000
0010
1000
,  // measure 50
0200
0000
0000
0310
0100
1000
0010
0100
,  // measure 51
0001
0000
1000
0100
0010
0001
1000
0100
,  // measure 52
0010
0001
2000
3200
2300
3200
2300
3200
,  // measure 53
1300
0010
0200
0000
0320
0000
2030
0000
,  // measure 54
3001
0000
0010
0001
0100
0001
0010
0100
,  // measure 55
1000
0001
2000
0000
3200
0000
0320
0000
,  // measure 56
0031
0000
0100
0000
0001
0000
0000
0100
0001
0000
0100
0000
1000
0000
0100
0000
,  // measure 57
0001
0010
0100
0010
0001
0000
1000
0000
,  // measure 58
0010
0100
0010
0000
1000
0100
0001
1000
,  // measure 59
0010
0001
0100
0001
0010
0000
0100
0000
,  // measure 60
1000
0010
2000
3200
2300
3200
1300
0001
,  // measure 61
0010
0100
2000
0000
0001
0000
3010
0000
,  // measure 62
0020
0000
0030
0100
0020
0000
0130
0000
0010
0000
0001
0000
0010
0000
1000
0000
,  // measure 63
0100
1000
0020
0000
1000
2030
0010
0000
,  // measure 64
3002
0000
0013
0001
0100
0001
0010
0100
,  // measure 65
1000
0010
2000
0000
0000
0001
3002
0000
,  // measure 66
0103
0001
0010
0001
1000
0100
0010
0100
,  // measure 67
1000
0010
0200
0000
0000
0302
0000
0000
,  // measure 68
1000
1000
2003
0000
0100
3200
0000
0000
,  // measure 69
0000
0310
0020
0000
1000
0000
0001
0030
,  // measure 70
0002
0000
0100
0100
0010
0010
1003
0001
,  // measure 71
0010
0100
1000
0000
0000
0000
0000
0000
;

//---------------dance-single - ----------------
#NOTES:
     dance-single:
     X-Scale 10:
     Medium:
     7:
     0.493186,0.482307,0.033846,0.262307,0.016923,408.000000,404.000000,4.000000,31.000000,0.000000,0.000000,0.493186,0.482307,0.033846,0.262307,0.016923,408.000000,404.000000,4.000000,31.000000,0.000000,0.000000:
// measure 0
0000
0000
0000
0000
,  // measure 1
0000
0000
0000
0000
,  // measure 2
0000
0000
0000
0000
,  // measure 3
0000
0000
0000
0000
,  // measure 4
0001
0000
0010
0000
0100
0000
1000
0010
,  // measure 5
1000
0000
0001
0000
0100
1000
0100
0010
,  // measure 6
0100
0000
0001
0000
1000
0000
0100
0010
,  // measure 7
0001
0100
1000
0001
0010
1000
0100
0000
,  // measure 8
1000
0000
0010
0000
1000
0100
0010
0000
,  // measure 9
0001
0100
0001
0100
0001
0100
0010
1000
,  // measure 10
0001
0010
0100
1000
,  // measure 11
0001
1000
0100
1000
0001
0010
0100
0000
,  // measure 12
1000
0000
0010
0000
0100
0000
0001
0100
,  // measure 13
0001
0000
1000
0100
0001
0100
1000
0100
,  // measure 14
0001
0100
1000
0000
0010
0000
1000
0100
,  // measure 15
0010
0000
0001
0100
1000
0100
0001
0100
,  // measure 16
1000
0100
0001
0000
0010
0000
0100
1000
,  // measure 17
0200
0000
0001
0000
0310
0100
1000
0001
,  // measure 18
0200
0000
1000
0000
0301
0000
0200
0300
,  // measure 19
0200
0310
0100
0001
0010
0100
1000
0010
,  // measure 20
2000
0000
0000
3020
0000
0000
2030
0000
,  // measure 21
3100
1000
0001
1000
0100
0010
0001
0100
,  // measure 22
0002
0000
1000
0000
1003
0000
0001
0010
,  // measure 23
1000
0010
0100
1000
0001
1000
0100
0010
,  // measure 24
0001
0000
0000
1000
0001
0000
0010
0100
,  // measure 25
0010
0000
0001
0000
1000
0010
0001
0010
,  // measure 26
1000
0010
1000
0001
,  // measure 27
0100
0010
0001
0010
0100
0000
0002
0003
,  // measure 28
1001
0000
0000
0000
1000
0000
0000
0000
0010
0000
0100
0010
0000
0000
0100
0000
,  // measure 29
0001
0000
0000
0000
0010
0000
0000
0000
0100
0000
0010
0100
0000
0000
1000
0000
,  // measure 30
0001
0000
0000
0000
1000
0000
0000
0000
0100
0000
1000
0100
0000
0000
0010
0000
,  // measure 31
0001
0000
0000
0000
0100
0000
0000
0000
0001
0000
0010
0001
0000
0000
0010
0000
,  // measure 32
0100
0000
1000
0000
0001
0100
0001
0000
,  // measure 33
1000
0100
1000
0100
1000
0100
0010
0001
,  // measure 34
0100
0000
0001
0000
1000
0000
0001
0010
,  // measure 35
0100
0010
0001
0000
1000
0100
0000
0000
,  // measure 36
1000
0010
0100
0000
0001
0000
1000
0010
,  // measure 37
1000
0000
0100
0000
0010
0001
0010
0001
,  // measure 38
0010
0000
0100
0000
1000
0100
0020
0030
,  // measure 39
0020
0031
0100
0001
0010
0100
1000
0010
,  // measure 40
1000
0000
0010
0100
1000
0100
0010
0000
,  // measure 41
1000
0100
0001
0100
1000
0010
0100
0100
,  // measure 42
0001
0000
1000
0100
0010
0001
0010
0001
,  // measure 43
1000
0010
0100
0010
1000
0000
0001
1000
,  // measure 44
0200
0310
0100
1000
,  // measure 45
0020
0030
0000
0000
1010
0000
0000
0000
0110
0000
0000
0000
0101
0000
0000
0000
,  // measure 46
2000
3000
2000
3100
0010
0001
0100
0001
,  // measure 47
0010
0000
0100
1000
0010
1000
0100
0010
,  // measure 48
0002
0003
0002
0103
0001
0010
0100
1000
,  // measure 49
0100
1000
0010
0000
0100
0010
0001
0010
,  // measure 50
0100
0000
0001
0010
1000
0010
0001
0000
,  // measure 51
1000
0100
0010
0001
0100
0000
0010
0000
,  // measure 52
1000
0000
0001
0010
0001
0010
0001
0010
,  // measure 53
0100
1000
0010
0000
1000
0000
0100
0000
,  // measure 54
0010
0000
0001
0100
1000
0100
0010
0100
,  // measure 55
0001
1000
0010
1000
,  // measure 56
0100
0010
0001
0000
1000
0100
0001
0100
,  // measure 57
1000
0100
0001
0100
1000
0000
0010
0000
,  // measure 58
1000
0100
0010
0000
0001
0100
1000
0100
,  // measure 59
0001
0100
1000
0100
0001
0000
0010
0000
,  // measure 60
1000
0010
0001
0100
0001
0100
0001
0010
,  // measure 61
0100
1000
0020
0000
0001
0000
1030
0000
,  // measure 62
0020
0030
0020
0130
0010
0001
0010
0100
,  // measure 63
0001
1000
0200
0000
0000
0320
0000
0000
,  // measure 64
0032
0000
1003
0001
0010
0100
1000
0010
,  // measure 65
1000
0100
0020
0000
1000
0000
0031
0000
,  // measure 66
1000
0010
0100
0001
1000
0100
0010
0001
,  // measure 67
1000
0010
0200
0000
0000
0302
0000
0000
,  // measure 68
1000
2003
3200
2300
,  // measure 69
3200
0301
0100
1000
,  // measure 70
0020
0000
1030
0100
0010
0001
0100
0010
,  // measure 71
1000
1000
1000
0000
0000
0000
0000
0000
;

//---------------dance-single - ----------------
#NOTES:
     dance-single:
     X-Scale 7:
     Easy:
     5:
     0.373516,0.421278,0.016923,0.143846,0.000000,309.000000,307.000000,2.000000,17.000000,0.000000,0.000000,0.373516,0.421278,0.016923,0.143846,0.000000,309.000000,307.000000,2.000000,17.000000,0.000000,0.000000:
// measure 0
0000
0000
0000
0000
,  // measure 1
0000
0000
0000
0000
,  // measure 2
0000
0000
0000
0000
,  // measure 3
0000
0000
0000
0000
,  // measure 4
1000
0010
0100
0001
,  // measure 5
1000
0000
0100
0000
1000
0010
1000
0000
,  // measure 6
0001
0010
0100
1000
,  // measure 7
0001
0100
0010
0100
0001
0000
1000
0000
,  // measure 8
2001
0000
0000
3000
1000
0010
1000
0000
,  // measure 9
0100
0010
0100
1000
,  // measure 10
0001
0010
0100
1000
,  // measure 11
0001
0010
0001
0010
,  // measure 12
0001
0000
0100
0000
0001
0000
1000
0100
,  // measure 13
1000
0010
1000
0010
,  // measure 14
1000
0100
0010
0001
,  // measure 15
1000
0010
0100
0010
1000
0000
0100
0000
,  // measure 16
0010
0001
1000
0001
,  // measure 17
0100
0010
0100
0001
,  // measure 18
1000
0100
0010
0100
,  // measure 19
0100
1000
0010
1000
0001
0000
1000
0000
,  // measure 20
0100
0010
0100
1000
,  // measure 21
0001
0000
0100
0000
0001
0010
0100
0000
,  // measure 22
1000
0000
0010
0100
0010
0000
1000
0000
,  // measure 23
0100
0010
0100
1000
,  // measure 24
0002
0000
0000
2003
0001
0000
0000
0000
,  // measure 25
3200
0000
0000
0320
0000
0000
0000
0031
,  // measure 26
0002
0000
1000
0000
0100
0003
2000
0000
,  // measure 27
0010
0000
0000
0000
0100
3000
2000
3000
,  // measure 28
1100
0010
1000
0100
,  // measure 29
0010
0001
0010
0001
1000
0010
1000
0010
,  // measure 30
0100
0001
1000
0010
,  // measure 31
1000
0100
1000
0100
0010
0001
0010
0001
,  // measure 32
0100
0001
1000
0001
,  // measure 33
0010
0000
0100
0000
0010
0100
1000
0000
,  // measure 34
0001
1000
0100
1000
,  // measure 35
0001
0010
0100
0010
0001
0000
1000
0000
,  // measure 36
0010
0000
1000
0000
0100
0000
0010
0001
,  // measure 37
0100
0000
0001
0000
1000
0010
1000
0010
,  // measure 38
1000
0100
0010
0001
,  // measure 39
0100
0000
0001
0000
0100
0000
0001
0100
,  // measure 40
0020
1000
0100
0001
,  // measure 41
0130
0000
0010
0000
1000
0010
0100
0010
,  // measure 42
1000
0001
1000
0100
,  // measure 43
0010
0001
0100
0001
0010
0000
0100
1000
,  // measure 44
0010
1000
0010
1000
,  // measure 45
0010
0000
1000
0000
0100
0000
0010
0001
,  // measure 46
0010
0000
0010
0100
1000
0100
0010
0000
,  // measure 47
0002
0103
0001
1000
,  // measure 48
0010
0000
0010
0000
1000
0000
0001
0100
,  // measure 49
0001
0000
0010
0000
0100
0000
1000
0010
,  // measure 50
1000
0000
0100
0010
0001
0010
0100
0000
,  // measure 51
1000
0010
1000
0100
,  // measure 52
0010
0000
0001
0000
0100
0000
0001
0010
,  // measure 53
0100
1000
0010
1000
,  // measure 54
0100
0010
0001
0010
,  // measure 55
0001
1000
0010
1000
,  // measure 56
0100
0010
0001
0000
1000
0000
0001
0010
,  // measure 57
0100
1000
0010
1000
,  // measure 58
0100
0000
1000
0010
0100
0010
1000
0000
,  // measure 59
0001
0100
0010
1000
,  // measure 60
0100
0010
0001
0000
1000
0000
0001
0010
,  // measure 61
0100
1000
0010
0100
,  // measure 62
0001
1000
0001
1000
,  // measure 63
0001
0100
0010
1000
,  // measure 64
0100
1000
0001
1000
,  // measure 65
0010
0000
0100
0000
0001
0100
0001
0000
,  // measure 66
0010
0000
0100
1000
0010
1000
0100
0000
,  // measure 67
1000
0000
2000
0000
0000
3200
0000
0000
,  // measure 68
0000
0000
0320
0000
0000
0032
0000
0000
,  // measure 69
0000
0013
0002
0000
0000
0000
0000
0003
,  // measure 70
2000
0000
0010
0000
0000
0000
0010
3000
,  // measure 71
2000
3000
0000
0000
0000
0000
0000
0000
;

//---------------dance-single - ----------------
#NOTES:
     dance-single:
     X-Scale 2:
     Beginner:
     2:
     0.135384,0.150192,0.000000,0.000000,0.000000,112.000000,112.000000,0.000000,0.000000,0.000000,0.000000,0.135384,0.150192,0.000000,0.000000,0.000000,112.000000,112.000000,0.000000,0.000000,0.000000,0.000000:
// measure 0
0000
0000
0000
0000
,  // measure 1
0000
0000
0000
0000
,  // measure 2
0000
0000
0000
0000
,  // measure 3
0000
0000
0000
0000
,  // measure 4
0001
0000
0000
0000
,  // measure 5
0010
0000
0000
0000
,  // measure 6
0100
0000
0000
0000
,  // measure 7
1000
0000
0000
0000
,  // measure 8
1000
0000
0000
0000
,  // measure 9
0010
0000
0100
0000
,  // measure 10
0010
0000
1000
0000
,  // measure 11
0001
0000
0100
0000
,  // measure 12
0001
0000
0010
0000
,  // measure 13
0100
0000
1000
0000
,  // measure 14
0001
0000
1000
0000
,  // measure 15
0100
0000
1000
0000
,  // measure 16
0010
0000
0100
0000
,  // measure 17
0001
0000
0010
0000
,  // measure 18
0001
0000
1000
0000
,  // measure 19
0100
0000
1000
0000
,  // measure 20
0010
0000
0100
0000
,  // measure 21
0001
0000
0010
0000
,  // measure 22
0001
0000
0100
0000
,  // measure 23
0001
0000
0010
0000
,  // measure 24
0100
0000
0000
0000
,  // measure 25
1000
0000
0000
0000
,  // measure 26
0001
0000
0000
0000
,  // measure 27
1000
0000
0000
0000
,  // measure 28
0100
0000
0000
0000
,  // measure 29
0010
0000
0000
0000
,  // measure 30
0001
0000
0000
0000
,  // measure 31
1000
0000
0001
0000
,  // measure 32
1000
0000
0000
0000
,  // measure 33
0100
0000
0010
0000
,  // measure 34
0100
0000
0000
0000
,  // measure 35
1000
0000
0010
0000
,  // measure 36
1000
0000
0000
0000
,  // measure 37
0001
0000
1000
0000
,  // measure 38
0001
0000
0000
0000
,  // measure 39
0010
0000
0100
0000
,  // measure 40
0010
0000
0000
0000
,  // measure 41
0001
0000
1000
0000
,  // measure 42
0001
0000
0000
0000
,  // measure 43
1000
0000
0010
0000
,  // measure 44
1000
0000
0000
0000
,  // measure 45
0000
1000
0000
0010
,  // measure 46
0000
1000
0000
0001
,  // measure 47
0000
1000
0000
0100
,  // measure 48
0000
0010
0000
0100
,  // measure 49
0000
1000
0000
0001
,  // measure 50
0000
0100
0000
0001
,  // measure 51
0000
1000
0000
0100
,  // measure 52
0000
0010
0000
0100
,  // measure 53
0000
1000
0000
0001
,  // measure 54
0000
0100
0000
0001
,  // measure 55
0000
0010
0000
0100
,  // measure 56
0000
0010
0000
0001
,  // measure 57
0000
1000
0000
0010
,  // measure 58
0000
1000
0000
0100
,  // measure 59
0000
1000
0000
0010
,  // measure 60
0000
0100
0000
0010
,  // measure 61
0000
1000
0000
0001
,  // measure 62
0000
0010
0000
0100
,  // measure 63
0000
0010
0000
0001
,  // measure 64
0000
1000
0000
0001
,  // measure 65
0000
1000
0000
0100
,  // measure 66
0000
0010
0000
0100
,  // measure 67
0000
1000
0000
0000
,  // measure 68
0000
0001
0000
0000
,  // measure 69
0000
1000
0000
0000
,  // measure 70
0100
0000
0000
0000
,  // measure 71
0010
0000
0000
0000
;
