#TITLE:서울여자;
#SUBTITLE:;
#ARTIST:유키카;
#TITLETRANSLIT:SOUL LADY;
#SUBTITLETRANSLIT:;
#ARTISTTRANSLIT:YUKIKA;
#GENRE:City Pop;
#CREDIT:;
#BANNER:SOUL LADY-bn.png;
#BACKGROUND:SOUL LADY-bg.png;
#LYRICSPATH:;
#CDTITLE:cdtitle.png;
#MUSIC:SOUL LADY.ogg;
#OFFSET:-0.002000;
#SAMPLESTART:57.146999;
#SAMPLELENGTH:16.500000;
#SELECTABLE:YES;
#BPMS:0.000000=120.000000
;
#STOPS:
;
#BGCHANGES:0.000=SOUL LADY.avi=1.000=1=0=0=StretchNoLoop==CrossFade==,
99999=-nosongbg-=1.000=0=0=0 // don't automatically add -songbackground-
;
#KEYSOUNDS:;
#ATTACKS:;

//---------------dance-single - ----------------
#NOTES:
     dance-single:
     X-Scale 2:
     Beginner:
     2:
     0.126955,0.167832,0.014811,0.000000,0.000000,120.000000,118.000000,2.000000,0.000000,0.000000,0.000000,0.126955,0.167832,0.014811,0.000000,0.000000,120.000000,118.000000,2.000000,0.000000,0.000000,0.000000:
// measure 0
0000
0000
0000
0000
,  // measure 1
0000
0000
0000
0000
,  // measure 2
0000
0000
0000
0000
,  // measure 3
0000
0000
0000
0000
,  // measure 4
0000
0000
0000
0000
,  // measure 5
0000
1000
0000
0001
,  // measure 6
0000
0100
0000
0001
,  // measure 7
0000
1000
0000
0100
,  // measure 8
0000
0010
0000
0100
,  // measure 9
0000
1000
0000
0001
,  // measure 10
0000
0100
0000
0001
,  // measure 11
0000
1000
0000
0001
,  // measure 12
0000
0010
0000
0100
,  // measure 13
0000
0010
0000
0001
,  // measure 14
0000
1000
0000
0100
,  // measure 15
0000
1000
0000
0001
,  // measure 16
0000
0100
0000
0001
,  // measure 17
0000
0010
0000
0100
,  // measure 18
0000
0010
0000
0001
,  // measure 19
0000
1000
0000
0010
,  // measure 20
0000
1000
0000
0001
,  // measure 21
0000
1000
0000
0100
,  // measure 22
0000
0010
0000
0100
,  // measure 23
0000
1000
0000
0001
,  // measure 24
0000
0100
0000
0001
,  // measure 25
0000
1000
0000
0001
,  // measure 26
0000
0010
0000
0100
,  // measure 27
0000
0010
0100
0010
,  // measure 28
0100
0000
1001
0000
,  // measure 29
0000
0001
0000
0100
,  // measure 30
0000
0001
0000
1000
,  // measure 31
0000
0001
0000
0100
,  // measure 32
0000
0001
0000
1000
,  // measure 33
0000
0100
0000
1000
,  // measure 34
0000
0001
0000
1000
,  // measure 35
0000
0100
0000
1000
,  // measure 36
0000
0000
0000
0000
,  // measure 37
0001
0000
0010
0000
,  // measure 38
0100
0000
1000
0000
,  // measure 39
0010
0000
0100
0000
,  // measure 40
0001
0000
1000
0000
,  // measure 41
0100
0000
0010
0000
,  // measure 42
0001
0000
0100
0000
,  // measure 43
0010
0000
1000
0000
,  // measure 44
0001
0000
1001
0000
,  // measure 45
0000
1000
0000
0010
,  // measure 46
0000
1000
0000
0001
,  // measure 47
0000
0100
0000
0001
,  // measure 48
0000
0010
0000
0100
,  // measure 49
0000
0010
0000
0001
,  // measure 50
0000
1000
0000
0010
,  // measure 51
0000
1000
0000
0001
,  // measure 52
0000
1000
0000
0100
,  // measure 53
0000
0010
0000
0100
,  // measure 54
0000
1000
0000
0001
,  // measure 55
0000
0100
0000
0001
,  // measure 56
0000
1000
0000
0001
,  // measure 57
0000
0010
0000
0100
,  // measure 58
0000
0010
0000
0001
,  // measure 59
0000
1000
0001
1000
,  // measure 60
0000
0000
0000
0000
,  // measure 61
0000
0001
0000
0010
,  // measure 62
0000
0001
0000
1000
,  // measure 63
0000
0010
0000
1000
,  // measure 64
0000
0100
0000
1000
;

//---------------dance-single - ----------------
#NOTES:
     dance-single:
     X-Scale 6:
     Easy:
     4:
     0.282475,0.335664,0.066651,0.236983,0.000000,267.000000,258.000000,9.000000,32.000000,0.000000,0.000000,0.282475,0.335664,0.066651,0.236983,0.000000,267.000000,258.000000,9.000000,32.000000,0.000000,0.000000:
// measure 0
0000
0000
0000
0000
,  // measure 1
0000
0000
0000
0000
,  // measure 2
0000
0000
0000
0000
,  // measure 3
0000
0000
0000
0000
,  // measure 4
0000
0000
0000
0000
,  // measure 5
0000
0000
1000
0010
1000
0000
0001
0000
,  // measure 6
0010
0000
0100
0010
0100
0000
1000
0000
,  // measure 7
0001
0000
0100
0001
0100
0000
0010
0000
,  // measure 8
1000
0000
0001
1000
0010
1000
0001
0000
,  // measure 9
0000
1000
0100
1000
,  // measure 10
0001
1000
0100
1000
,  // measure 11
0000
0001
0100
0001
,  // measure 12
1000
0001
0100
0001
,  // measure 13
0000
1000
0100
1000
,  // measure 14
0001
1000
0100
1000
,  // measure 15
0000
0001
0100
0001
,  // measure 16
1000
0001
0100
0001
,  // measure 17
0000
0000
1000
0001
1000
0000
0100
0000
,  // measure 18
0010
0000
0001
0100
0001
0000
1000
0000
,  // measure 19
0000
0000
0010
1000
0001
0000
1000
0000
,  // measure 20
0100
0000
0010
0100
1000
0000
0001
0000
,  // measure 21
0000
0000
0100
0001
1000
0000
0001
0000
,  // measure 22
0010
0000
0100
0010
0001
0000
1000
0000
,  // measure 23
0000
0000
0001
0010
0100
0000
0010
0000
,  // measure 24
0001
0000
1000
0001
0100
0000
0001
0000
,  // measure 25
0000
1000
1000
0001
0001
0000
1000
0010
,  // measure 26
0000
0010
1000
0000
0001
0100
0001
0000
,  // measure 27
0000
1000
0100
0010
0001
0100
0010
1000
,  // measure 28
1001
0000
0000
0000
0100
0100
0100
0000
,  // measure 29
0000
0000
0020
0000
2030
0000
3001
0020
,  // measure 30
0000
0130
0010
0002
0000
1003
0001
0000
,  // measure 31
0010
0000
0200
0000
2300
0000
3001
0200
,  // measure 32
0000
0310
0100
0002
0000
1003
0001
1001
,  // measure 33
0000
0000
0100
1100
0000
0000
0001
1001
,  // measure 34
0000
0000
0100
0110
0000
0000
0001
1001
,  // measure 35
0000
0000
1000
0000
0001
1000
0001
0000
,  // measure 36
1001
0000
0000
0000
,  // measure 37
1100
0000
0100
0010
,  // measure 38
0001
0000
1000
0010
,  // measure 39
0100
0001
1000
0010
,  // measure 40
0100
0001
1000
0001
0100
0000
0001
0000
,  // measure 41
0010
0000
0100
0010
,  // measure 42
0001
0000
1000
0010
,  // measure 43
2000
0000
0001
0100
,  // measure 44
3002
0000
0000
0000
0013
0010
0010
0000
,  // measure 45
0000
0000
2000
0000
3002
0000
0013
0200
,  // measure 46
0000
0310
0100
2000
0000
3100
0010
0000
,  // measure 47
0000
0000
0002
0000
0203
0000
0301
2000
,  // measure 48
0000
3100
0010
0002
0000
0103
0001
1000
,  // measure 49
0000
0010
1000
0001
0000
0100
0010
0200
,  // measure 50
0000
0301
0100
0001
1000
0100
0100
0010
,  // measure 51
0000
0001
1000
0001
0000
0100
0001
0000
,  // measure 52
0000
1000
0001
0000
0100
0001
0100
0000
,  // measure 53
0000
0000
0002
0000
2003
0000
3100
2000
,  // measure 54
0000
3100
0010
0002
0000
0103
0001
0000
,  // measure 55
0000
0000
2000
0000
3002
0000
0013
0200
,  // measure 56
0000
0310
0100
2000
0000
3001
1000
0100
,  // measure 57
0000
0010
0100
1000
0000
0001
1000
0020
,  // measure 58
0000
0130
0001
1000
0000
0100
0010
0001
,  // measure 59
0000
0000
1000
0001
0100
0001
1000
0000
,  // measure 60
1001
0000
0000
0000
,  // measure 61
0000
0001
0000
1000
,  // measure 62
0000
0020
2030
3002
,  // measure 63
2003
0100
3001
1000
,  // measure 64
0000
0001
0000
1000
;

//---------------dance-single - ----------------
#NOTES:
     dance-single:
     X-Scale 11:
     Medium:
     8:
     0.452806,0.488777,0.192548,0.311040,0.336960,428.000000,402.000000,26.000000,42.000000,0.000000,0.000000,0.452806,0.488777,0.192548,0.311040,0.336960,428.000000,402.000000,26.000000,42.000000,0.000000,0.000000:
// measure 0
0000
0000
0000
0000
,  // measure 1
0000
0000
0000
0000
,  // measure 2
0000
0000
0000
0000
,  // measure 3
0000
0000
0000
0000
,  // measure 4
0000
0000
0000
0000
0000
0000
0000
0000
1000
0000
0000
0000
0001
0000
0000
1001
,  // measure 5
0000
0000
0000
0000
0010
0000
1000
0000
0001
0000
0000
1000
0100
0000
0000
0010
,  // measure 6
0000
0010
0001
0000
0200
0000
0000
0000
2300
0000
0000
0000
3200
0000
0000
0302
,  // measure 7
0000
0000
0000
0000
1003
0000
0001
0000
0100
0000
0001
0000
0010
0100
0000
2001
,  // measure 8
0000
0000
0001
0000
0010
0000
0001
0000
3010
0000
0010
0000
0010
0000
0000
1001
,  // measure 9
0000
0000
0100
0000
0001
0000
1000
0000
0001
0010
0000
0100
0000
0000
0000
0000
,  // measure 10
1000
0000
0100
0000
0001
0000
0100
1000
0000
0000
0000
0000
1100
0000
0000
1001
,  // measure 11
0000
0000
1000
0000
0001
0000
1000
0000
0010
1000
0000
0001
0000
0000
0000
0100
,  // measure 12
0010
0000
0001
0000
0010
0000
1000
0001
0000
0000
0001
0000
0010
0100
0000
1001
,  // measure 13
0000
0000
0100
0000
0001
0000
1000
0000
0010
1000
0000
0001
0000
0000
0000
0010
,  // measure 14
0100
0000
0010
0000
0001
0000
1000
0010
0000
0000
1000
0000
0001
0100
0000
0010
,  // measure 15
0000
0000
1000
0000
0001
0010
0000
0001
0000
0000
0100
0000
0010
0000
1000
0002
,  // measure 16
0000
0000
0000
0000
1003
0000
0001
0000
0100
0000
0100
0000
0100
0000
0000
1001
,  // measure 17
0000
0100
0001
0000
1000
0000
0001
0000
0010
0000
0000
0000
0100
0000
0000
1000
,  // measure 18
0000
1000
0010
0000
1000
0000
0001
0000
0100
0000
0000
0000
0001
0000
0000
0010
,  // measure 19
0000
0010
0100
0000
0001
0000
0100
0000
1000
0000
0000
0000
0001
0000
0000
0100
,  // measure 20
0000
0100
0010
0000
0100
0000
0001
0000
1000
0000
0000
0000
0010
0000
0000
1001
,  // measure 21
0000
0000
0100
0000
1000
0000
0001
0000
0200
0000
0000
0000
0310
0000
0000
1000
,  // measure 22
0000
1000
0001
0000
0100
0000
1000
0000
0001
0000
0010
0000
1000
0000
0000
0001
,  // measure 23
0000
0001
0100
0000
0001
0000
1000
0000
0100
0000
0000
0000
0010
0000
0000
0001
,  // measure 24
0000
0001
1000
0000
0001
0000
0100
0000
0020
0000
0000
0000
2030
0000
0000
3200
,  // measure 25
0000
0000
0310
0000
0010
0000
0000
1001
0000
0000
0001
0000
1000
0000
0000
1100
,  // measure 26
0000
0000
0001
0000
0100
0000
0000
0000
0001
0000
1000
0000
1000
0000
0100
0020
,  // measure 27
0000
0100
0100
0001
0031
0010
0100
1000
,  // measure 28
2200
0000
0000
0000
0000
0000
3300
0000
0001
0000
0001
0000
0001
0000
0000
1001
,  // measure 29
0000
0000
0010
0000
1000
0000
0001
0000
0010
0000
0000
0000
0100
0000
0000
0010
,  // measure 30
0000
0010
0001
0000
1000
0000
0200
0000
0010
0000
0000
0000
1300
0000
0000
0001
,  // measure 31
0000
0001
0100
0000
0001
0000
0010
0000
0100
0000
0000
0000
1000
0000
0020
0000
,  // measure 32
0000
0000
0031
0000
0010
0000
2000
0000
0000
0000
3010
0000
1000
0000
0000
1001
,  // measure 33
0000
0000
0100
0000
0001
0000
0000
0011
0000
0000
0001
0000
1000
0000
0000
1010
,  // measure 34
0000
0000
0010
0000
1000
0000
0000
1001
0000
0000
0100
0000
0001
0000
0000
0010
,  // measure 35
0000
0010
1000
0000
0010
0000
0001
0000
0100
0000
0100
0000
0100
0010
0000
0220
,  // measure 36
0000
0000
0000
0330
,  // measure 37
2001
0000
0000
0000
0010
0000
0000
0000
3001
0000
0000
0000
1000
0000
0000
0100
,  // measure 38
1000
0001
0101
0001
,  // measure 39
1000
0000
0100
0000
1100
1000
0000
0001
,  // measure 40
0010
0100
1000
0000
2001
0000
3020
0000
,  // measure 41
0230
0000
1000
0000
0301
0100
0010
0000
,  // measure 42
1000
0010
1001
0100
,  // measure 43
0001
0000
1000
0000
0001
0100
1000
0100
,  // measure 44
0002
0000
0000
0000
0000
0000
0000
0000
1003
0000
1000
0000
1000
0000
0001
0010
,  // measure 45
0000
0001
0010
1000
0001
0100
0010
0002
,  // measure 46
0000
0000
1003
0000
0100
0000
0020
0000
0000
0000
0031
0010
0001
0000
1000
0010
,  // measure 47
0000
0100
0010
0100
1000
0100
0001
2000
,  // measure 48
0000
0000
3001
0000
1000
0000
0020
0000
0000
0000
1030
0000
0001
0000
1000
0200
,  // measure 49
0000
0000
0301
0000
0100
0000
1000
0002
0000
0000
0103
0000
0001
0000
0200
0000
,  // measure 50
0000
0000
1300
0000
0100
0000
0001
0000
1000
0000
0001
0000
0100
0000
0000
0010
,  // measure 51
0000
0010
0001
0000
0010
0000
1000
0000
0000
0000
0001
0000
1000
0001
0000
0100
,  // measure 52
0000
0100
0010
0000
0100
0000
0001
0000
0010
0000
1000
0000
0010
0000
0001
0010
,  // measure 53
0000
0001
1000
0100
0001
1000
0010
0002
,  // measure 54
0000
0000
0013
0000
0100
0000
2000
0000
0000
0000
3001
0100
0010
0000
0100
0001
,  // measure 55
0000
1000
0010
0100
0001
0010
0001
0200
,  // measure 56
0000
0000
0301
0000
1000
0000
0200
0000
0000
0000
0310
0000
0001
0000
1000
0010
,  // measure 57
0000
0010
0001
0000
0010
0000
1000
0000
0010
0000
0100
0000
0001
0000
0001
0010
,  // measure 58
0000
0010
1000
0000
0010
0000
0001
0000
1000
0000
0010
0000
0010
0000
1000
0001
,  // measure 59
0000
0001
0100
0000
0010
0000
1000
0000
0100
0000
0100
0000
0100
0010
0000
2002
,  // measure 60
0000
0000
0000
0000
0000
0000
0000
0000
0000
0000
0000
0000
3003
0000
0000
0110
,  // measure 61
0000
0000
0100
0000
0001
0000
1000
0000
0001
0000
0000
0010
0100
0000
0000
0010
,  // measure 62
0000
0010
0001
0000
2000
0000
0000
0000
3002
0000
0000
0000
0203
0000
0000
0320
,  // measure 63
0000
0000
0000
0000
0001
0000
0100
0000
1030
0000
1000
0010
1000
0010
0000
1010
,  // measure 64
0000
1000
0001
0000
0100
0000
0001
0000
0010
0000
0100
0000
1000
0000
0000
2002
,  // measure 65
0000
0000
0000
0000
,  // measure 66
3003
0000
0000
0000
;

//---------------dance-single - ----------------
#NOTES:
     dance-single:
     X-Scale 13:
     Hard:
     9:
     0.533211,0.537654,0.199954,0.348068,0.462857,504.000000,477.000000,27.000000,47.000000,0.000000,0.000000,0.533211,0.537654,0.199954,0.348068,0.462857,504.000000,477.000000,27.000000,47.000000,0.000000,0.000000:
// measure 0
0000
0000
0000
0000
,  // measure 1
0000
0000
0000
0000
,  // measure 2
0000
0000
0000
0000
,  // measure 3
0000
0000
0000
0000
,  // measure 4
0000
0000
0000
0000
0000
0000
0000
0000
1100
0000
0000
0000
0110
0000
0000
1001
,  // measure 5
0000
0000
0000
0000
1000
0001
0000
0200
0010
0000
0000
0310
0100
0000
0001
0100
,  // measure 6
0000
0100
1000
0000
0100
0000
0001
0000
1000
0000
0000
0010
1000
0001
0000
0011
,  // measure 7
0000
1000
0001
0000
0010
0000
0100
0000
1000
0000
0100
1000
0001
0100
0000
0001
,  // measure 8
0000
0001
1000
0000
0010
0000
0100
0000
0001
0000
0001
0000
0001
0100
0000
0110
,  // measure 9
0000
0000
0010
1000
0001
0000
1000
0010
0100
0001
0000
0020
0000
0000
0000
0000
,  // measure 10
0130
0000
0010
0000
0001
0000
0100
0001
2000
0000
0000
0000
3010
0000
0000
1010
,  // measure 11
0000
0000
1000
0001
0010
0000
0000
0100
0010
0001
0000
2000
0000
0000
0000
3010
,  // measure 12
0100
0000
0001
0000
0100
0000
0001
1000
0000
0000
0100
0000
0010
0001
0000
1001
,  // measure 13
0000
0000
0001
1000
0100
0000
0010
0100
1000
0001
0000
2000
0000
0000
0000
3001
,  // measure 14
0010
0000
0100
0000
1000
0000
0001
0200
0000
0000
1300
0000
0100
0001
0000
2000
,  // measure 15
0000
0000
3100
0000
0001
0100
0000
2000
0000
0000
3100
0000
1000
0000
0001
0200
,  // measure 16
0000
0000
0000
0000
0310
0000
0100
0000
0010
0000
1000
0001
0100
0010
1000
0001
,  // measure 17
0000
1000
0010
0000
0100
0000
1000
0000
0100
0000
0001
0000
1000
0000
0100
0010
,  // measure 18
0000
0010
0001
0000
1000
0000
0010
0000
0001
0000
0010
0000
1000
0000
0000
0001
,  // measure 19
0000
0001
0100
0000
0010
0000
0001
0000
0010
0000
0100
0000
0001
0000
1000
0010
,  // measure 20
0000
0010
0100
0000
0001
0000
1000
0000
0100
0000
1000
0000
0001
0010
0000
1001
,  // measure 21
0000
0000
0100
0000
0001
0000
1000
0000
0010
0000
0001
0000
0010
0000
1000
0010
,  // measure 22
0000
0010
0100
0000
1000
0000
0100
0000
0010
0000
0100
0000
0001
0000
0001
2000
,  // measure 23
0000
0000
0100
0000
3100
0000
0010
0000
0001
0000
1000
0001
0000
0000
1000
0100
,  // measure 24
0000
0100
0001
0000
0100
0000
1000
0000
0010
0000
1000
0000
0001
0100
0000
1001
,  // measure 25
0000
0000
0010
0000
0010
0000
0001
0000
0001
0000
1000
0001
0000
0000
0100
0000
,  // measure 26
0000
0000
0001
0000
0100
0000
1000
0000
0100
0000
0001
0000
0001
1000
0000
0100
,  // measure 27
0000
0100
1000
0001
0100
1000
0100
0001
,  // measure 28
2001
0000
0000
0000
0000
0000
0000
0000
3100
0000
0100
0000
0100
0010
0000
1001
,  // measure 29
0000
1000
0010
0000
0100
0000
0001
0000
1000
0000
0010
0000
0100
0000
0002
0000
,  // measure 30
0000
0000
0013
0000
0100
0000
2000
0000
0010
0000
3010
0100
0001
0000
1000
0100
,  // measure 31
0000
0100
0001
0000
0100
0000
1000
0000
0001
0000
1000
0000
0100
0000
0002
0000
,  // measure 32
0000
0000
1003
0000
0010
0000
0001
0000
0010
0100
1000
0001
0100
0010
1000
0200
,  // measure 33
0000
0000
0301
0000
0100
0000
1000
0002
0000
0000
0103
0000
0001
0000
1000
0200
,  // measure 34
0000
0000
0310
0000
0100
0000
1000
0002
0000
0000
0103
0000
0001
0000
1000
0100
,  // measure 35
0000
0100
0001
0000
0100
0000
1000
0000
0001
0100
0010
1000
0001
1000
0000
1002
,  // measure 36
0000
0000
0000
0000
0000
0200
0000
0303
,  // measure 37
0101
0000
1000
0000
1001
0001
0010
2000
,  // measure 38
0000
3002
0000
0203
0000
2300
0000
3020
,  // measure 39
1000
0000
0130
0000
1001
1000
0001
0100
,  // measure 40
0001
0010
0100
0100
1100
0000
1000
0000
,  // measure 41
1001
0000
0001
0000
0101
0001
0100
2000
,  // measure 42
0000
3200
0000
0320
0000
0230
0000
0302
,  // measure 43
0100
0000
1000
0000
0010
0000
1003
0100
,  // measure 44
0020
0000
0000
0000
0000
0000
0000
0000
0031
0000
0001
0000
0001
0100
0000
1001
,  // measure 45
0000
0001
0100
0000
0001
0000
1000
0000
0010
0000
0001
0000
0010
0000
2000
0000
,  // measure 46
0000
0000
3001
0000
0010
0000
0200
0000
0000
0000
1300
0001
0100
0000
0100
0010
,  // measure 47
0000
0010
0001
0000
0010
0000
1000
0000
0001
0000
1000
0000
0100
0000
0002
0000
,  // measure 48
0000
0000
1003
0000
0010
0000
0200
0000
1000
0000
1300
0000
0001
0000
0010
0100
,  // measure 49
0000
0000
1000
0000
0100
0000
0001
0000
0100
0000
0010
0100
1000
0000
0001
0100
,  // measure 50
0000
0100
1000
0000
0100
0000
0001
1000
0000
0000
1000
0000
0001
0000
0100
0010
,  // measure 51
0000
0010
0001
0000
0010
0000
1000
0000
0001
0000
1000
0000
0100
1000
0000
0001
,  // measure 52
0000
0001
0010
0000
0001
0000
1000
0000
0001
0000
0100
0000
0100
0000
1000
0100
,  // measure 53
0001
1000
0010
0100
0001
1000
0100
0020
,  // measure 54
0000
0000
1030
0000
0010
0000
0002
0000
0010
0000
0013
0100
1000
0000
0001
0100
,  // measure 55
0000
0100
1000
0000
0100
0000
0010
0000
0100
0000
0001
0000
1000
0000
2002
0000
,  // measure 56
0003
0000
3100
0000
0010
0000
2002
0000
3000
0000
0013
0000
0001
0000
1000
0010
,  // measure 57
0000
0010
0001
0000
0010
0000
1000
0000
0100
0000
0001
0000
0100
0000
1000
0001
,  // measure 58
0000
0001
0100
0000
0010
0000
1000
0000
0001
0000
0100
0000
0100
0000
0001
0010
,  // measure 59
0000
0010
1000
0000
0010
0000
0001
0000
1000
0001
0100
0001
1000
0001
0000
0102
,  // measure 60
0000
0000
0000
0000
0000
0000
0000
0000
0000
0000
0000
0000
1003
0000
0000
1001
,  // measure 61
0000
1000
0100
0000
1000
0000
0001
0000
0010
0000
0100
0010
0100
0000
1000
0100
,  // measure 62
0000
0100
0001
0000
0200
0000
1000
0000
2300
0000
0001
0000
3002
0000
0000
0103
,  // measure 63
0000
0100
0001
0000
1000
0000
0001
0000
0100
0000
0010
0100
0001
1000
0000
1001
,  // measure 64
0000
0001
1000
0000
0100
0000
1000
0000
1100
0000
0000
0000
0110
0000
0000
2002
,  // measure 65
0000
0000
0000
0000
,  // measure 66
3003
0000
0000
0000
;
