#TITLE:SMSOU;
#SUBTITLE:;
#ARTIST:Eliminate & Frost Children;
#TITLETRANSLIT:;
#SUBTITLETRANSLIT:;
#ARTISTTRANSLIT:;
#GENRE:Bass House;
#CREDIT:;
#BANNER:SMSOU-bn.png;
#BACKGROUND:SMSOU-bg.png;
#LYRICSPATH:;
#CDTITLE:cdtitle.png;
#MUSIC:SMSOU.ogg;
#OFFSET:0.000000;
#SAMPLESTART:16.875000;
#SAMPLELENGTH:15.000000;
#SELECTABLE:YES;
#BPMS:0.000000=128.000000
;
#STOPS:
;
#BGCHANGES:0.000=SMSOU.avi=1.000=0=0=0=StretchNoLoop====,
99999=-nosongbg-=1.000=0=0=0 // don't automatically add -songbackground-
;
#KEYSOUNDS:;
#ATTACKS:;

//---------------dance-single - ----------------
#NOTES:
     dance-single:
     X-Scale 7:
     Easy:
     5:
     0.284376,0.344850,0.042656,0.042656,0.000000,280.000000,274.000000,6.000000,6.000000,0.000000,0.000000,0.284376,0.344850,0.042656,0.042656,0.000000,280.000000,274.000000,6.000000,6.000000,0.000000,0.000000:
// measure 0
0000
0000
0000
0000
,  // measure 1
0000
0000
0000
0000
,  // measure 2
0000
0000
0000
0000
,  // measure 3
0000
0000
0000
0000
,  // measure 4
0000
0000
0000
0000
,  // measure 5
0001
0000
1000
0000
0001
0010
0100
0000
,  // measure 6
1000
0001
0100
0010
,  // measure 7
1000
0000
0001
0000
1000
0100
0010
0000
,  // measure 8
0000
0000
0000
0000
,  // measure 9
0011
1000
0001
0100
,  // measure 10
0001
0000
1000
0000
0001
0010
0100
0000
,  // measure 11
1000
0010
1000
0001
,  // measure 12
1000
0000
0100
0000
0010
0100
1000
0000
,  // measure 13
0001
0100
0010
0100
,  // measure 14
0001
0000
0010
0000
0100
0010
0001
0000
,  // measure 15
1000
0001
0100
0001
,  // measure 16
1000
0000
0000
0000
0000
0100
0100
0000
,  // measure 17
1100
0000
1000
0001
0000
0100
0001
0000
,  // measure 18
1000
0000
0001
0010
0000
0100
1000
0000
,  // measure 19
0001
0000
0100
0001
0000
1000
0100
0000
,  // measure 20
1000
0000
0001
0010
0000
0100
0010
0000
,  // measure 21
0001
0000
1000
0010
0000
0100
0001
0000
,  // measure 22
0010
0000
0100
1000
0000
0001
0010
0000
,  // measure 23
0001
0000
1000
0100
0000
1000
0001
0000
,  // measure 24
1001
0000
0000
0000
,  // measure 25
1000
0001
1000
0001
,  // measure 26
0010
0100
0010
0100
,  // measure 27
1000
0100
0000
1000
0001
0000
0010
0100
,  // measure 28
0010
0000
0001
0000
1000
0001
1000
0000
,  // measure 29
0010
0100
0000
0001
0100
0000
0010
1000
,  // measure 30
0010
0000
1000
0000
0100
0010
0100
0000
,  // measure 31
1000
0001
0000
0100
0001
0000
1000
0001
,  // measure 32
1000
0000
0010
0000
0100
0010
0100
0000
,  // measure 33
0001
0010
0000
0100
1000
0000
0001
1000
,  // measure 34
0001
0020
0030
0010
0200
0000
0300
0000
,  // measure 35
1000
0000
0000
0000
,  // measure 36
0001
0000
0000
0000
,  // measure 37
0010
0000
0000
0000
,  // measure 38
0001
0000
0000
0000
,  // measure 39
1000
0000
0000
0000
,  // measure 40
0100
0000
0000
0000
,  // measure 41
0010
0000
0000
0000
,  // measure 42
0100
0000
0000
0000
,  // measure 43
1000
0001
0100
0001
,  // measure 44
1000
0100
1000
0001
,  // measure 45
0010
0100
0010
0001
,  // measure 46
0100
0001
0010
0100
,  // measure 47
1000
0001
1000
0010
,  // measure 48
0100
0010
1000
0001
,  // measure 49
0000
0000
0000
0000
,  // measure 50
0000
0000
0000
0000
,  // measure 51
0001
0100
0000
0010
1000
0000
0001
0000
,  // measure 52
1000
0100
0000
0010
0001
0000
1000
0000
,  // measure 53
0001
0100
0000
0010
1000
0000
0001
0000
,  // measure 54
0010
0001
0000
1000
0100
0000
0010
0000
,  // measure 55
0100
1000
0000
0001
0100
0000
0001
0000
,  // measure 56
1000
0010
0000
0100
0001
0000
1000
0000
,  // measure 57
0002
0003
0000
0200
,  // measure 58
0000
0300
0000
0000
,  // measure 59
1001
0000
0100
0000
1000
0100
1000
0000
,  // measure 60
0001
0000
0100
0000
0001
0100
0001
0000
,  // measure 61
1000
0000
0010
0000
1000
0010
1000
0000
,  // measure 62
0001
0000
0010
0000
0001
0010
0001
0000
,  // measure 63
1000
0000
0100
0000
0010
0100
0010
0000
,  // measure 64
0001
0000
1000
0000
0010
0100
0010
0000
,  // measure 65
1000
0000
0001
0000
0010
0001
0010
0000
,  // measure 66
0000
0100
0000
0100
0000
1000
0000
1000
,  // measure 67
1100
0000
1000
0000
0001
1000
0001
0000
,  // measure 68
0100
0000
0001
0000
1000
0001
1000
0000
,  // measure 69
0100
0000
0010
0000
0001
0010
0001
0000
,  // measure 70
0100
0000
0010
0000
1000
0010
1000
0000
,  // measure 71
0001
0000
0100
0000
0001
0100
0001
0000
,  // measure 72
1000
0000
0010
0000
1000
0010
1000
0000
,  // measure 73
0100
0000
0010
0000
0001
0010
0001
0000
,  // measure 74
0000
0000
0000
0000
0022
0033
0000
0000
;

//---------------dance-single - ----------------
#NOTES:
     dance-single:
     X-Scale 10:
     Medium:
     7:
     0.408282,0.530538,0.248829,0.149297,0.049766,402.000000,367.000000,35.000000,21.000000,0.000000,0.000000,0.408282,0.530538,0.248829,0.149297,0.049766,402.000000,367.000000,35.000000,21.000000,0.000000,0.000000:
// measure 0
0000
0000
0000
0000
,  // measure 1
0000
0000
0000
0000
,  // measure 2
0000
0000
0000
0000
,  // measure 3
0000
0000
0000
0000
,  // measure 4
0000
0000
0000
0000
,  // measure 5
0001
0010
0000
0010
0100
0000
1000
0100
,  // measure 6
1000
0001
0000
0001
0100
0000
0100
0010
,  // measure 7
1000
0100
0000
0100
0010
0000
0001
1000
,  // measure 8
0000
0000
0000
0000
,  // measure 9
1100
0100
1000
0001
1000
0010
0001
0010
,  // measure 10
1000
0000
1001
0000
0010
0001
0010
0000
,  // measure 11
0100
1000
0001
0100
0010
0001
1000
0100
,  // measure 12
0010
0000
1001
0000
0100
1000
0100
0000
,  // measure 13
1000
0001
0100
0010
0001
0010
0100
0001
,  // measure 14
1000
0000
1001
0000
0010
0001
0010
0000
,  // measure 15
0100
1000
0001
0100
1000
0100
0001
1000
,  // measure 16
1100
0000
0000
0000
0000
0001
0001
0000
,  // measure 17
1000
0100
0010
0002
0000
0013
0100
2000
,  // measure 18
0000
3010
0100
0002
0000
0013
0100
2000
,  // measure 19
0000
3001
0100
0020
0000
0031
0010
2000
,  // measure 20
0000
3010
1000
0002
0000
0103
0010
2000
,  // measure 21
0000
3100
0010
0002
0000
1003
0001
0200
,  // measure 22
0000
1300
0100
0020
0000
1030
0001
0200
,  // measure 23
0000
0310
0100
2000
0000
3100
0001
1000
,  // measure 24
1001
0000
0000
0100
0000
0000
1000
0000
0000
0000
0001
0000
0100
0000
0000
0000
,  // measure 25
0101
1100
0101
1100
,  // measure 26
1000
0100
0001
0100
1000
0000
0000
0000
,  // measure 27
0001
0000
0100
0000
0001
0000
1000
0000
0100
1000
0100
0000
0010
0000
0001
0000
,  // measure 28
0100
0000
0101
0000
0001
1000
0001
0000
,  // measure 29
1000
0000
0100
0000
0001
0000
0100
0000
1000
0100
1000
0000
0001
0000
0100
0000
,  // measure 30
0010
0000
1001
0000
0100
0001
1000
0000
,  // measure 31
0001
0000
0100
0000
1000
0000
0100
0000
0001
0100
0001
0000
1000
0000
0100
0000
,  // measure 32
0010
0000
0011
0000
1000
0001
0010
0000
,  // measure 33
0100
0000
1000
0000
0001
0000
1000
0000
0010
0100
0010
0000
1000
0000
0100
0000
,  // measure 34
0010
0001
0000
1000
0020
0000
0030
0000
,  // measure 35
0100
0000
0000
0010
0000
0000
0100
0000
,  // measure 36
0000
0000
0010
0000
0000
0000
0000
0000
1000
0000
0000
0100
0000
0000
0020
0000
,  // measure 37
0000
0030
0000
0001
0000
0000
1000
0000
,  // measure 38
0001
0000
0000
0100
0000
0000
0010
0000
,  // measure 39
1000
0000
0000
0001
0000
0000
1000
0000
,  // measure 40
0000
0001
0000
0000
0010
0000
0100
0010
,  // measure 41
0001
0000
0000
1000
0000
0000
0001
0000
,  // measure 42
1000
0000
0000
0100
0000
0000
1000
0000
,  // measure 43
0100
1100
1000
1001
,  // measure 44
0001
0101
0100
0110
,  // measure 45
0001
1001
0100
1100
,  // measure 46
1000
1010
0010
0110
,  // measure 47
0100
1001
0010
0011
,  // measure 48
0100
0101
0001
1001
,  // measure 49
0000
0000
0000
0000
,  // measure 50
0000
0000
0000
0000
,  // measure 51
0001
0100
0000
0001
1000
0001
0000
0100
,  // measure 52
0010
1000
0000
0001
0010
0000
0100
0010
,  // measure 53
0001
1000
0000
0010
1000
0000
0001
0010
,  // measure 54
0100
1000
0000
0001
0100
1000
0001
0010
,  // measure 55
1000
0000
1001
0000
0100
0001
0100
0000
,  // measure 56
0010
0000
1010
0000
1000
0001
1000
0000
,  // measure 57
0002
0003
0000
0000
,  // measure 58
2000
3000
0000
0000
,  // measure 59
1001
0000
0100
0000
1000
0100
1000
0000
,  // measure 60
0001
0000
0100
0000
0001
0100
0001
0000
,  // measure 61
0010
0000
0100
0000
1000
0100
1000
0000
,  // measure 62
0001
0000
0100
0000
0001
0100
0001
0000
,  // measure 63
1000
0100
0010
0000
0100
0010
0001
0000
,  // measure 64
0100
0001
1000
0000
0010
0100
0001
0000
,  // measure 65
0010
0100
1000
0000
0010
0100
0001
0000
,  // measure 66
1001
0000
1000
0000
0001
0000
1000
0010
0000
0000
0100
0000
0001
0010
0001
0000
,  // measure 67
0011
0010
1001
0000
1000
0100
0010
0000
,  // measure 68
0011
0000
1000
0000
1001
0000
0000
0000
0001
1000
0001
0000
0100
0000
0000
0000
,  // measure 69
0010
0000
1000
0000
0001
0000
1000
0000
0100
0010
0100
0000
1000
0000
0000
0000
,  // measure 70
0001
0000
0010
0000
1000
0000
0010
0000
0001
0010
0001
0000
1000
0000
0000
0000
,  // measure 71
0010
0000
0100
0000
0001
0000
1000
0000
0100
0010
0100
0000
1000
0000
0000
0000
,  // measure 72
0001
0000
0100
0000
0010
0000
1000
0000
0001
0100
0001
0000
1000
0000
0000
0000
,  // measure 73
0001
0000
0010
0000
0100
0000
1000
0000
0001
1000
0001
0000
2002
0000
0000
0000
,  // measure 74
3003
0000
0000
0000
0220
0330
0000
0000
;

//---------------dance-single - ----------------
#NOTES:
     dance-single:
     X-Scale 14:
     Hard:
     9:
     0.530158,0.636646,0.312813,0.156407,0.245274,522.000000,478.000000,44.000000,22.000000,0.000000,0.000000,0.530158,0.636646,0.312813,0.156407,0.245274,522.000000,478.000000,44.000000,22.000000,0.000000,0.000000:
// measure 0
0000
0000
0000
0000
,  // measure 1
0000
0000
0000
0000
,  // measure 2
0000
0000
0000
0000
,  // measure 3
0000
0000
0000
0000
,  // measure 4
0000
0000
0000
0000
,  // measure 5
1000
0000
0100
0000
1100
0000
1000
0000
0001
1000
0001
0000
0010
0000
1000
0000
,  // measure 6
0010
0000
0001
0000
0011
0000
0001
0000
1000
0001
1000
0000
0010
0000
0001
0000
,  // measure 7
0010
0000
1000
0000
1010
0000
0010
0000
0100
0010
0100
0000
0001
0000
0010
0000
,  // measure 8
0000
0000
0000
0000
0000
0000
0000
0000
0000
0000
0000
0000
1000
0001
1000
0001
,  // measure 9
1000
0100
0000
0100
0010
0001
0010
0100
,  // measure 10
1000
0000
1001
0000
0001
0100
0001
0000
,  // measure 11
0010
0100
0000
0100
1000
0001
1000
0100
,  // measure 12
0010
0000
1001
0000
0100
0001
0100
0000
,  // measure 13
0001
0010
0000
0010
0100
1000
0001
1000
,  // measure 14
0100
0000
1100
0000
1000
0001
1000
0000
,  // measure 15
0001
0100
0000
0100
0010
1000
0100
0010
,  // measure 16
0011
0000
0000
0000
0000
1000
1000
0000
,  // measure 17
1001
0001
0010
0200
0300
0100
0001
2000
,  // measure 18
3000
0001
1000
0200
0300
0100
0001
0020
,  // measure 19
0030
0100
1000
0020
0030
0010
0001
0200
,  // measure 20
0300
0001
0010
0200
0300
0100
0001
2000
,  // measure 21
3000
0100
0010
0002
0003
1000
0001
0200
,  // measure 22
0300
0001
0010
2000
3000
0001
0100
2000
,  // measure 23
3000
0010
1000
0200
0300
0100
0001
1000
,  // measure 24
1001
0000
0000
0110
0000
0000
1010
0000
0000
0000
1000
0000
0001
0000
1000
0000
,  // measure 25
1001
0011
0110
1100
,  // measure 26
1000
0000
0100
0000
0001
0000
0100
0000
1000
0000
0000
0000
0001
1000
0001
1000
,  // measure 27
0001
0000
0100
0000
0001
0000
0010
0000
0100
0010
0100
0000
1000
0000
0001
0000
,  // measure 28
1001
0100
0101
0001
0011
0010
0100
1000
,  // measure 29
0001
0000
0100
0000
1000
0000
0100
0000
0001
0100
0001
0000
1000
0000
0100
0000
,  // measure 30
1100
0001
1001
0100
0110
0010
1000
0001
,  // measure 31
1000
0000
0010
0000
0100
0000
0001
0000
0010
0100
0010
0000
0001
0000
1000
0000
,  // measure 32
1001
0100
1100
1000
1010
0001
1000
0100
,  // measure 33
0001
0000
1000
0000
0010
0000
0001
0000
0100
0001
0100
0000
0010
0000
0100
0000
,  // measure 34
0001
0020
0030
0100
2000
0001
3001
0000
,  // measure 35
1000
0000
0000
0100
0000
0000
1000
0000
0000
0100
0000
0000
1000
0000
0000
0100
,  // measure 36
0000
0000
1000
0000
0000
0100
0000
0000
0010
0000
0000
0001
0000
0000
0200
0000
,  // measure 37
0000
0000
0300
0100
0000
0000
0100
0000
,  // measure 38
0001
0000
0000
0001
0000
0000
0001
0000
,  // measure 39
0100
0000
0000
0001
0000
0000
0100
0000
0000
0001
0000
0000
0100
0000
0000
0002
,  // measure 40
0000
0000
0000
0003
0000
0000
0001
0100
0010
0000
1000
0000
0100
0010
0001
0000
,  // measure 41
2000
0000
3000
1000
0000
0000
1000
0000
,  // measure 42
0001
0000
0000
0001
0000
0000
0001
0000
,  // measure 43
1000
0000
0010
1000
0000
0000
0001
0000
0010
0001
0000
0000
1000
0000
0010
1000
,  // measure 44
0000
0000
0001
0000
0100
0000
0010
0000
1000
0000
0000
0100
0000
0000
0020
0000
,  // measure 45
0000
0030
0000
0010
0000
0000
0010
0100
,  // measure 46
1000
0000
0000
1000
0000
0000
1000
0000
,  // measure 47
0001
0000
0100
0001
0000
0000
1000
0000
0100
1000
0000
0000
0001
0000
0100
0001
,  // measure 48
0000
0000
1000
0000
0001
0000
0100
0000
0001
0000
0000
0000
0010
0100
1000
0000
,  // measure 49
0001
0000
0000
0000
0010
0100
1000
0000
0001
0000
0000
0000
0010
0100
1000
0000
,  // measure 50
0001
0000
0000
0000
0010
0100
1000
0000
0001
0100
0001
0100
0001
0000
0000
0000
,  // measure 51
0001
0000
0000
0000
1000
0100
0000
0001
0100
0000
1000
0001
0100
0000
0001
0000
,  // measure 52
0100
0101
1000
1100
,  // measure 53
0001
0000
0000
0000
1000
0010
0100
0000
0001
0000
0100
0001
1000
0000
0001
0000
,  // measure 54
0010
0011
1000
1010
,  // measure 55
0010
1000
0001
0010
1000
0001
0100
0010
,  // measure 56
0001
1000
0100
0010
1000
0010
0001
1000
,  // measure 57
0002
0000
0003
0000
0001
0100
0000
0010
1000
0000
0001
0100
0010
0100
0001
0000
,  // measure 58
1000
0000
0000
0000
0100
0010
0000
0001
1000
0000
0100
0010
0100
0000
1000
0000
,  // measure 59
1100
0000
0100
0000
1000
0000
0001
0000
0000
0100
0001
0000
0101
0000
0000
0000
,  // measure 60
1001
0000
0100
0000
1000
0000
0001
0000
0000
0100
0010
0000
0110
0000
0000
0000
,  // measure 61
1001
0000
0010
0000
0001
0000
1000
0000
0000
0010
0100
0000
0110
0000
0000
0000
,  // measure 62
0011
0000
0001
0000
1000
0000
0001
0000
0000
0100
0010
0000
0100
0000
0001
0000
,  // measure 63
0010
0000
1000
0000
0010
0000
0001
0000
1000
0001
1000
0000
0100
0000
0001
0000
,  // measure 64
0100
0000
0010
0000
1000
0000
0010
0000
0001
0010
0001
0000
1000
0000
0001
0000
,  // measure 65
0100
0000
0001
0000
1000
0000
0010
0000
1000
0100
1000
0000
0001
0000
0100
0000
,  // measure 66
1001
0000
0010
1000
0001
1000
0010
1000
0000
0001
0010
0100
0010
0001
0000
0000
,  // measure 67
0101
0000
0001
0000
1000
0000
0000
0000
0001
0100
0010
0000
0100
0000
0001
0000
,  // measure 68
0010
0000
0000
0000
0011
0000
0000
0000
1000
0100
0001
0000
0100
0000
0010
0000
,  // measure 69
0001
0000
1000
0000
1001
0000
0000
0000
0001
0010
0100
0000
0001
0000
0100
0000
,  // measure 70
1000
0000
0000
0000
1100
0000
0000
0000
1000
0001
1000
0000
0010
0100
0001
1000
,  // measure 71
0010
0000
0100
0000
0101
0000
0000
0000
1000
0010
1000
0000
0001
0000
0010
0000
,  // measure 72
0100
0000
0000
0000
1001
0000
0000
0000
0100
1000
0100
0000
1000
0000
0001
0000
,  // measure 73
0100
0000
0000
0000
0101
0000
0000
0000
0001
0100
0001
0000
1000
0000
0100
0000
,  // measure 74
0000
0000
0000
0000
2002
3003
0000
0000
;

//---------------dance-single - ----------------
#NOTES:
     dance-single:
     X-Scale 3:
     Beginner:
     2:
     0.104610,0.158895,0.014219,0.000000,0.000000,103.000000,101.000000,2.000000,0.000000,0.000000,0.000000,0.104610,0.158895,0.014219,0.000000,0.000000,103.000000,101.000000,2.000000,0.000000,0.000000,0.000000:
// measure 0
0000
0000
0000
0000
,  // measure 1
0000
0000
0000
0000
,  // measure 2
0000
0000
0000
0000
,  // measure 3
0000
0000
0000
0000
,  // measure 4
0000
0000
0000
0000
,  // measure 5
0001
0000
0000
0000
,  // measure 6
1000
0000
0000
0000
,  // measure 7
0001
0000
0000
0000
,  // measure 8
1000
0000
0000
0000
,  // measure 9
0001
0000
0100
0000
,  // measure 10
0001
0000
0100
0000
,  // measure 11
0010
0000
1000
0000
,  // measure 12
0010
0000
1000
0000
,  // measure 13
0100
0000
0010
0000
,  // measure 14
0100
0000
0010
0000
,  // measure 15
0001
0000
1000
0000
,  // measure 16
1001
0000
0000
0000
,  // measure 17
1000
0000
0000
0000
,  // measure 18
0100
0000
0000
0000
,  // measure 19
0010
0000
0000
0000
,  // measure 20
0001
0000
0000
0000
,  // measure 21
0100
0000
0000
0000
,  // measure 22
0010
0000
0000
0000
,  // measure 23
1000
0000
0000
0000
,  // measure 24
0001
0000
0000
0000
,  // measure 25
0010
0000
0000
0000
,  // measure 26
0100
0000
0000
0000
,  // measure 27
1000
0000
0001
0000
,  // measure 28
1000
0000
0001
0000
,  // measure 29
0100
0000
0010
0000
,  // measure 30
0100
0000
0010
0000
,  // measure 31
1000
0000
0100
0000
,  // measure 32
0010
0000
0100
0000
,  // measure 33
1000
0000
0001
0000
,  // measure 34
1000
0000
0000
0000
,  // measure 35
0001
0000
0000
0000
,  // measure 36
0010
0000
0000
0000
,  // measure 37
0100
0000
0000
0000
,  // measure 38
1000
0000
0000
0000
,  // measure 39
0010
0000
0000
0000
,  // measure 40
0100
0000
0000
0000
,  // measure 41
0001
0000
0000
0000
,  // measure 42
1000
0000
0000
0000
,  // measure 43
0100
0000
0000
0000
,  // measure 44
0010
0000
0000
0000
,  // measure 45
0001
0000
0000
0000
,  // measure 46
0100
0000
0000
0000
,  // measure 47
0010
0000
0000
0000
,  // measure 48
1000
0000
0000
0000
,  // measure 49
0001
0000
0000
0000
,  // measure 50
0000
0000
0000
0000
,  // measure 51
0000
1000
0000
1000
,  // measure 52
0000
0001
0000
0001
,  // measure 53
0000
0100
0000
0100
,  // measure 54
0000
0010
0000
0010
,  // measure 55
0000
1000
0000
1000
,  // measure 56
0000
0100
0000
0100
,  // measure 57
0000
0000
0000
0000
,  // measure 58
0000
0000
0000
0000
,  // measure 59
1001
0000
1000
0000
,  // measure 60
0100
0000
1000
0000
,  // measure 61
0001
0000
0100
0000
,  // measure 62
0001
0000
1000
0000
,  // measure 63
0001
0000
0010
0000
,  // measure 64
0100
0000
0010
0000
,  // measure 65
0001
0000
1000
0000
,  // measure 66
0001
0000
0000
0000
,  // measure 67
1000
0000
0010
0000
,  // measure 68
1000
0000
0001
0000
,  // measure 69
1000
0000
0010
0000
,  // measure 70
1000
0000
0001
0000
,  // measure 71
0010
0000
0100
0000
,  // measure 72
0010
0000
0001
0000
,  // measure 73
0010
0000
0100
0000
,  // measure 74
0000
0000
1000
0000
;
