#TITLE:SKY's the limit;
#SUBTITLE:;
#ARTIST:ぼくのりりっくのぼうよみ;
#TITLETRANSLIT:;
#SUBTITLETRANSLIT:;
#ARTISTTRANSLIT:Boku no Lyric no Bouyomi;
#GENRE:Tropical J-Pop;
#CREDIT:;
#BANNER:SKY's the limit-bn.png;
#BACKGROUND:SKY's the limit-bg.png;
#LYRICSPATH:;
#CDTITLE:cdtitle.png;
#MUSIC:SKY's the limit.ogg;
#OFFSET:-0.002000;
#SAMPLESTART:15.512000;
#SAMPLELENGTH:16.490000;
#SELECTABLE:YES;
#BPMS:0.000000=120.000000
;
#STOPS:
;
#BGCHANGES:
;
#KEYSOUNDS:;
#ATTACKS:;

//---------------dance-single - Original Summer Contest Heavy Chart----------------
#NOTES:
     dance-single:
     X-Scale 13:
     Challenge:
     9:
     0.526580,0.580257,0.142686,0.317080,0.523183,465.000000,447.000000,18.000000,40.000000,10.000000,0.000000,0.526580,0.580257,0.142686,0.317080,0.523183,465.000000,447.000000,18.000000,40.000000,10.000000,0.000000:
// measure 0
0000
0000
0000
0000
,  // measure 1
0000
0000
0000
0000
,  // measure 2
0000
0000
0000
0000
,  // measure 3
0000
0000
0000
0000
,  // measure 4
0002
0100
2003
0010
,  // measure 5
3002
0100
2003
0010
,  // measure 6
3002
0100
2003
0010
,  // measure 7
3002
0000
0000
0103
,  // measure 8
0201
0000
1000
0000
0301
0100
1000
0100
,  // measure 9
0010
0000
1000
0000
0001
0000
0010
0200
0000
0000
0000
0000
1300
0000
1000
0000
,  // measure 10
0001
0000
0100
0001
0000
0000
0010
0000
0100
0000
1000
0100
0000
0000
0010
0000
,  // measure 11
0100
0000
1000
0000
0001
0000
1000
0000
0020
0000
0030
0200
0000
0300
0002
0000
,  // measure 12
0203
0000
1000
0000
0301
0100
0010
0001
,  // measure 13
0010
0000
1000
0000
0001
0000
0010
0002
0000
0003
0002
0000
1003
0000
0100
0000
,  // measure 14
0010
0000
0001
0100
0000
0000
0010
0000
0100
0000
0001
1000
0001
0000
0001
0000
,  // measure 15
0202
0000
0000
0003
2000
0000
0000
3000
0020
0000
0000
0330
0LL0
0000
0000
0000
,  // measure 16
1010
1000
0000
0010
1000
0000
0001
1000
0100
1000
0000
0000
0100
0000
0010
0000
,  // measure 17
0001
0000
0000
1000
0010
0000
1000
0000
0001
0010
0000
0000
0100
0000
0010
0000
,  // measure 18
0001
0100
0000
0001
1000
0000
0001
0100
0001
1000
0000
0000
0001
0000
0100
0000
,  // measure 19
0010
0000
0000
1000
0001
0000
0100
0000
0001
0010
0000
0100
0010
0000
0001
0000
,  // measure 20
1000
0000
0010
0100
0000
0010
0000
0100
0000
0001
0000
1000
0000
0000
0100
1000
,  // measure 21
0100
0000
0010
0100
0000
1000
0000
0001
0000
0100
0000
0010
0000
0000
1000
0000
,  // measure 22
0001
0010
0M00
0010
1000
0000
1000
0100
00M0
0100
0001
0100
0001
0000
0010
0000
,  // measure 23
0001
0100
00M0
0100
1000
0000
1000
0010
0M00
0010
0001
0010
0001
0000
1000
0000
,  // measure 24
0001
0000
0010
0000
0100
0000
1000
0100
1000
0000
0010
0000
0001
0000
0010
0000
,  // measure 25
1000
0000
0100
0010
0000
0100
1000
0001
1000
0000
0010
0000
1000
0000
0001
0000
,  // measure 26
1000
0100
00M0
0100
0001
0000
0001
0010
0M00
0010
1000
0010
1000
0000
0100
0000
,  // measure 27
1000
0100
00M0
0100
0001
0000
0001
0010
0M00
0010
1000
0010
1000
0000
0100
0000
,  // measure 28
1010
0000
0010
0000
1000
0000
0001
0000
0010
0000
0000
1000
0000
0000
0010
0000
,  // measure 29
0001
0000
0100
0000
0010
0000
1000
0000
0100
0000
0000
0001
0000
0000
0100
0000
,  // measure 30
1000
0000
0001
0000
1000
0000
0010
0000
0001
0000
0000
0010
0000
0000
1000
0000
,  // measure 31
0010
0000
0100
0000
0010
0000
1000
0000
0100
0000
0000
0001
0000
0000
0100
0000
,  // measure 32
1000
0000
0001
0000
0100
0000
0001
0000
0010
0100
0000
0010
0100
0000
1000
0000
,  // measure 33
0001
0000
0100
0000
0010
0000
0100
0000
0001
1000
0000
0001
1000
0000
0100
0000
,  // measure 34
1000
0000
0001
0000
0100
0000
0010
0000
0100
0001
0000
0100
0001
0000
0010
0000
,  // measure 35
0200
0300
1100
0000
0002
0003
0021
0100
,  // measure 36
0000
0001
0000
0000
0100
0000
0000
0001
0030
0000
0000
0000
00LL
0000
0000
0000
,  // measure 37
0201
0000
1000
0000
0301
0100
1000
0100
,  // measure 38
0010
0000
1000
0000
0001
0000
0010
0200
0000
0000
0000
0000
1300
0100
1000
0000
,  // measure 39
0010
0000
0100
0001
0000
0000
0010
0000
0100
0000
0010
0001
0000
0000
1000
0000
,  // measure 40
0100
0000
0001
0000
1000
0000
0010
0000
0002
0000
0003
2000
0000
3000
0020
0000
,  // measure 41
0230
0000
1000
0000
0310
0100
0001
0010
,  // measure 42
1000
0000
0010
0000
0001
0000
1000
0200
0000
0300
0200
0000
1300
0000
0100
0000
,  // measure 43
0010
0000
0001
0100
0000
0000
0010
0000
1000
0000
0100
0010
0000
0000
0010
0000
,  // measure 44
0022
0000
0000
0003
2000
0000
0000
3000
0002
0000
0000
0033
00LL
0000
0000
0000
,  // measure 45
0110
0000
0010
0000
1000
0010
0000
0100
0000
0001
0000
0010
0M00
0010
1000
0001
,  // measure 46
1000
0000
0001
0000
0100
0010
0000
1000
0000
0100
0000
0010
0001
0010
0001
0000
,  // measure 47
1000
0000
0001
0010
0001
0100
0000
0010
0000
1000
0000
0001
0000
0100
0000
0010
,  // measure 48
0200
0000
0000
0000
1300
0000
0100
0000
0010
0000
0100
0000
0002
0000
0000
0003
,  // measure 49
1001
0000
1000
0001
0100
0010
0000
0100
0000
0001
0000
0010
0M00
0010
1000
0001
,  // measure 50
1000
0000
0010
0000
0100
0001
0000
0010
0000
0100
0000
1000
0000
0000
0010
1000
,  // measure 51
0001
0000
1000
0100
0000
0000
0010
0100
1000
0000
0001
1000
0000
0000
0001
0000
,  // measure 52
0201
0000
0000
0000
1000
0000
0000
0000
0010
0000
0000
0300
0LL0
0000
0000
0000
,  // measure 53
1010
1000
0000
0010
1000
0000
0001
0100
0001
1000
0000
0000
0001
0000
0010
0000
,  // measure 54
0100
0010
0000
0001
1000
0000
0010
1000
0001
0010
0000
0000
0100
0000
0010
0000
,  // measure 55
0100
1000
0000
0010
1000
0000
0001
0100
0010
0100
0000
0000
0001
0000
0010
0000
,  // measure 56
0100
0000
0000
0010
0001
0000
1000
0000
0010
1000
0000
0001
0100
0000
0010
0000
,  // measure 57
0110
0000
0000
0001
1000
0000
0010
0000
0100
0010
0000
0000
0001
0000
0010
0000
,  // measure 58
1000
0000
0000
0100
0010
0000
0100
0000
1000
0001
0000
0010
0100
0000
0010
0000
,  // measure 59
0001
0000
0000
1000
0100
0000
0010
0000
0001
0010
0000
0000
1000
0000
0010
0000
,  // measure 60
0002
0000
0000
0013
0200
0000
0001
0300
2000
0000
0000
3001
0100
0000
0100
0000
,  // measure 61
0101
0000
0000
0000
;

//---------------dance-single - ----------------
#NOTES:
     dance-single:
     X-Scale 9:
     Medium:
     6:
     0.368040,0.435193,0.055489,0.237810,0.182321,325.000000,318.000000,7.000000,30.000000,0.000000,0.000000,0.368040,0.435193,0.055489,0.237810,0.182321,325.000000,318.000000,7.000000,30.000000,0.000000,0.000000:
// measure 0
0000
0000
0000
0000
,  // measure 1
0000
0000
0000
0000
,  // measure 2
0000
0000
0000
0000
,  // measure 3
0000
0000
0000
0000
,  // measure 4
1200
0001
1000
0010
,  // measure 5
1300
0001
0010
0001
,  // measure 6
2000
0100
3002
0010
,  // measure 7
0203
0000
0000
0300
,  // measure 8
0110
0000
0100
0000
0001
1000
0001
0000
,  // measure 9
0100
0000
0010
0000
1000
0010
1000
0000
,  // measure 10
0100
0000
0010
0000
0001
0010
0001
0000
,  // measure 11
0100
0010
1000
0000
0001
0010
1000
0010
,  // measure 12
0001
0000
0100
0000
0010
0100
0001
0000
,  // measure 13
0010
0000
0100
0000
0010
0001
1000
0000
,  // measure 14
0010
0000
0100
0000
0010
1000
0001
1000
,  // measure 15
1100
0000
0100
0000
0010
0000
0001
1000
,  // measure 16
1001
0000
0001
0010
1000
0000
0001
0100
,  // measure 17
1000
0000
0001
0100
1000
0000
0001
0010
,  // measure 18
1000
0000
1000
0100
0001
0000
1000
0010
,  // measure 19
0001
0000
1000
0010
0001
0000
1000
0100
,  // measure 20
0002
0100
2003
0100
,  // measure 21
3020
0001
0230
1000
,  // measure 22
0302
0010
0203
1000
,  // measure 23
0320
0001
0230
1000
,  // measure 24
0301
0100
0001
0000
0010
0100
0010
0000
,  // measure 25
0001
0100
0001
0000
0010
0100
0010
0000
,  // measure 26
0001
1000
0001
0000
0100
0010
0100
0000
,  // measure 27
0001
1000
0001
0000
0100
0010
0100
0000
,  // measure 28
0110
0000
0000
0000
0010
0000
0100
0000
0001
0000
0000
0001
0000
0000
1000
0000
,  // measure 29
0100
0000
0000
0000
0010
0000
0100
0000
1000
0000
0000
1000
0000
0000
0001
0000
,  // measure 30
0100
0000
0000
0000
0010
0000
0100
0000
0001
0000
0000
0001
0000
0000
1000
0000
,  // measure 31
0001
0000
0000
0000
0010
0000
0100
0000
1000
0000
0000
1000
0000
0000
0010
0000
,  // measure 32
0100
0000
0000
0000
0010
0000
1000
0000
0001
0000
0000
0001
0000
0000
0010
0000
,  // measure 33
0100
0000
0000
0000
0010
0000
0001
0000
1000
0000
0000
1000
0000
0000
0001
0000
,  // measure 34
0100
0000
0000
0000
0010
0000
0100
0000
0001
0000
0000
0001
0000
0000
0010
0000
,  // measure 35
0200
0000
0000
1300
0002
0000
0000
0003
0200
0000
0000
0000
0320
0000
0000
0000
,  // measure 36
0000
0000
0000
0000
0030
0000
2000
3000
,  // measure 37
1020
0000
0001
0000
1030
0100
0010
0001
,  // measure 38
1000
0000
0001
0000
0100
0000
0010
0200
0000
0000
0000
0000
0301
0000
0100
0000
,  // measure 39
0010
0000
1000
0100
0010
0000
0001
0000
,  // measure 40
0100
0000
0000
0000
0001
0000
0010
0000
0100
0000
0000
0010
0000
0000
0001
0000
,  // measure 41
0200
0000
0010
0000
0310
0100
0001
1000
,  // measure 42
0100
0000
0001
0000
0100
0000
1000
0002
0000
0000
0000
0000
0013
0000
0100
0000
,  // measure 43
1000
0000
0001
1000
0010
0000
0100
0010
,  // measure 44
2000
0000
0000
0000
3200
0000
0000
0000
0302
0000
0003
0200
0000
0300
2000
0000
,  // measure 45
3100
0000
0000
0000
1000
0000
0000
0001
0000
0100
0000
0001
0000
0000
0010
0100
,  // measure 46
0010
0000
0001
0000
1000
0000
0000
0100
0000
1000
0000
0100
0000
0000
0000
0000
,  // measure 47
0010
0000
0001
0000
1000
0001
1000
0000
0010
0000
0100
0000
0001
0100
0001
0000
,  // measure 48
0020
0000
0130
0010
0001
1000
0020
0000
,  // measure 49
0130
0000
0000
0000
0001
0000
0000
0010
0000
0100
0000
0010
0000
0000
0001
1000
,  // measure 50
0001
0000
0100
0000
0010
0000
0000
1000
0000
0100
0000
1000
0000
0000
0001
0000
,  // measure 51
0100
0000
0010
0100
0000
0000
0001
0000
1000
0000
0100
0010
0000
0000
0100
0000
,  // measure 52
0200
0000
0000
0000
0000
2000
0300
3000
,  // measure 53
1100
0000
0000
1000
0000
0000
0001
0000
0000
1000
0000
0000
0100
0000
0010
0000
,  // measure 54
0100
0000
0000
1000
0000
0000
0001
0000
0000
0100
0000
0000
0010
0000
0100
0000
,  // measure 55
0010
0000
0000
1000
0000
0000
0001
0000
0000
0010
0000
0000
0100
0000
0010
0000
,  // measure 56
0100
0000
0000
1000
0000
0000
0001
0000
0000
0100
0000
0000
1000
0000
0100
0000
,  // measure 57
0001
0000
0000
1000
0000
0000
0001
0000
0000
0010
0000
0000
0100
0000
0010
0000
,  // measure 58
0001
0000
0000
1000
0000
0000
0100
0000
0000
0010
0000
0000
0100
0000
1000
0000
,  // measure 59
0100
0000
0000
0010
0000
0000
0001
0000
0000
0100
0000
0000
1000
0000
0100
0000
,  // measure 60
0001
0000
0000
0100
0000
0000
0010
0000
0000
0100
0000
0000
0001
0000
1000
0000
,  // measure 61
0001
0000
0000
0000
;

//---------------dance-single - ----------------
#NOTES:
     dance-single:
     X-Scale 2:
     Beginner:
     2:
     0.148348,0.192626,0.103051,0.277445,0.000000,131.000000,118.000000,13.000000,35.000000,0.000000,0.000000,0.148348,0.192626,0.103051,0.277445,0.000000,131.000000,118.000000,13.000000,35.000000,0.000000,0.000000:
// measure 0
0000
0000
0000
0000
,  // measure 1
0000
0000
0000
0000
,  // measure 2
0000
0000
0000
0000
,  // measure 3
0000
0000
0000
0000
,  // measure 4
0001
0000
1000
0000
,  // measure 5
0001
0000
1000
0000
,  // measure 6
0001
0000
1000
0000
,  // measure 7
0001
0000
0000
0000
,  // measure 8
0002
0000
0000
0000
0000
0000
0000
0003
,  // measure 9
0011
0000
0110
0000
,  // measure 10
0100
0000
0010
0000
,  // measure 11
1000
0000
0001
0000
,  // measure 12
2000
0000
0000
0000
0000
0000
0000
3000
,  // measure 13
1100
0000
0110
0000
,  // measure 14
0100
0000
0010
0000
,  // measure 15
0110
0000
0000
1001
,  // measure 16
0000
1000
0000
0001
,  // measure 17
0000
1000
0000
0001
,  // measure 18
0000
1000
0000
0001
,  // measure 19
0000
1000
0000
0000
,  // measure 20
0010
0000
0100
0000
,  // measure 21
0010
0000
0100
0000
,  // measure 22
0001
0000
0010
0000
,  // measure 23
0001
0000
0010
0000
,  // measure 24
0100
0000
1000
0000
,  // measure 25
0100
0000
1000
0000
,  // measure 26
0010
0000
0100
0000
,  // measure 27
0010
0000
0110
0000
,  // measure 28
0000
2000
0000
0001
,  // measure 29
0000
0010
0000
3002
,  // measure 30
0000
1000
0000
0010
,  // measure 31
0000
1003
0000
1001
,  // measure 32
0000
0200
0000
0010
,  // measure 33
0000
0001
0000
0320
,  // measure 34
0000
0100
0000
1000
,  // measure 35
0000
0130
0000
0220
,  // measure 36
0000
0000
0330
1001
,  // measure 37
2000
0000
3002
0000
,  // measure 38
2003
0000
3002
0100
,  // measure 39
2003
0000
3020
0000
,  // measure 40
0230
0000
0320
0100
,  // measure 41
2030
0000
3002
0000
,  // measure 42
2003
0000
3002
0100
,  // measure 43
2003
0000
3020
0000
,  // measure 44
0130
0010
1000
0001
,  // measure 45
L00L
0000
0200
0000
,  // measure 46
0320
0000
0230
0001
,  // measure 47
0302
0000
2003
0000
,  // measure 48
3002
0000
1003
0001
,  // measure 49
1001
0000
0020
0000
,  // measure 50
0230
0000
0320
1000
,  // measure 51
2030
0000
3002
0000
,  // measure 52
0203
0000
0020
0000
0000
0330
0LL0
0000
,  // measure 53
0000
1000
0000
0001
,  // measure 54
0000
1000
0000
0001
,  // measure 55
0000
0010
0000
0100
,  // measure 56
0000
0010
0000
0100
,  // measure 57
0000
1000
0000
0010
,  // measure 58
0000
1000
0000
0010
,  // measure 59
0000
0100
0000
0001
,  // measure 60
0000
0100
0000
0001
;

//---------------dance-single - ----------------
#NOTES:
     dance-single:
     X-Scale 5:
     Easy:
     3:
     0.284240,0.314306,0.063416,0.245737,0.000000,251.000000,243.000000,8.000000,31.000000,0.000000,0.000000,0.284240,0.314306,0.063416,0.245737,0.000000,251.000000,243.000000,8.000000,31.000000,0.000000,0.000000:
// measure 0
0000
0000
0000
0000
,  // measure 1
0000
0000
0000
0000
,  // measure 2
0000
0000
0000
0000
,  // measure 3
0000
0000
0000
0000
,  // measure 4
1001
1000
0001
1000
,  // measure 5
0001
0100
0001
0100
,  // measure 6
0001
1000
0001
1000
,  // measure 7
0200
0000
0000
0300
,  // measure 8
0120
0000
0001
0000
0000
0030
0001
0010
,  // measure 9
0100
0000
1000
0000
0001
0000
1000
0100
,  // measure 10
1000
0000
1000
0100
1000
0000
0001
0100
,  // measure 11
0001
0000
0010
0000
0100
0000
0010
0100
,  // measure 12
0020
0000
0001
0000
0000
0030
0001
0010
,  // measure 13
0100
0000
1000
0000
0001
0000
1000
0010
,  // measure 14
1000
0000
0010
0100
0010
0000
1000
0001
,  // measure 15
1000
0000
0000
0000
0000
0020
0000
0000
,  // measure 16
0130
0010
1000
0001
,  // measure 17
0100
0010
1000
0001
,  // measure 18
0010
0100
1000
0001
,  // measure 19
0010
0100
1000
0001
,  // measure 20
0200
0310
1000
0002
,  // measure 21
0023
0000
0130
0000
0010
0001
0020
0000
,  // measure 22
0230
1300
0001
0200
,  // measure 23
0320
0000
1030
0000
0002
0000
0013
0100
,  // measure 24
0010
0000
0001
1000
0001
0000
0100
0000
,  // measure 25
0010
0000
1000
0010
1000
0000
0001
0000
,  // measure 26
0100
0000
0010
0100
0010
0000
1000
0000
,  // measure 27
0100
0000
0010
0001
0010
0000
0001
0000
,  // measure 28
0021
0100
0000
0130
,  // measure 29
0010
0000
0001
0000
0000
1000
0001
1000
,  // measure 30
0000
1000
0001
1000
0000
0010
0100
0001
,  // measure 31
0010
0100
0010
0001
,  // measure 32
2000
0010
0000
3010
,  // measure 33
1000
0000
0001
0000
0000
0100
0010
0100
,  // measure 34
0000
0001
0100
0001
0000
0010
0100
1000
,  // measure 35
0001
0100
0010
2000
,  // measure 36
0000
0000
3000
0000
,  // measure 37
1200
0000
0310
0100
,  // measure 38
1000
0001
1000
0000
0010
0000
1000
0001
,  // measure 39
1000
0000
1000
0001
1000
0000
0100
0000
,  // measure 40
0010
0000
0100
0000
1000
0000
0001
0010
,  // measure 41
0002
0000
0103
0001
,  // measure 42
1000
0000
0001
0000
0010
0100
1000
0001
,  // measure 43
1000
0000
0010
0100
0010
0000
1000
0000
,  // measure 44
0200
0000
0320
0000
0032
0000
1003
0001
,  // measure 45
2001
0100
0000
3100
,  // measure 46
0010
0000
0001
0000
0100
0000
0010
0100
,  // measure 47
0002
1000
0000
1003
,  // measure 48
0002
0000
0013
1000
0010
0001
0100
0000
,  // measure 49
0200
0001
0000
0301
,  // measure 50
0100
0000
0010
0000
1000
0000
0100
0010
,  // measure 51
0001
0011
0100
1010
,  // measure 52
1001
0000
0000
0000
0000
0200
0000
0000
,  // measure 53
1300
0100
0010
0001
,  // measure 54
1000
0000
0100
0000
0010
0001
1000
0001
,  // measure 55
0010
0100
1000
0001
,  // measure 56
0010
0200
0320
0032
,  // measure 57
1003
0010
0100
0001
,  // measure 58
1000
0010
0100
0001
,  // measure 59
0010
0100
1000
0001
,  // measure 60
0010
0200
0320
0032
,  // measure 61
0003
0000
0000
0000
;

//---------------dance-single - ----------------
#NOTES:
     dance-single:
     X-Scale 11:
     Hard:
     8:
     0.493739,0.531902,0.095124,0.134759,0.289336,436.000000,424.000000,12.000000,17.000000,0.000000,0.000000,0.493739,0.531902,0.095124,0.134759,0.289336,436.000000,424.000000,12.000000,17.000000,0.000000,0.000000:
// measure 0
0000
0000
0000
0000
,  // measure 1
0000
0000
0000
0000
,  // measure 2
0000
0000
0000
0000
,  // measure 3
0000
0000
0000
0000
,  // measure 4
0011
0000
0010
0000
0100
0000
1000
0100
1000
0000
0010
0000
0001
0000
1000
0000
,  // measure 5
0100
0000
0001
0000
1000
0000
0010
1000
0010
0000
0100
0000
1000
0000
0100
0000
,  // measure 6
0001
0000
0010
0000
0100
0000
0010
0100
0010
0000
0001
0000
1000
0000
0010
0000
,  // measure 7
2020
0000
0000
3030
,  // measure 8
1001
1000
0001
1000
0100
1000
0001
1000
,  // measure 9
0100
0000
0001
0000
0100
0000
1000
0002
0000
0000
0000
0000
0013
0000
0100
0000
,  // measure 10
1000
0000
0001
1000
0000
0000
0100
0000
0010
0000
0100
1000
0000
0000
0001
0000
,  // measure 11
0010
0000
1000
0000
0010
0000
0100
0000
1000
0000
0000
0100
0000
0000
0010
0000
,  // measure 12
0001
0100
1000
0100
0001
0100
1000
0100
,  // measure 13
0001
0000
1000
0000
0010
0000
0100
0020
0000
0000
0000
0000
0031
0000
0010
0000
,  // measure 14
1000
0000
0100
0010
0000
0000
0001
0000
1000
0000
0100
0010
0100
0000
0100
0000
,  // measure 15
0110
0000
1000
0000
0001
0000
0010
0100
,  // measure 16
0010
0001
0000
1000
0001
0000
0010
0100
0010
0100
0000
0000
1000
0000
0010
0000
,  // measure 17
0001
0000
0000
0010
0100
0000
0010
0000
1000
0001
0000
0000
0100
0000
0010
0000
,  // measure 18
1000
0100
0000
0010
0100
0000
1000
0001
0100
0010
0000
0000
0100
0000
0001
0000
,  // measure 19
0010
0000
0000
0100
0010
0000
0100
0000
1000
0001
0000
0000
0100
0000
0001
0000
,  // measure 20
0101
0100
1000
0100
0010
0100
0001
0000
,  // measure 21
0010
0100
1000
0001
1000
0010
0100
0000
,  // measure 22
0001
0010
0000
0100
1000
0000
0001
0010
0000
0100
1000
0000
0001
0000
1000
0000
,  // measure 23
0001
0010
0000
0100
1000
0000
0001
0010
0000
0100
1000
0000
0001
0000
1000
0000
,  // measure 24
0100
0001
0100
0010
0100
1000
0001
0100
,  // measure 25
1000
0100
0010
0100
0001
0010
0100
0000
,  // measure 26
1000
0010
0000
0100
0001
0000
1000
0010
0000
0100
0001
0000
1000
0000
0001
0000
,  // measure 27
1000
0010
0000
0100
0001
0000
1000
0010
0000
0100
0001
0000
1000
0000
0001
0000
,  // measure 28
0201
0000
0000
0000
1000
0000
0000
0000
0010
0000
0000
0001
0000
0000
0010
0000
,  // measure 29
0310
0000
0000
0000
1000
0000
0001
0000
0010
0000
0000
0100
0000
0000
0010
0000
,  // measure 30
0001
0000
0000
0000
1000
0000
0001
0000
0100
0000
0000
0010
0000
0000
0100
0000
,  // measure 31
0001
0000
0000
0000
0010
0000
0100
0000
1000
0000
0000
0001
0000
0000
1000
0000
,  // measure 32
0200
0000
0000
0000
0001
0000
0000
0000
1000
0000
0000
0010
0000
0000
1000
0000
,  // measure 33
0310
0000
0000
0000
0001
0000
0010
0000
0100
0000
0000
0001
0000
0000
0100
0000
,  // measure 34
0010
0000
0000
0000
0001
0000
1000
0000
0100
0000
0000
0010
0000
0000
0100
0000
,  // measure 35
1000
0000
0000
0010
0100
0000
0010
0000
1000
0000
0001
0000
0100
0000
0001
1000
,  // measure 36
0000
0001
1000
0000
0001
1000
0000
0000
0002
0000
0000
0000
0010
0000
0000
0000
,  // measure 37
0203
0000
1000
0000
0310
0100
0001
0010
,  // measure 38
1000
0000
0010
0000
0001
0000
0100
0020
0000
0000
0000
0000
0031
0000
0010
0000
,  // measure 39
1000
0000
0001
0100
0000
0000
0010
0000
0100
0000
0001
1000
0000
0000
0100
0000
,  // measure 40
0010
0000
0100
0000
1000
0000
0001
0000
0010
0000
0000
0100
0000
0000
1000
0000
,  // measure 41
0200
0000
0001
0000
1300
0100
0001
0100
,  // measure 42
1000
0000
0010
0000
0100
0000
0001
0020
0000
0000
0000
0000
1030
0000
0010
0000
,  // measure 43
0001
0000
0100
0001
0000
0000
0010
0000
0100
0000
1000
0010
0000
0000
1000
0000
,  // measure 44
1001
0000
0000
0000
0110
0000
0000
0000
1001
0000
0000
1000
0000
0000
0100
0000
,  // measure 45
1100
1000
0100
0001
0100
1000
0100
0001
,  // measure 46
0100
1000
0001
1000
0100
1000
0001
1000
,  // measure 47
0100
0010
0001
1000
0100
0010
0001
1000
,  // measure 48
0002
0000
0013
1000
0001
0100
2000
0000
,  // measure 49
3001
0100
1000
0100
0001
0100
1000
0100
,  // measure 50
0001
0010
0100
0010
0001
0010
0100
0010
,  // measure 51
0001
0000
1000
0100
0000
0000
0010
0100
0010
0000
0001
1000
0000
0000
1000
0000
,  // measure 52
1100
0000
0100
0000
0001
0000
1000
0000
0010
0000
0001
0000
0100
0000
0010
0100
,  // measure 53
0001
1000
0000
0010
1000
0000
0100
0010
0100
0010
0000
0000
0001
0000
0010
0000
,  // measure 54
0100
0000
0000
1000
0100
0000
1000
0000
0001
0100
0000
0000
0010
0000
0100
0000
,  // measure 55
0001
0010
0000
0100
0010
0000
0001
1000
0001
0100
0000
0000
1000
0000
0100
0000
,  // measure 56
0001
0000
0000
0010
0100
0000
0010
0000
0001
1000
0000
0000
0100
0000
0010
0000
,  // measure 57
0101
0001
1000
0000
0010
1000
0001
0000
,  // measure 58
0100
0001
1000
0000
0100
1000
0001
0010
,  // measure 59
0100
0000
1000
0100
0010
0000
0100
0010
,  // measure 60
0002
0023
0230
2300
,  // measure 61
3000
0000
0000
0000
;
