#VERSION:0.83;
#TITLE:Rowdy;
#SUBTITLE:;
#ARTIST:Ponicz;
#TITLETRANSLIT:;
#SUBTITLETRANSLIT:;
#ARTISTTRANSLIT:;
#GENRE:Riddim;
#ORIGIN:;
#CREDIT:;
#BANNER:rowdy-bn.png;
#BACKGROUND:rowdy-bg.png;
#PREVIEWVID:;
#JACKET:rowdy-jacket.png;
#CDIMAGE:;
#DISCIMAGE:;
#LYRICSPATH:;
#CDTITLE:cdtitle.png;
#MUSIC:rowdy.ogg;
#OFFSET:-0.025000;
#SAMPLESTART:30.942001;
#SAMPLELENGTH:12.000000;
#SELECTABLE:YES;
#BPMS:0.000=70.000;
#STOPS:44.000=0.980;
#DELAYS:;
#WARPS:36.000=8.000;
#TIMESIGNATURES:0.000=4=4;
#TICKCOUNTS:0.000=4;
#COMBOS:0.000=1;
#SPEEDS:0.000=1.000=0.000=0;
#SCROLLS:0.000=1.000,
28.500=0.900,
29.000=0.800,
29.500=0.700,
30.000=0.600,
30.500=0.500,
31.000=0.400,
31.500=0.300,
32.000=0.200,
33.583=0.100,
36.000=4.000,
44.000=1.000,
58.000=0.500,
59.000=1.000,
71.000=0.200,
72.000=0.400,
73.000=0.600,
74.000=0.800,
75.000=1.000,
91.000=0.500,
92.000=1.000,
99.000=0.500,
100.000=1.000,
104.500=0.250,
106.375=0.300,
106.500=0.400,
106.625=0.500,
106.750=0.600,
106.875=0.750,
107.000=1.000;
#FAKES:;
#LABELS:0.000=Song Start;
#BGCHANGES:;
#KEYSOUNDS:;
#ATTACKS:
;

//---------------dance-single - ----------------
#NOTEDATA:;
#CHARTNAME:;
#STEPSTYPE:dance-single;
#DESCRIPTION:;
#CHARTSTYLE:;
#DIFFICULTY:Medium;
#METER:6;
#RADARVALUES:0.232697,0.338721,0.281534,0.040219,0.020110,162.000000,134.000000,28.000000,4.000000,9.000000,0.000000,8.000000,0.000000,0.000000,0.232697,0.338721,0.281534,0.040219,0.020110,162.000000,134.000000,28.000000,4.000000,9.000000,0.000000,8.000000,0.000000,0.000000;
#CREDIT:;
#NOTES:
0000
0000
0000
0000
,
0000
0000
0000
0000
,
0000
0000
0000
0000
,
0000
0000
0000
0000
,
0000
0000
0000
0000
,
0110
0100
0010
1000
,
0001
0000
1000
0000
,
2002
0000
0000
0000
,
3003
0000
0000
0000
0000
0000
0000
0000
0000
0000
0000
0000
0000
0000
0000
0000
0000
0000
0000
MMMM
0000
0000
0000
0000
0000
0000
0000
0000
0000
0000
0000
0000
0000
0000
0000
0000
0000
0000
0000
0000
0000
0000
0000
0000
0000
0000
0000
0000
,
0000
0000
0000
0000
,
0000
0000
0000
0000
,
0000
0000
1010
0000
0100
0010
0100
0000
,
1000
0100
0010
0000
0101
0101
0101
0000
,
0010
0100
1000
0000
0100
0010
0001
0000
,
0100
1000
0020
0M00
0130
0100
0110
0000
,
0100
0001
0011
0000
0001
1000
1100
0000
,
0100
0010
0110
0000
1010
0101
0110
0000
,
0100
0010
0001
0000
0010
0100
0020
0000
,
0130
0000
0010
0001
0010
0000
0100
1000
0000
0000
0000
0000
1001
0000
0000
0000
,
0010
1000
0100
0010
0001
0010
0001
0100
,
0010
1000
0100
1000
0010
0100
0001
0010
,
0100
1000
0010
1000
0100
0001
0100
1000
,
0001
0010
1000
0010
0001
0010
0101
1000
,
1010
1000
0001
1000
1000
0010
0100
0001
,
0010
1000
0010
0001
1001
1001
1001
0000
,
1000
0100
0001
0100
1000
0001
0100
0010
,
1000
0000
MMMM
0000
0000
0000
0000
0000
0000
0000
0000
0000
0400
0000
0000
0300
,
0010
0000
0001
0000
4010
0000
0000
3000
0100
0000
1000
0000
1040
0000
0000
0030
,
0100
0000
0010
0000
0014
0000
0000
0003
0101
0000
0101
0000
0401
0000
0000
0300
,
0010
0000
0100
0000
4001
0000
0000
3000
0010
0000
1000
0000
0140
0000
0000
0030
,
0100
0000
0010
0000
0104
0000
0000
0003
0000
1000
0001
0000
0000
0000
0000
0000
;

//---------------dance-single - ----------------
#NOTEDATA:;
#CHARTNAME:;
#STEPSTYPE:dance-single;
#DESCRIPTION:;
#CHARTSTYLE:;
#DIFFICULTY:Hard;
#METER:9;
#RADARVALUES:0.361973,0.631253,0.251370,0.020110,0.331808,252.000000,227.000000,25.000000,2.000000,22.000000,0.000000,10.000000,0.000000,0.000000,0.361973,0.631253,0.251370,0.020110,0.331808,252.000000,227.000000,25.000000,2.000000,22.000000,0.000000,10.000000,0.000000,0.000000;
#CREDIT:;
#NOTES:
// measure 0
0000
0000
0000
0000
,  // measure 1
0000
0000
0000
0000
,  // measure 2
0000
0000
0000
0000
,  // measure 3
0000
0000
0000
0000
,  // measure 4
0000
0000
0000
0000
,  // measure 5
1010
0000
0001
0010
0100
1000
0001
1000
,  // measure 6
0100
1000
0010
1000
0001
0010
0100
0010
,  // measure 7
0440
0000
0000
0000
,  // measure 8
0330
0000
0000
0000
0000
0000
0000
0000
0000
0000
0000
0000
0000
0000
0000
0000
0000
0000
0000
MMMM
0000
0000
0000
0000
0000
0000
0000
0000
0000
0000
0000
0000
0000
0000
0000
0000
0000
0000
0000
0000
0000
0000
0000
0000
0000
0000
0000
0000
,  // measure 9
0000
0000
0000
0000
,  // measure 10
0000
0000
0000
0000
,  // measure 11
0000
0000
MMMM
0000
1001
0000
0001
0100
0001
0000
1000
0000
0010
0000
0100
0001
,  // measure 12
1000
0000
0100
0000
0010
0000
1000
0010
0101
0000
M11M
0000
0101
0000
0010
1000
,  // measure 13
0010
0000
0100
0000
0001
0000
0100
0010
0100
0000
0001
0000
0010
0000
0001
0010
,  // measure 14
0100
0000
0000
0000
1000
0000
0000
0000
0020
0000
0000
0000
0100
0000
1000
0000
0030
0000
0100
0000
1000
0000
0000
0000
0100
0000
0000
0000
1000
0001
1000
0001
,  // measure 15
1000
0000
0000
0000
0010
0100
0010
0100
0010
0000
0000
0000
0100
0001
0100
0001
0100
0000
0000
0000
1000
0010
1000
0010
1000
0000
0000
0000
0001
0100
0001
0100
,  // measure 16
0001
0000
0000
0000
0001
0010
0100
1000
0001
0000
0000
0000
1000
0100
1000
0100
1100
0000
0000
0000
1MM1
0000
0000
0000
1100
0000
0000
0000
1000
0001
0100
0001
,  // measure 17
1000
0000
0000
0000
0010
0000
0000
0000
1000
0000
0000
0000
0001
1000
0010
1000
0001
0000
0000
0000
0001
0000
0000
0000
2000
0000
0000
0000
0000
0000
0000
0000
,  // measure 18
3100
0000
0010
0001
0010
0000
0100
1000
0000
0100
0010
0000
0110
0100
1000
0000
,  // measure 19
0010
0000
1000
0010
0100
0000
0010
1000
0001
0000
0010
0100
1000
0000
0100
0000
,  // measure 20
0010
0000
0010
0100
0010
0000
0001
0010
1000
0000
0100
0001
0100
0010
1000
0000
,  // measure 21
1000
0000
0100
1000
0010
0000
1000
0010
0001
0000
0001
0100
1000
0000
0100
0000
,  // measure 22
1000
0000
0010
0100
0001
0000
0001
1000
0010
0000
0010
0000
0101
0001
0100
0000
,  // measure 23
M1M1
0000
0100
0001
0010
0000
0001
1000
0100
0000
1000
0010
1000
0000
0100
0000
,  // measure 24
0010
0000
0001
0100
0001
0000
0010
0100
1001
0000
1M1M
0000
1001
0001
1000
0001
,  // measure 25
1000
0000
0001
0100
0010
0000
0010
1000
0001
0000
1000
0001
0100
0010
0001
0000
,  // measure 26
0100
MMMM
0000
0000
0000
0000
1004
0100
,  // measure 27
1003
0001
4010
0100
3010
1000
1040
0100
,  // measure 28
1030
0000
0000
0000
0010
0000
0000
0000
0410
0000
0000
0000
0001
0000
0000
0300
0101
0000
0000
0000
1MM1
0000
0000
0000
0401
0000
0000
0000
0010
0000
0010
0000
,  // measure 29
0310
0000
0100
0000
4001
0000
0100
0000
3010
0000
1000
0000
0140
0000
0001
0030
,  // measure 30
0100
0000
0010
0000
0104
0000
0000
0000
0003
0001
0100
0000
0000
0000
0000
0000
;

//---------------dance-single - ----------------
#NOTEDATA:;
#CHARTNAME:;
#STEPSTYPE:dance-single;
#DESCRIPTION:;
#CHARTSTYLE:;
#DIFFICULTY:Easy;
#METER:3;
#RADARVALUES:0.136458,0.214670,0.080438,0.060329,0.005027,95.000000,87.000000,8.000000,6.000000,4.000000,0.000000,0.000000,0.000000,0.000000,0.136458,0.214670,0.080438,0.060329,0.005027,95.000000,87.000000,8.000000,6.000000,4.000000,0.000000,0.000000,0.000000,0.000000;
#CREDIT:;
#NOTES:
0000
0000
0000
0000
,
0000
0000
0000
0000
,
0000
0000
0000
0000
,
0000
0000
0000
0000
,
0000
0000
0000
0000
,
0110
0000
0100
0000
,
0010
0000
0001
0000
,
0022
0000
0000
0000
,
0033
0000
0000
0000
0000
0000
0000
0000
0000
0000
0000
0000
0000
0000
0000
0000
0000
0000
0000
MMMM
0000
0000
0000
0000
0000
0000
0000
0000
0000
0000
0000
0000
0000
0000
0000
0000
0000
0000
0000
0000
0000
0000
0000
0000
0000
0000
0000
0000
,
0000
0000
0000
0000
,
0000
0000
0000
0000
,
0000
1001
1000
0001
,
1000
0000
0010
0000
0010
0010
0010
0000
,
1000
0001
0100
0010
,
1000
2000
0000
3001
,
1000
0100
0010
0001
,
0010
0000
0100
0000
0100
0100
0100
0000
,
1000
0001
0001
2000
,
0100
0000
0000
0000
0010
0000
0000
0000
0001
0000
0000
3000
1001
0000
0000
0000
,
0010
0100
0001
1000
,
0010
0100
0010
1000
,
0100
0010
0001
1000
,
0001
1000
0001
1001
,
0110
0000
0100
0000
0001
0000
0010
0100
,
1000
0000
1000
0000
0001
0100
0101
0000
,
1001
0000
0001
0000
1000
0100
1000
0010
,
0100
0020
0000
0000
0000
0000
0130
0000
,
0010
1000
0100
1000
,
0010
0000
0100
0000
0001
1000
0001
0000
,
0010
1000
0010
0001
,
0001
0200
0300
0000
;
