#TITLE:Robotics;
#SUBTITLE:;
#ARTIST:Mizca;
#TITLETRANSLIT:;
#SUBTITLETRANSLIT:;
#ARTISTTRANSLIT:;
#GENRE:J-Electropop;
#CREDIT:;
#BANNER:Robotics-bn.png;
#BACKGROUND:Robotics-bg.png;
#LYRICSPATH:;
#CDTITLE:cdtitle.png;
#MUSIC:Robotics.ogg;
#OFFSET:-0.121000;
#SAMPLESTART:54.273998;
#SAMPLELENGTH:15.544000;
#SELECTABLE:YES;
#BPMS:0.000000=124.000000
;
#STOPS:
;
#BGCHANGES:0.000=Robotics.avi=1.000=1=0=0=StretchNoLoop==CrossFade==,
99999=-nosongbg-=1.000=0=0=0 // don't automatically add -songbackground-
;
#KEYSOUNDS:;
#ATTACKS:;

//---------------dance-single - ----------------
#NOTES:
     dance-single:
     X-Scale 2:
     Beginner:
     1:
     0.110123,0.152689,0.019766,0.000000,0.000000,78.000000,76.000000,2.000000,0.000000,0.000000,0.000000,0.110123,0.152689,0.019766,0.000000,0.000000,78.000000,76.000000,2.000000,0.000000,0.000000,0.000000:
0000
0000
0000
0000
,
0000
0000
0000
0000
,
0000
0000
0000
0000
,
0000
0000
0000
0000
,
1000
0000
0100
0000
,
0010
0000
0001
0000
,
0100
0000
0010
0000
,
1000
0000
0001
0000
,
0010
0000
0100
0000
,
1000
0000
0010
0000
,
0100
0000
0001
0000
,
1000
0000
0000
0000
,
0001
0000
0000
0000
,
1000
0000
0000
0000
,
0010
0000
0000
0000
,
1000
0000
0000
0000
,
0001
0000
0000
0000
,
0010
0000
0000
0000
,
0100
0000
0000
0000
,
1000
0000
0000
0000
,
0001
0000
0100
0000
,
0001
0000
1000
0000
,
0100
0000
0010
0000
,
0001
0000
1000
0000
,
0001
0000
0100
0000
,
0010
0000
0100
0000
,
0001
0000
1000
0000
,
0001
0000
0000
0000
,
1001
0000
1000
0000
,
0010
0000
1000
0000
,
0001
0000
0010
0000
,
0100
0000
1000
0000
,
0100
0000
0010
0000
,
0001
0000
1000
0000
,
0010
0000
1000
0000
,
0001
0000
0100
0000
,
0001
0000
0000
0001
,
0000
1000
0000
0010
,
0000
1000
0000
0001
,
0000
0100
0000
0001
,
0000
0000
0000
1000
,
0000
0100
0000
1000
,
0000
0001
0000
1000
,
0000
0000
0000
0000
,
1001
0000
0000
0000
,
1000
0000
0000
0000
,
0001
0000
0000
0000
,
1000
0000
0000
0000
,
0001
0000
0000
0000
,
0010
0000
0000
0000
,
0100
0000
0000
0000
,
0010
0000
0010
0000
;

//---------------dance-single - ----------------
#NOTES:
     dance-single:
     X-Scale 5:
     Easy:
     3:
     0.290836,0.308343,0.079062,0.197656,0.000000,206.000000,198.000000,8.000000,20.000000,0.000000,0.000000,0.290836,0.308343,0.079062,0.197656,0.000000,206.000000,198.000000,8.000000,20.000000,0.000000,0.000000:
0000
0000
0000
0000
,
0000
0000
0000
0000
,
0000
0000
0000
0000
,
0000
0000
0000
0000
,
1000
0100
0000
1000
0000
0001
0000
0100
,
0010
0100
0000
0001
0000
0010
0000
0100
,
1000
0100
0000
0010
0000
0001
0000
1000
,
0010
1000
0002
0000
0013
0100
2000
0000
,
3010
1000
0000
0001
0000
0010
0000
0100
,
0010
0100
0000
1000
0000
0001
0000
0100
,
0010
0100
0000
0001
0000
0010
0000
0001
,
1000
0001
0200
0000
0310
0000
0010
0000
,
1001
0000
1000
0000
0001
0100
0001
0000
,
0010
0000
0100
0000
1000
0100
1000
0000
,
0010
1000
0100
0010
,
0001
0000
0100
0010
0200
0000
0301
0000
,
0100
0000
0010
0000
1000
0100
1000
0000
,
0001
0000
0010
0000
0100
0010
0100
0000
,
0010
0001
1000
0010
,
1000
0000
0100
0010
0200
0000
1300
0000
,
0001
0100
0001
1000
,
0010
1000
0100
0010
,
0100
1000
0001
0100
,
0001
1000
0001
0100
,
0010
0100
0001
1000
,
0001
0010
0001
1000
,
0001
0010
0100
1000
,
0010
0000
0100
0001
0200
0000
0310
0000
,
1001
1000
0010
1000
,
0001
0000
0010
0000
0100
0010
0100
0000
,
1000
0001
1000
0010
,
1000
0000
0001
0000
0010
0100
0010
0000
,
0001
1000
0010
1000
,
0100
0000
0010
0000
0001
0100
0001
0000
,
0101
0000
1001
0000
,
1100
1000
0001
0100
,
0200
0300
0200
0300
0200
0310
1000
0000
,
0001
0000
0100
0000
0010
0100
0010
0000
,
1000
0000
0001
0000
0100
0000
0001
0100
,
0001
0000
0010
0000
0100
1000
0100
0000
,
0020
0030
0020
0030
0020
0031
1000
0000
,
0001
0000
0100
0000
0001
0100
0001
0000
,
0101
0000
1001
0000
,
0000
0000
0000
0000
,
0110
0000
0000
0000
,
1000
0010
0100
0001
,
0010
0100
1000
0010
,
0100
0001
1000
0001
,
0000
2000
3000
0002
,
0003
0200
0300
0020
,
0030
2000
3000
0002
,
0003
0200
0302
0000
,
0003
0000
0000
0000
;

//---------------dance-single - ----------------
#NOTES:
     dance-single:
     X-Scale 8:
     Medium:
     6:
     0.369899,0.384502,0.079062,0.098828,0.000000,262.000000,254.000000,8.000000,10.000000,0.000000,0.000000,0.369899,0.384502,0.079062,0.098828,0.000000,262.000000,254.000000,8.000000,10.000000,0.000000,0.000000:
0000
0000
0000
0000
,
0000
0000
0000
0000
,
0000
0000
0000
0000
,
0000
0000
0000
0000
,
0001
0000
1000
0100
1000
0000
0001
0000
,
0010
0000
0100
1000
0100
0000
0010
0000
,
0001
0000
0100
0010
0100
0000
0001
0000
,
1000
0000
0010
0100
0010
0000
1000
0000
,
0001
0000
1000
0010
1000
0000
0001
0000
,
1000
0000
0100
0010
0100
0000
1000
0000
,
0001
0000
0100
0001
0100
0000
0010
0000
,
1000
0000
0001
0000
0100
0010
0100
0000
,
1001
0000
1000
0100
0000
0100
0010
0000
,
0001
0000
0100
0001
0000
0001
1000
0000
,
0010
0000
0100
0001
0000
0001
1000
0000
,
0010
1000
0001
0000
1001
0000
0001
0010
,
0100
0000
0100
1000
0000
0001
1000
0000
,
0100
0000
1000
0001
0000
0010
0100
0000
,
1000
0000
0001
0010
0000
0010
0100
0000
,
1000
0010
0100
0001
2000
0000
3001
0000
,
0010
0000
0001
0000
1000
0100
0010
0000
,
0100
0000
1000
0000
0001
0100
0010
0000
,
0100
0000
0001
0000
0010
0100
1000
0000
,
0001
0010
0100
0000
1100
0000
1000
0001
,
1000
0000
0100
0000
0010
0100
1000
0000
,
0001
0000
0100
0000
0010
0100
0001
0000
,
1000
0000
0100
0000
0010
0100
1000
0000
,
0001
0100
0010
0100
0001
0000
1000
0000
,
1001
1000
0010
1000
,
0001
0010
0100
0000
0010
0100
1000
0000
,
0001
1000
0010
1000
,
0001
1000
0100
0000
0010
0100
1000
0000
,
0001
1000
0010
1000
,
0100
0010
0001
0000
1000
0001
0100
0000
,
0101
1000
1001
0001
,
0010
0001
0100
0000
0010
0100
0001
1000
,
0001
1000
0001
1000
0001
1000
0100
0000
,
1000
0100
0010
0000
0100
0010
0001
0000
,
1000
0001
0100
0000
0010
0100
0001
0000
,
0010
0100
1000
0000
0001
0100
0010
0000
,
1000
0010
1000
0010
1000
0010
0100
0000
,
0001
1000
0010
0000
0010
0100
0001
0000
,
1001
1000
1100
0001
,
0100
0001
0020
0000
0130
1000
0001
1000
,
0200
0010
0300
0010
0000
0001
0000
0001
,
0100
0010
2000
0000
3001
0010
0200
0000
,
1300
0100
0020
0000
1030
0010
0002
0000
,
0103
0001
0020
0000
0130
0010
0002
0000
,
1003
0001
0100
0001
,
1000
0100
0001
0100
,
1000
0010
0100
0001
,
0010
0000
0100
0000
2000
0000
0001
3001
;

//---------------dance-single - ----------------
#NOTES:
     dance-single:
     X-Scale 11:
     Hard:
     8:
     0.513905,0.616686,0.217421,0.207539,0.108711,364.000000,342.000000,22.000000,21.000000,0.000000,0.000000,0.513905,0.616686,0.217421,0.207539,0.108711,364.000000,342.000000,22.000000,21.000000,0.000000,0.000000:
// measure 0
0000
0000
0000
0000
,  // measure 1
0000
0000
0000
0000
,  // measure 2
0000
0000
0000
0000
,  // measure 3
0000
0000
0000
0000
,  // measure 4
1000
0000
0001
0010
1000
0000
0010
0100
,  // measure 5
1000
0000
0010
0100
1000
0000
1000
0100
,  // measure 6
0001
0000
0010
0001
0100
0000
0001
1000
,  // measure 7
0010
0000
0100
0010
0001
0000
0001
0010
,  // measure 8
1000
0000
0000
0000
0001
0000
1000
0000
0010
0000
0000
0000
0100
0000
0001
0010
,  // measure 9
0001
0000
0000
0000
1000
0000
0100
0000
0010
0000
0000
0000
0001
0000
1000
0010
,  // measure 10
1000
0000
0000
0000
0001
0000
0010
0000
0100
0000
0000
0000
1000
0000
0010
0100
,  // measure 11
0001
0000
0001
0000
2000
0000
3000
0001
0010
0000
0001
0010
0100
0000
0000
0000
,  // measure 12
1001
1000
0010
0200
0000
0310
1000
0000
,  // measure 13
0001
0010
1000
0020
0000
0031
0100
0000
,  // measure 14
0001
0010
0100
2000
0000
3010
0100
0010
,  // measure 15
0001
1000
0100
0010
2000
0000
3001
0000
,  // measure 16
0001
0010
0100
2000
0000
3001
0100
0000
,  // measure 17
0010
0000
1000
0000
0100
0000
0020
0000
0000
0000
0130
0000
1000
0000
0000
0001
,  // measure 18
0100
0001
1000
0100
0010
1000
0010
0001
,  // measure 19
0100
0000
1000
0000
0100
0000
0001
0000
2000
0000
0000
0000
3010
1000
0010
0000
,  // measure 20
0100
0001
1000
0001
0100
1000
0100
0010
,  // measure 21
0100
0001
0010
1000
0001
0100
1000
0010
,  // measure 22
1000
0100
0001
0100
1000
0100
0010
0001
,  // measure 23
0100
0000
0010
0000
0100
0000
0001
0100
0001
0000
1000
0000
0001
0000
0100
0010
,  // measure 24
0100
0001
1000
0010
0001
0010
1000
0100
,  // measure 25
0010
0001
1000
0001
0100
0010
0001
1000
,  // measure 26
0100
0010
1000
0001
0100
0010
0100
1000
,  // measure 27
0100
0000
0001
0000
2000
0000
3000
0100
0020
0000
0000
0000
0031
0000
0000
0000
,  // measure 28
1000
0010
1001
0000
0001
0010
1001
0000
,  // measure 29
0001
0010
0100
1000
0010
0100
0001
0000
,  // measure 30
1000
0010
1001
0000
0001
0010
1001
0000
,  // measure 31
0001
1000
0010
1000
0100
0010
0002
0000
,  // measure 32
1003
0010
1001
0000
0001
0010
1001
0000
,  // measure 33
0001
0010
1000
0001
0100
1000
0010
1000
,  // measure 34
1010
0000
0000
0000
1000
0000
0001
0000
0011
0000
0000
0000
0010
0000
0100
0010
,  // measure 35
0001
0000
1000
0000
0001
0000
0010
0100
1000
0000
0100
0000
1000
0000
0010
0000
,  // measure 36
0110
1000
0110
0001
0110
1000
1001
0000
,  // measure 37
1010
0000
1000
0000
0010
0000
1000
0000
0001
0000
0010
0000
1000
0000
1000
0010
,  // measure 38
0001
0000
1000
0000
1001
0000
0000
0001
0010
0000
0001
0000
0101
0000
0000
0100
,  // measure 39
0010
1000
0001
0010
0100
1000
0001
0100
,  // measure 40
0110
0000
0001
0000
0110
0000
1000
0000
0110
0000
0001
0000
1001
0000
0100
0001
,  // measure 41
0100
0000
0010
0000
1000
0000
0001
0010
0100
0000
0010
0000
1000
0000
0010
0100
,  // measure 42
0020
0000
0000
0000
0031
0000
0010
0000
2001
0000
0000
0000
3001
0000
1000
0100
,  // measure 43
0010
0100
0002
0000
0103
0010
0100
1000
,  // measure 44
1100
1000
0000
0001
0010
1000
0001
0100
,  // measure 45
0010
0000
0001
0000
0200
0000
0000
0000
0310
0000
0010
0000
0100
0000
0010
0100
,  // measure 46
0001
0001
0020
0000
1030
1000
0020
0000
,  // measure 47
0031
0000
0001
0000
0200
0000
0000
0000
0310
0000
0010
0000
1000
0000
0100
1000
,  // measure 48
0100
0000
0010
0000
0001
0000
1000
0001
,  // measure 49
0100
0000
0001
0000
0010
0000
0100
0010
,  // measure 50
0001
0000
1000
0000
0010
0000
1000
0100
,  // measure 51
0010
0000
0000
0000
0001
0000
0000
0010
0200
0000
0000
0000
2300
0000
0002
0000
,  // measure 52
3003
0000
0000
0000
;
