#TITLE:Rise (Leave Me Alone);
#SUBTITLE:;
#ARTIST:Safri Duo feat. Clark Anderson;
#TITLETRANSLIT:;
#SUBTITLETRANSLIT:;
#ARTISTTRANSLIT:;
#GENRE:Tribal Trance;
#CREDIT:;
#BANNER:Rise (Leave Me Alone)-bn.png;
#BACKGROUND:Rise (Leave Me Alone)-bg.png;
#LYRICSPATH:;
#CDTITLE:cdtitle.png;
#MUSIC:Rise (Leave Me Alone).ogg;
#OFFSET:-0.005000;
#SAMPLESTART:13.918000;
#SAMPLELENGTH:27.826000;
#SELECTABLE:YES;
#BPMS:0.000000=138.000000
;
#STOPS:
;
#BGCHANGES:;
#KEYSOUNDS:;
#ATTACKS:;

//---------------dance-single - ----------------
#NOTES:
     dance-single:
     X-Scale 12:
     Hard:
     8:
     0.492744,0.611647,0.052129,0.243269,0.095570,397.000000,391.000000,6.000000,28.000000,0.000000,0.000000,0.492744,0.611647,0.052129,0.243269,0.095570,397.000000,391.000000,6.000000,28.000000,0.000000,0.000000:
// measure 0
0000
0000
0000
0000
,  // measure 1
0000
0000
0000
0000
,  // measure 2
0000
0000
0000
0000
,  // measure 3
0000
0000
0000
0000
,  // measure 4
1000
0100
1000
0001
0000
0000
0010
0100
,  // measure 5
1000
0000
0001
1000
0000
0000
0100
0010
,  // measure 6
0001
0000
1000
0001
0000
0100
0010
1000
,  // measure 7
1001
0110
0101
1100
,  // measure 8
1001
0000
0000
0001
0010
1000
0010
0100
,  // measure 9
2000
0000
3000
0100
0010
0001
1000
0001
,  // measure 10
0200
0000
0000
0300
0001
0100
0001
0010
,  // measure 11
0200
0000
0000
2300
0000
0000
3200
0000
,  // measure 12
0320
0000
0030
0001
1000
0010
0100
0010
,  // measure 13
1000
0000
0100
1000
0100
0001
0100
0010
,  // measure 14
0002
0000
0000
0003
1000
0001
1000
0100
,  // measure 15
0020
0000
0000
0032
0000
0000
0013
0200
,  // measure 16
1000
0000
0010
0000
1300
0000
1000
0100
,  // measure 17
1000
0000
0001
0100
0001
0000
0010
0100
,  // measure 18
1000
0001
0100
0001
1000
0100
0010
0100
,  // measure 19
2000
0000
0000
3002
0000
0000
0203
0000
,  // measure 20
0320
0000
0031
0010
0100
0000
0001
1000
,  // measure 21
0010
0000
1000
0100
0010
0000
0001
1000
,  // measure 22
0010
0000
0100
0000
0010
0000
1000
0100
1000
0000
0001
0000
0010
0000
0100
0000
,  // measure 23
1000
0000
0001
0010
0000
0000
0001
0000
1000
0001
0000
0000
0100
0000
0001
0000
,  // measure 24
0101
0000
0100
0001
1000
0001
0010
0100
,  // measure 25
1000
0000
0100
0010
0000
0001
0100
1000
,  // measure 26
0001
0010
1000
0001
0100
0010
0100
0001
,  // measure 27
1000
0000
0000
0000
0010
0000
0100
0000
0000
0000
0010
0000
1000
0000
1000
0001
,  // measure 28
1000
0001
0100
0001
0000
0000
1000
0001
,  // measure 29
0100
0001
1000
0100
0010
0100
1000
1000
,  // measure 30
0001
0000
0100
0001
0010
1000
0010
0100
,  // measure 31
1000
0000
0001
1000
0000
1000
0100
0010
,  // measure 32
0001
0000
0000
0100
0010
1000
0001
0010
,  // measure 33
0200
0000
1300
0002
0000
0000
0100
0103
,  // measure 34
0001
0000
0000
0000
0010
0000
0100
0010
0001
0000
1000
0000
0001
0000
0000
0000
,  // measure 35
0200
0000
0300
0010
0100
0001
1000
0000
,  // measure 36
0100
0000
0010
0100
1000
0001
0100
0001
,  // measure 37
1000
0100
0001
0100
0010
0001
1000
0001
,  // measure 38
0010
0000
0001
0000
1000
0000
0100
0000
1000
0000
0001
0000
0010
0100
0010
0100
,  // measure 39
0010
0000
0001
0000
1000
0000
0001
0000
0010
0000
0100
1000
0001
0100
0001
1000
,  // measure 40
0100
0000
1000
0000
0001
0000
0010
0100
0000
0000
0010
0000
0001
0000
0001
0000
,  // measure 41
1000
0000
0100
0010
0001
0000
1000
0002
,  // measure 42
0103
0002
0000
0000
1003
0000
0010
1000
,  // measure 43
0001
0000
0000
0000
0010
0000
0100
0000
1000
0000
0001
1000
0001
1000
0001
1000
,  // measure 44
0001
0000
0010
0100
1000
0000
0010
1000
,  // measure 45
0001
0000
0010
0001
0100
0000
0010
0100
,  // measure 46
0001
0000
0000
0000
0010
0000
0000
0000
0100
0000
0000
0000
1000
0100
1000
0100
,  // measure 47
1000
0000
0001
0000
0100
0000
1000
0000
0100
0000
0001
0100
0001
1000
0100
0010
,  // measure 48
0001
0000
1000
0010
1000
0001
0010
0100
,  // measure 49
1000
0000
0010
1000
0001
0010
1000
0010
,  // measure 50
0001
0100
0010
0001
0010
1000
0001
0100
,  // measure 51
0020
0000
1000
2030
0010
0000
3002
0000
,  // measure 52
2003
0000
3100
0010
0001
1000
0010
0100
,  // measure 53
0001
0000
0010
0100
1000
0001
0100
0001
,  // measure 54
1000
0100
0001
0100
0010
0001
1000
0001
,  // measure 55
0020
0000
0100
0230
0001
0000
1300
0100
,  // measure 56
0010
0100
0010
0100
0000
0000
1000
0001
,  // measure 57
0100
0000
0000
0000
0001
0000
0010
0000
0100
0000
0000
0000
0010
0000
0001
0010
,  // measure 58
0100
0010
0100
0000
0100
0010
0001
1000
,  // measure 59
0010
0000
0000
0000
1000
0000
0100
0000
0001
0000
0100
0000
1000
0000
0001
0010
,  // measure 60
0001
1000
0010
1000
0000
0000
0001
1000
,  // measure 61
0010
0000
0000
0000
0000
0000
1000
0000
0010
0000
0000
0000
1000
0000
0001
0100
,  // measure 62
0001
0010
0100
1000
0000
0000
0010
1000
,  // measure 63
0002
0000
0003
0020
0000
0030
0002
0000
,  // measure 64
0003
0000
0000
0000
;

//---------------dance-single - ----------------
#NOTES:
     dance-single:
     X-Scale 8:
     Medium:
     6:
     0.374833,0.470790,0.078194,0.425720,0.004344,302.000000,293.000000,9.000000,49.000000,0.000000,0.000000,0.374833,0.470790,0.078194,0.425720,0.004344,302.000000,293.000000,9.000000,49.000000,0.000000,0.000000:
// measure 0
0000
0000
0000
0000
,  // measure 1
0000
0000
0000
0000
,  // measure 2
0000
0000
0000
0000
,  // measure 3
0000
0000
0000
0000
,  // measure 4
0001
0000
0010
0000
0100
0000
1000
0001
,  // measure 5
0100
0000
0001
0010
0100
0000
1000
0100
,  // measure 6
0010
0000
0001
0000
1000
0000
0010
1000
,  // measure 7
1010
0011
0101
1100
,  // measure 8
1001
0000
0001
0000
0100
0000
0010
0100
,  // measure 9
0002
0000
0013
0000
0100
0000
1000
0100
,  // measure 10
0020
0000
0031
0000
0010
0000
0001
1000
,  // measure 11
0020
0000
0000
2030
0000
0000
3200
0000
,  // measure 12
0320
0000
0031
0000
0010
0000
0100
0010
,  // measure 13
0001
0000
1000
0000
0010
0000
0100
0001
,  // measure 14
0010
0000
0100
0000
1000
0000
0001
1000
,  // measure 15
0200
0000
0000
0320
0000
0000
0031
2000
,  // measure 16
0100
0000
0001
0000
3010
0000
1000
0200
,  // measure 17
0010
0000
0300
0010
0000
0000
0001
0020
,  // measure 18
0100
0000
0030
0100
0000
0000
0100
1000
,  // measure 19
0002
0000
0000
2003
0000
0000
3002
0000
,  // measure 20
0023
0000
1000
0000
0031
0000
0010
0200
,  // measure 21
1000
0000
0300
1000
0000
0000
1000
0200
,  // measure 22
0010
0000
0300
0010
0000
0000
0010
0001
,  // measure 23
1000
0000
0010
1000
0001
0000
0010
0100
,  // measure 24
1000
0000
0000
0001
0100
0001
1000
0100
,  // measure 25
0020
0000
0000
0032
0000
0000
1000
0000
,  // measure 26
0013
0000
0001
0000
1000
0010
2000
0000
,  // measure 27
3002
0000
0000
0023
0000
0230
0000
0000
,  // measure 28
1000
0000
0300
0100
1000
0001
0100
0001
,  // measure 29
0020
0000
0130
2000
0000
0000
3100
0020
,  // measure 30
0001
0000
0000
0100
0030
0000
0010
0001
,  // measure 31
1000
0000
0010
1000
0000
0001
0010
0100
,  // measure 32
1000
0000
0000
0100
0010
0001
1000
0010
,  // measure 33
2000
0000
3001
0020
0000
0000
0000
0030
,  // measure 34
0000
0000
0000
0000
0000
0000
0100
0010
0001
0000
1000
0000
0001
0000
0000
0000
,  // measure 35
0020
0000
0000
0130
1000
0001
2000
0000
,  // measure 36
0010
0000
3000
1000
0100
0001
1000
0010
,  // measure 37
0001
0000
0010
0100
0000
1000
0010
0100
,  // measure 38
0001
0000
0010
0001
0000
1000
0020
0000
,  // measure 39
0130
0010
0100
0010
1000
0001
1000
0001
,  // measure 40
1001
1000
0100
1000
0000
0000
0100
0001
,  // measure 41
1000
0000
0010
0100
0001
0000
0010
0100
,  // measure 42
1000
0000
0010
1000
0001
0000
0100
0010
,  // measure 43
0100
0000
0001
0010
0100
0000
1000
0000
,  // measure 44
1001
0000
0001
0100
0010
0000
0001
0010
,  // measure 45
1000
0000
0001
1000
0010
0000
1000
0100
,  // measure 46
0010
0001
1000
0001
,  // measure 47
0100
0001
1000
0001
0010
0100
0010
0001
,  // measure 48
1001
0000
1000
0010
0100
0001
0010
0100
,  // measure 49
2000
0000
3001
1000
0010
0001
0010
1000
,  // measure 50
0200
0000
0310
0100
1000
0001
0100
0010
,  // measure 51
2000
0000
0000
3020
0000
0000
0032
0000
,  // measure 52
0203
0000
1300
0100
0001
0100
1000
0001
,  // measure 53
0100
0000
0001
0010
1000
0010
0100
1000
,  // measure 54
0002
0000
0103
0001
1000
0000
0010
1000
,  // measure 55
0002
0000
0000
0203
0000
0000
0310
2000
,  // measure 56
0000
0000
0000
3000
0000
0000
0100
0020
,  // measure 57
0000
0000
0030
0000
0000
0000
0001
0020
,  // measure 58
0000
0000
0030
0100
0000
0000
1000
0001
,  // measure 59
0200
0000
0000
0302
0000
0000
0023
0000
,  // measure 60
0230
0000
0000
1300
0000
0000
0100
0020
,  // measure 61
0000
0000
0030
0001
0010
0000
0001
2000
,  // measure 62
0000
0000
0000
3010
0000
0000
1000
0001
,  // measure 63
0100
0000
0000
0001
0000
0000
1001
0000
;

//---------------dance-single - ----------------
#NOTES:
     dance-single:
     X-Scale 5:
     Easy:
     3:
     0.101776,0.104584,0.026065,0.112946,0.000000,82.000000,79.000000,3.000000,13.000000,0.000000,0.000000,0.101776,0.104584,0.026065,0.112946,0.000000,82.000000,79.000000,3.000000,13.000000,0.000000,0.000000:
// measure 0
0000
0000
0000
0000
,  // measure 1
0000
0000
0000
0000
,  // measure 2
0000
0000
0000
0000
,  // measure 3
0000
0000
0000
0000
,  // measure 4
1000
0000
0000
0001
0000
0000
0010
0000
,  // measure 5
0001
0000
0000
0010
0000
0000
0100
0000
,  // measure 6
1000
0000
0000
0001
0000
0000
0100
0000
,  // measure 7
0101
0000
0000
1000
0000
0000
0001
0000
,  // measure 8
1001
0000
0000
1000
0000
0000
0001
0000
,  // measure 9
0010
0000
0000
0001
0000
0000
1000
0000
,  // measure 10
0100
0000
0000
1000
0000
0000
0001
0010
,  // measure 11
0200
0000
0000
0320
0000
0000
0032
0000
,  // measure 12
2003
0000
3000
0100
0000
0000
1000
0000
,  // measure 13
0001
0000
0000
0100
0000
0000
0010
0100
,  // measure 14
0002
0000
0000
1003
0000
0000
0001
0010
,  // measure 15
0200
0000
0000
0320
0000
0000
0032
0203
,  // measure 16
1000
0000
0000
0301
0000
0000
1000
0001
,  // measure 17
1000
0000
0000
0010
0000
0000
0100
0010
,  // measure 18
0100
0000
0000
0001
0000
0000
0010
0100
,  // measure 19
0020
0000
0000
0032
0000
0000
2003
0000
,  // measure 20
3200
0000
0000
0310
0000
0000
0100
1000
,  // measure 21
0100
0000
0000
1000
0000
0000
0001
0100
,  // measure 22
0001
0000
0000
0010
0000
0000
0100
0010
,  // measure 23
0100
0000
0000
1000
0000
0000
0001
0000
,  // measure 24
1001
0000
0000
1000
0000
0000
0100
0000
,  // measure 25
0010
0000
0000
0001
0000
0000
1000
0000
,  // measure 26
0001
0000
0000
0100
0000
0000
0010
0000
;

//---------------dance-single - ----------------
#NOTES:
     dance-single:
     X-Scale 1:
     Beginner:
     1:
     0.106740,0.138468,0.008688,0.000000,0.000000,86.000000,85.000000,1.000000,0.000000,0.000000,0.000000,0.106740,0.138468,0.008688,0.000000,0.000000,86.000000,85.000000,1.000000,0.000000,0.000000,0.000000:
// measure 0
0000
0000
0000
0000
,  // measure 1
0000
0000
0000
0000
,  // measure 2
0000
0000
0000
0000
,  // measure 3
0000
0000
0000
0000
,  // measure 4
0001
0000
0000
0000
,  // measure 5
0010
0000
0000
0000
,  // measure 6
0100
0000
0000
0000
,  // measure 7
1000
0000
0000
0000
,  // measure 8
0001
0000
0100
0000
,  // measure 9
0001
0000
0100
0000
,  // measure 10
0010
0000
1000
0000
,  // measure 11
0010
0000
1000
0000
,  // measure 12
0100
0000
0010
0000
,  // measure 13
0100
0000
0010
0000
,  // measure 14
0001
0000
1000
0000
,  // measure 15
0001
0000
1000
0000
,  // measure 16
0100
0000
0010
0000
,  // measure 17
0100
0000
0010
0000
,  // measure 18
0001
0000
0010
0000
,  // measure 19
0001
0000
0010
0000
,  // measure 20
0100
0000
1000
0000
,  // measure 21
0100
0000
1000
0000
,  // measure 22
0001
0000
0100
0000
,  // measure 23
0001
0000
0100
0000
,  // measure 24
0001
0000
0000
0000
,  // measure 25
0010
0000
0000
0000
,  // measure 26
0001
0000
0000
0000
,  // measure 27
1000
0000
0000
0000
,  // measure 28
0010
0000
0000
0000
,  // measure 29
1000
0000
0000
0000
,  // measure 30
0100
0000
0000
0000
,  // measure 31
0010
0000
0000
0000
,  // measure 32
0001
0000
0000
0000
,  // measure 33
1000
0000
0000
0000
,  // measure 34
0010
0000
0000
0000
,  // measure 35
1000
0000
0000
0000
,  // measure 36
0001
0000
0000
0000
,  // measure 37
0010
0000
0000
0000
,  // measure 38
0100
0000
0000
0000
,  // measure 39
1000
0000
0000
0000
,  // measure 40
1001
0000
0000
0000
,  // measure 41
0010
0000
0000
0000
,  // measure 42
0001
0000
0000
0000
,  // measure 43
1000
0000
0000
0000
,  // measure 44
0010
0000
0000
0000
,  // measure 45
1000
0000
0000
0000
,  // measure 46
0001
0000
0000
0000
,  // measure 47
0010
0000
0000
0000
,  // measure 48
0100
0000
1000
0000
,  // measure 49
0001
0000
1000
0000
,  // measure 50
0100
0000
0010
0000
,  // measure 51
0100
0000
1000
0000
,  // measure 52
0001
0000
0100
0000
,  // measure 53
0001
0000
1000
0000
,  // measure 54
0010
0000
0100
0000
,  // measure 55
0001
0000
0010
0000
,  // measure 56
0001
0000
0000
0000
,  // measure 57
1000
0000
0000
0000
,  // measure 58
0100
0000
0000
0000
,  // measure 59
1000
0000
0000
0000
,  // measure 60
0001
0000
0000
0000
,  // measure 61
0100
0000
0000
0000
,  // measure 62
0010
0000
0000
0000
,  // measure 63
0100
0000
0000
0100
;
