#TITLE:Ripped Pants;
#SUBTITLE:;
#ARTIST:SpongeBob Squarepants;
#TITLETRANSLIT:;
#SUBTITLETRANSLIT:;
#ARTISTTRANSLIT:;
#GENRE:Surf Rock;
#CREDIT:;
#BANNER:Ripped Pants-bn.png;
#BACKGROUND:Ripped Pants-bg.png;
#LYRICSPATH:;
#CDTITLE:cdtitle.png;
#MUSIC:Ripped Pants.ogg;
#OFFSET:-0.203000;
#SAMPLESTART:20.202999;
#SAMPLELENGTH:15.610000;
#SELECTABLE:YES;
#BPMS:0.000000=123.000000
;
#STOPS:
;
#BGCHANGES:-0.203=Ripped Pants.avi=1.000=0=0=0=StretchNoLoop====,
99999=-nosongbg-=1.000=0=0=0 // don't automatically add -songbackground-
;
#KEYSOUNDS:;
#ATTACKS:;

//---------------dance-single - ----------------
#NOTES:
     dance-single:
     X-Scale 10:
     Hard:
     7:
     0.410138,0.450803,0.134386,0.378723,0.128277,235.000000,224.000000,11.000000,31.000000,19.000000,0.000000,0.410138,0.450803,0.134386,0.378723,0.128277,235.000000,224.000000,11.000000,31.000000,19.000000,0.000000:
// measure 0
0000
0000
0000
0000
,  // measure 1
0000
0000
0000
0000
,  // measure 2
0000
0000
0000
0000
0000
0000
1000
0000
0100
0000
0010
0100
0000
0000
1000
0000
,  // measure 3
0001
0000
0000
0000
0000
0000
1000
0000
0000
0010
0000
0000
0000
0000
0000
0000
0010
0000
0000
0000
0000
0000
0000
0000
0100
0000
0000
0000
0000
0000
0000
0000
0000
0002
0000
0000
0000
0000
0000
0000
0000
0000
0000
0000
0000
0000
0000
0000
,  // measure 4
0003
0000
0000
0000
0000
0000
0000
0000
0000
1000
0000
0000
0001
0000
0000
0000
0000
0000
0010
0000
0000
0000
0000
0000
0100
0000
0000
0000
0000
0000
0000
0000
0000
0000
0000
0000
0010
0000
0000
0000
0000
0200
0000
0000
0000
0000
0000
0300
,  // measure 5
0000
0000
0000
0000
0000
2000
0000
3000
0020
0000
0000
0030
2000
0000
0000
0000
,  // measure 6
3000
0000
0000
0000
0001
0000
0100
0000
0000
0010
0100
0000
0001
0000
1000
0000
,  // measure 7
0200
0000
0000
0300
1000
0000
0001
0000
0010
0000
0002
0000
0000
0000
0003
0000
,  // measure 8
MMMM
0000
0000
0000
MMMM
0000
0000
0000
0000
0000
0000
0000
0000
0000
0000
0000
0000
0000
1000
0000
0000
0000
0000
0000
0001
0000
0000
0000
0000
0000
0000
0000
0000
0010
0000
0000
0002
0000
0000
0000
0000
0000
0000
0000
0000
0000
0000
0000
,  // measure 9
2003
0000
3000
4000
3001
0000
0000
0000
,  // measure 10
0000
0000
MMMM
1000
1001
0000
1000
0100
,  // measure 11
0010
0000
0001
0000
0100
0000
0010
0000
1000
0000
0002
0000
0000
0003
0200
0000
,  // measure 12
0000
0010
0310
0000
0001
0000
1000
0010
,  // measure 13
0100
0010
1000
0000
0001
0000
1000
0001
,  // measure 14
0010
0001
1000
0000
0010
0100
0001
2000
,  // measure 15
0000
3000
0002
0000
0000
0003
0200
0000
0000
0300
0020
0000
0000
0030
2000
0000
,  // measure 16
0000
3000
0100
0000
1100
0000
1000
0000
1001
0000
0000
0000
0011
0000
0000
0000
,  // measure 17
1010
0000
0000
0000
0000
0000
0000
0000
1001
0000
0000
0000
0000
0000
0000
0000
2000
0400
0000
0000
0000
0000
0300
0000
3M00
0000
0000
0000
M000
0000
0000
0000
,  // measure 18
000M
0000
1001
0001
0011
0010
0100
1000
,  // measure 19
0001
0000
1000
0000
0010
0000
0001
0000
0010
0000
0200
0000
0000
0300
0002
0000
,  // measure 20
0000
1003
1000
0001
0010
0000
0100
0010
,  // measure 21
0001
1000
0001
0000
0100
0000
0010
0100
,  // measure 22
1000
0100
0001
1000
0100
1000
0001
0010
,  // measure 23
0100
0000
1000
0000
0001
0000
1000
0000
0020
0000
0030
0200
0000
0300
0002
0000
,  // measure 24
0000
0003
0000
0000
1000
0000
0100
0000
0001
0000
0100
0000
0010
0000
0002
0000
,  // measure 25
0000
1003
1000
0100
0001
1000
0010
0002
,  // measure 26
0000
0000
1000
0000
1000
0000
0000
0003
1001
0000
0000
0000
0100
0000
0100
0000
,  // measure 27
0000
0000
0000
0000
0001
0000
0100
0000
0001
0000
0000
0000
0000
0000
0000
0000
0110
0000
0000
0000
0000
0000
0000
0000
4000
0400
0000
0000
0000
0000
0000
0000
,  // measure 28
3300
0000
0000
0000
0000
0000
0000
0000
0001
0000
1000
0000
0001
0000
0000
0000
0000
0000
0000
0000
0000
000M
M000
000M
M110
0000
0000
0000
0000
0000
0100
0000
0000
0000
0000
0000
1000
0000
0000
0000
0000
0000
0100
0000
0000
0000
0000
0000
,  // measure 29
0001
0000
1000
0000
0010
0000
1000
0000
0001
0000
0000
0010
0000
0000
0001
0000
,  // measure 30
1000
0100
0001
0100
2000
0000
3010
0100
,  // measure 31
0001
0100
0020
0000
1030
0000
0001
0010
,  // measure 32
1000
0010
0001
0000
1000
0100
0010
0002
,  // measure 33
0000
1000
1003
0001
0010
1000
0010
0001
,  // measure 34
0100
0010
0001
0010
2000
0000
3200
0000
,  // measure 35
0320
0000
0031
1000
0010
0100
0010
0100
,  // measure 36
0001
1000
0001
1000
0100
0010
0100
0010
,  // measure 37
0001
1000
0001
1000
0100
0010
0100
0010
,  // measure 38
0001
0000
0000
0000
0100
0000
0000
0000
0001
0000
0000
0000
0100
0000
0000
0000
0010
0000
0000
0000
4000
0040
0000
3000
1030
0000
0000
0000
0001
0000
0000
0000
,  // measure 39
2000
0000
0000
0000
,  // measure 40
0000
0000
0000
0000
,  // measure 41
3000
0000
0000
0000
;

//---------------dance-single - ----------------
#NOTES:
     dance-single:
     X-Scale 7:
     Medium:
     5:
     0.305422,0.425758,0.122169,0.403157,0.018325,175.000000,165.000000,10.000000,33.000000,6.000000,0.000000,0.305422,0.425758,0.122169,0.403157,0.018325,175.000000,165.000000,10.000000,33.000000,6.000000,0.000000:
// measure 0
0000
0000
0000
0000
,  // measure 1
0000
0000
0000
0000
,  // measure 2
0000
0000
2000
0000
,  // measure 3
0000
3000
0002
0000
,  // measure 4
0000
0003
2000
0000
,  // measure 5
0000
3000
0002
0000
,  // measure 6
0000
0003
0200
0000
,  // measure 7
0000
0300
0020
0000
,  // measure 8
0000
0030
0200
0000
,  // measure 9
0000
0300
0110
0000
,  // measure 10
0000
0000
0002
0000
1003
0000
0010
0100
,  // measure 11
0010
0001
0010
0000
1000
0000
0001
0100
,  // measure 12
0010
0100
0001
0000
0020
0000
0230
0000
,  // measure 13
2300
0000
3002
0000
1003
0010
0000
0100
,  // measure 14
0001
1000
0001
0000
0010
0000
0001
1000
,  // measure 15
0010
1000
0001
0000
0010
0000
0100
1000
,  // measure 16
0001
1000
1100
0000
0011
0000
1100
0000
,  // measure 17
0011
0000
1100
0000
0011
0000
1000
0100
,  // measure 18
0010
0000
0101
0000
0002
0000
1000
1000
,  // measure 19
0003
0001
0001
0000
0100
0010
0000
2000
,  // measure 20
0000
3000
0001
1000
0020
0000
0100
0100
,  // measure 21
0030
0010
0010
2000
0001
3000
0001
1000
,  // measure 22
0000
1000
0100
0000
0020
0000
0031
0100
,  // measure 23
0000
0010
1000
0001
1000
0000
0100
0100
,  // measure 24
0000
0010
0010
0001
1000
0001
0100
0002
,  // measure 25
0000
0003
1000
0100
0010
0100
1000
0200
,  // measure 26
0000
0010
0010
0000
1300
0000
0001
0001
,  // measure 27
0000
0000
M000
000M
M000
0000
0000
0000
1001
0000
0000
0000
0002
0000
0000
0000
,  // measure 28
0003
0000
0000
0000
M000
00M0
M000
0000
0000
0000
0000
0000
2010
0000
0000
0000
0000
0000
3001
0000
0000
1000
0000
0000
,  // measure 29
0100
1000
0001
0000
0010
0000
0100
2000
,  // measure 30
0001
3000
1000
0000
0010
0000
0200
0000
1000
0000
0000
0000
0010
0000
0000
0000
,  // measure 31
1000
0000
0010
0300
0020
0002
0003
0200
,  // measure 32
0300
0000
2000
3000
1030
0010
0100
0002
,  // measure 33
0000
0003
1000
0001
0010
0200
0300
2000
,  // measure 34
0001
3002
0003
0200
1000
0000
0010
0000
,  // measure 35
0001
0000
0310
0100
0010
0000
1000
0100
,  // measure 36
0010
0000
0100
0010
0001
0000
1000
0010
,  // measure 37
0100
0000
0010
0100
0001
1000
0001
0100
,  // measure 38
0010
1000
0100
0010
0001
1000
0010
1000
,  // measure 39
0002
0000
0000
0000
,  // measure 40
0000
0000
0000
0000
,  // measure 41
0003
0000
0000
0000
;

//---------------dance-single - ----------------
#NOTES:
     dance-single:
     X-Scale 11:
     Challenge:
     8:
     0.432826,0.475847,0.134386,0.305422,0.177145,248.000000,237.000000,11.000000,25.000000,58.000000,0.000000,0.432826,0.475847,0.134386,0.305422,0.177145,248.000000,237.000000,11.000000,25.000000,58.000000,0.000000:
// measure 0
0000
0000
0000
0000
,  // measure 1
0000
0000
0000
0000
0000
0000
0000
0000
0000
1000
0100
1000
0002
0000
0000
0000
0000
0000
0000
0000
0000
0000
0000
0000
,  // measure 2
0000
0000
0000
0000
0000
0000
0003
0000
0000
0001
0100
0001
2000
0000
0000
0000
0000
0000
0000
0000
0000
0000
0000
0000
,  // measure 3
0000
0000
0000
0000
0000
0000
3000
0000
0000
1000
0010
0100
0002
0000
0000
0000
0000
0000
0000
0000
0000
0000
0000
0000
,  // measure 4
0000
0000
0000
0000
0000
0000
0000
0000
0000
1000
0000
0000
1003
0000
0000
0000
0000
0000
0001
0000
0000
0000
0100
0000
0020
0000
0000
0000
0000
0000
0000
0000
0000
0000
0000
0000
1000
0000
0000
0000
0000
0000
2000
0000
0000
0000
0000
0000
,  // measure 5
3000
0000
0000
0000
0000
0000
0130
0000
0000
0000
0000
0010
0200
0000
0000
0000
0000
0000
0002
0000
0000
0000
0000
0000
,  // measure 6
0003
0000
0000
0000
0000
0000
0310
0000
0000
M100
M010
M100
M002
00M0
M000
00M0
M000
00M0
M000
0000
0000
0000
0000
0000
,  // measure 7
0000
0000
0000
0000
0000
0000
0003
0000
0000
1000
0001
1000
0020
0000
0000
0000
0000
0000
0000
0000
0000
0000
0000
0000
,  // measure 8
MM0M
0000
MM0M
0000
0000
0000
0030
0000
0000
1000
0001
0100
0020
0000
0000
0000
0000
0000
0000
0000
0000
0000
0000
0000
,  // measure 9
0000
0000
0000
0000
0000
0000
0000
0000
0000
0000
0000
0000
0000
0000
0000
0000
0000
0000
0000
0000
0000
0000
0000
0000
0000
0000
0000
0000
0000
0000
0000
0000
0000
0000
0000
0000
0000
0000
0000
0000
0000
0000
0000
0000
0000
0000
0000
0000
0030
0000
0000
0000
0000
0000
0000
0000
0000
0000
0000
0000
0000
0000
0000
0000
0000
0000
0000
0000
0000
0000
0000
0000
4000
0000
0000
0000
0000
0000
0400
0000
0000
0000
0000
0000
0000
0000
0000
0000
3300
0000
0000
0000
0000
0000
0000
0000
MMMM
0000
0000
0000
0000
0000
0000
0000
0000
0000
0000
0000
0000
0000
0000
0000
0000
0000
0000
0000
0000
0000
0000
0000
0000
0000
0000
0000
0000
0000
0000
0000
0000
0000
0000
0000
0000
0000
0000
0000
0000
0000
0000
0000
0000
0000
0000
0000
1000
0000
0000
0000
0000
0000
0000
0000
0000
0000
0000
0000
0000
0000
0000
0000
0000
0000
0000
0000
0000
0000
0000
0000
0001
0000
0000
0000
0000
0000
0000
0000
0000
0000
0000
0000
0000
0000
0000
0000
0000
0000
0000
0000
0000
0000
0000
0000
,  // measure 10
1000
0000
1001
0010
0101
0000
0100
0010
,  // measure 11
1000
0001
0010
0100
1000
0001
1000
0010
,  // measure 12
0001
0000
0010
0000
1000
0000
0000
0000
0020
0000
0000
0030
2MMM
0000
0MMM
3000
,  // measure 13
0002
0000
MMM0
0003
M2MM
0000
0000
0300
0010
0000
2000
0000
0MMM
3000
M2MM
0000
,  // measure 14
0000
0300
MMMM
0000
MMMM
0000
0001
0000
0010
0000
1000
0000
0100
0000
0001
0000
,  // measure 15
1000
0001
0010
0100
0010
0001
1000
1000
,  // measure 16
0010
1000
1010
0001
0011
0000
1010
MMMM
,  // measure 17
0011
0000
0000
0000
MMMM
0000
0000
0000
1010
0000
0000
0000
0000
0000
0000
0000
0400
4000
0000
0000
0000
0000
3300
0000
0001
0000
0000
0000
1000
0000
0000
0000
,  // measure 18
0010
0000
MMMM
0001
0011
0010
1000
0010
,  // measure 19
0001
0100
0010
0100
0001
2000
3010
0020
,  // measure 20
0100
0130
0002
0000
1003
0000
0100
1000
,  // measure 21
0001
1000
0010
0100
0010
0000
1000
0100
,  // measure 22
0001
0100
1000
0001
0010
0000
0100
0010
,  // measure 23
0001
1000
0010
0100
0001
0000
1000
0100
,  // measure 24
0001
0100
1000
0010
0001
0010
1000
0002
,  // measure 25
0000
1003
0001
0010
1000
0010
0100
2000
,  // measure 26
0001
0000
0000
0000
0100
0000
0000
3000
1001
0000
0000
0000
0001
0000
0001
0000
,  // measure 27
0000
0000
0000
0000
1000
0000
0100
0000
0010
0000
0000
0000
0000
0000
0000
0000
0011
0000
0000
0000
0000
0000
0000
0000
4000
0004
0000
0000
0000
0000
0000
3003
,  // measure 28
0000
0000
0000
0000
0001
1000
0010
0000
0000
0000
0000
0010
2000
0000
0000
0000
0000
0000
0001
0000
0000
3001
0000
0000
,  // measure 29
0000
0000
1000
0000
1000
0000
0001
0000
0100
0000
0000
0010
0000
0000
0100
0000
,  // measure 30
0001
0100
1000
0100
0010
0000
1000
0100
,  // measure 31
0010
0001
0100
0001
1000
0000
0010
1000
,  // measure 32
0001
1000
0010
0000
0100
0010
1000
0002
,  // measure 33
0010
0000
1003
0001
0100
0010
1000
0100
,  // measure 34
0100
0000
1000
0001
0010
0000
0100
0100
,  // measure 35
1000
0100
0001
0100
1000
0010
0100
0001
,  // measure 36
0100
1000
0100
0001
0010
0100
1000
0001
,  // measure 37
1000
0100
0001
0100
1000
0001
0010
0001
,  // measure 38
1000
0000
0000
0001
0000
0000
0100
0000
0000
0010
0000
0000
1000
0000
0000
4000
0004
3000
1003
0000
0000
0100
0000
0000
,  // measure 39
2200
0000
0000
0000
,  // measure 40
0000
0000
0000
0000
,  // measure 41
3300
0000
0000
0000
;

//---------------dance-single - ----------------
#NOTES:
     dance-single:
     X-Scale 3:
     Easy:
     3:
     0.214668,0.251057,0.048867,0.219904,0.000000,123.000000,119.000000,4.000000,18.000000,0.000000,0.000000,0.214668,0.251057,0.048867,0.219904,0.000000,123.000000,119.000000,4.000000,18.000000,0.000000,0.000000:
// measure 0
0000
0000
0000
0000
,  // measure 1
0000
0000
0000
0000
,  // measure 2
0000
0000
0001
0000
,  // measure 3
0000
0000
0010
0000
,  // measure 4
0000
0000
0100
0000
,  // measure 5
0000
0000
1000
0000
,  // measure 6
0000
0000
0001
0000
,  // measure 7
0000
0000
0010
0000
,  // measure 8
0000
0000
0100
0000
,  // measure 9
0000
0000
1000
0000
,  // measure 10
0000
0000
0000
0000
1100
0000
1000
0001
,  // measure 11
1000
0000
0010
0000
0100
0000
0001
0100
,  // measure 12
0001
0000
0010
0000
0100
0000
1000
0100
,  // measure 13
1000
0000
0001
0000
0100
0000
0010
0100
,  // measure 14
0010
0000
1000
0000
0001
0000
0100
0020
,  // measure 15
0000
0230
0000
0302
0000
0023
0000
0230
,  // measure 16
0000
0300
1000
0100
2000
0000
3002
0000
,  // measure 17
0023
0230
1300
0000
,  // measure 18
0000
0000
0000
0000
1001
0000
1000
0001
,  // measure 19
1000
0000
0010
0000
0100
0020
0000
2030
,  // measure 20
0000
3000
0001
1000
0100
0000
0010
0000
,  // measure 21
0001
1000
0010
2000
0000
0000
3001
1000
,  // measure 22
0000
0001
1000
0000
0100
0000
0010
0001
,  // measure 23
1000
0000
0010
0000
0100
0000
0010
0100
,  // measure 24
0001
0000
0010
0000
0100
1000
0001
2000
,  // measure 25
0000
3000
0010
0000
1000
0001
0010
0002
,  // measure 26
0000
1000
1003
0001
,  // measure 27
0000
1000
0001
0000
1001
0000
2000
0000
,  // measure 28
3000
0000
0100
0000
1100
0000
1000
0100
,  // measure 29
0010
0000
0100
0000
1000
0000
0001
0100
,  // measure 30
0010
0000
0100
0000
0001
0000
0010
0100
,  // measure 31
1000
0000
0001
0000
1000
0000
0010
1000
,  // measure 32
0001
0000
0010
0000
0100
0010
0001
2000
,  // measure 33
0000
3000
0010
1000
0100
0020
0000
0032
,  // measure 34
0000
0003
1000
0000
0000
0000
0000
0000
;

//---------------dance-single - ----------------
#NOTES:
     dance-single:
     X-Scale 1:
     Beginner:
     1:
     0.101226,0.142937,0.036651,0.000000,0.000000,58.000000,55.000000,3.000000,0.000000,0.000000,0.000000,0.101226,0.142937,0.036651,0.000000,0.000000,58.000000,55.000000,3.000000,0.000000,0.000000,0.000000:
0000
0000
0000
0000
,
0000
0000
0000
0000
,
0000
0000
0000
0000
,
0000
0000
0000
0000
,
0000
0000
0000
0000
,
0000
0000
0000
0000
,
0000
0000
0000
0000
,
0000
0000
0000
0000
,
0000
0000
0000
0000
,
0000
0000
0000
0000
,
0000
0000
1000
0000
,
0100
0000
1000
0000
,
0100
0000
0010
0000
,
0001
0000
0010
0000
,
0001
0000
1000
0000
,
0010
0000
1000
0000
,
0010
0000
0100
0000
,
0010
0000
1000
0000
,
0000
0000
0001
0000
,
0100
0000
0001
0000
,
0100
0000
0010
0000
,
1000
0000
0010
0000
,
1000
0000
0100
0000
,
0010
0000
0100
0000
,
0010
0000
0001
0000
,
1000
0000
0001
0000
,
1000
0000
1001
0000
,
0000
0000
1001
0000
,
0000
0000
1000
0000
,
0001
0000
1000
0000
,
0001
0000
0100
0000
,
0010
0000
0100
0000
,
0010
0000
1000
0000
,
0001
0000
1000
0000
,
0001
0000
0010
0000
,
0100
0000
0010
0000
,
0100
0000
1000
0000
,
0001
0000
1000
0000
,
0001
0000
1000
0000
,
1001
0000
0000
0000
;
