#TITLE:Replay;
#SUBTITLE:;
#ARTIST:Zendaya;
#TITLETRANSLIT:;
#SUBTITLETRANSLIT:;
#ARTISTTRANSLIT:;
#GENRE:Electro R&B;
#CREDIT:;
#BANNER:replay-bn.png;
#BACKGROUND:replay-bg.png;
#LYRICSPATH:;
#CDTITLE:cdtitle.png;
#MUSIC:replay.ogg;
#OFFSET:0.000000;
#SAMPLESTART:40.929001;
#SAMPLELENGTH:13.000000;
#SELECTABLE:YES;
#DISPLAYBPM:140.000000;
#BPMS:0.000000=140.000000
,94.000000=70.000000
,95.000000=140.000000
,125.000000=70.000000
,126.000000=140.000000
;
#STOPS:
;
#BGCHANGES:0.000=replay.mp4=1.000=0=0=1=====,
99999=-nosongbg-=1.000=0=0=0 // don't automatically add -songbackground-
;
#KEYSOUNDS:;
#ATTACKS:;

//---------------dance-single - ----------------
#NOTES:
     dance-single:
     :
     Medium:
     5:
     0.387818,0.460533,0.133312,0.121193,0.139372,224.000000,213.000000,11.000000,10.000000,0.000000,0.000000,0.387818,0.460533,0.133312,0.121193,0.139372,224.000000,213.000000,11.000000,10.000000,0.000000,0.000000:
0000
0000
0000
0000
,
0000
0000
0000
0000
,
0000
0000
0000
0000
,
0000
0000
0000
0000
,
1000
0100
1000
0000
0001
0000
0000
1000
,
0000
0001
0000
0000
0010
0000
0000
0100
0000
0000
1000
0000
0000
0100
0000
0000
,
1000
0010
1000
0000
0001
0000
2000
0000
,
0000
0000
0000
0000
0000
0000
0001
0000
0000
0000
0000
0000
3004
0000
0000
0000
0003
0000
0000
0000
0000
1000
0000
0000
,
0010
0100
0002
0000
,
0103
0001
2000
0100
,
3100
0000
1000
0000
0010
0000
0000
0000
1000
0000
0000
0000
0010
0000
0000
1000
,
0000
0000
0001
0000
0000
0010
0000
0000
0001
0000
0100
0000
0001
0000
0000
0000
,
0002
0000
0023
0000
,
0130
0010
0001
0000
1000
0000
0100
0000
,
0002
0000
0000
0000
0103
0000
0000
1000
,
0000
0100
0000
0000
0010
0000
0000
0001
0000
0000
0001
0000
0010
0000
0100
0000
,
0110
0000
0000
0010
0001
0000
0010
0000
,
0001
0010
1000
0010
0001
0000
1000
1000
,
1000
0100
0001
0100
1000
0000
0010
0010
,
0010
0100
0010
0100
0020
0000
0230
0000
,
0301
0000
0000
1000
0001
0000
0100
0000
,
0010
0100
0001
0100
0010
0000
0010
0010
,
0010
0100
0010
1000
0010
0000
1000
1000
,
1000
0001
0100
0001
1000
0000
1001
0000
,
0000
0000
0000
0000
0001
0000
0000
0000
0000
0000
0100
0000
0000
0001
0000
0000
,
0010
0000
0000
0100
0000
0000
0010
0000
0000
0100
0000
0000
0110
0000
0000
0000
,
0000
0000
0000
0000
0100
0000
0000
0000
0000
0000
0010
0000
0000
0001
0000
0000
,
1000
0000
0000
0010
0000
0000
0100
0000
0000
0010
0000
0000
0110
0000
0000
0000
,
0000
0000
0001
1000
0001
0100
0000
0010
,
0000
0100
0000
0001
0000
1000
0000
1000
,
0000
0000
0000
0000
0001
0000
1000
0000
0010
0000
0100
0000
0000
0001
0000
0000
,
1000
0000
1000
0000
1001
0000
0001
0100
,
0001
0000
0000
0000
1000
0000
0100
0000
0000
1000
0000
0000
0010
0000
0000
0100
,
0000
0000
0010
0000
0000
0100
0000
0000
0110
0000
0000
0000
0010
0000
1000
0000
,
0010
0000
0100
0000
0001
0000
0100
0000
0000
0010
0000
0000
1000
0000
0000
0010
,
0000
0000
0100
0000
0000
0001
0000
0000
0101
0000
0000
0000
0001
0000
0010
0000
,
0100
0100
0010
0001
1000
0001
0000
0000
,
1000
0000
0100
0000
1100
0000
1000
0100
,
1000
0010
0100
0010
0000
1000
0000
0100
,
0000
0001
0000
0100
1100
0000
0000
0010
,
0010
0000
0000
0000
1000
0000
0001
0000
0000
0100
0000
0000
0010
0000
0000
0000
,
1000
0000
1000
0000
1010
0000
0000
0100
,
0100
0000
0000
0000
0001
0000
1000
0000
0000
0010
0000
0000
0100
0000
0000
0000
,
0002
0000
0010
0000
0013
0000
0000
0001
,
1000
0000
0000
0000
0010
0000
0100
0000
0000
0010
0000
0000
1000
0000
0000
0000
,
0010
0000
0100
0000
0110
0000
0000
1000
,
0010
0000
0100
0000
0000
1000
0001
0000
,
0100
0001
0200
0000
0300
0000
0000
0000
;

//---------------dance-single - ----------------
#NOTES:
     dance-single:
     :
     Easy:
     3:
     0.235461,0.287833,0.084835,0.133312,0.000000,136.000000,129.000000,7.000000,11.000000,0.000000,0.000000,0.235461,0.287833,0.084835,0.133312,0.000000,136.000000,129.000000,7.000000,11.000000,0.000000,0.000000:
0000
0000
0000
0000
,
0000
0000
0000
0000
,
0000
0000
0000
0000
,
0000
0000
0000
0000
,
0011
0000
0010
0000
,
0000
0001
1000
0000
0100
0000
0000
0000
,
1100
0000
0100
2000
,
0000
0000
0000
0000
0000
0000
0000
0000
3020
0000
0000
0030
0000
0000
1000
0000
,
0010
1000
0002
0000
,
0103
0100
0020
0100
,
0130
0010
0100
0000
0100
0000
0000
0000
,
0000
0100
0000
0001
,
2000
0000
3020
0000
,
0030
0100
0010
0000
0010
0000
0100
0000
,
0002
0000
0000
0000
0103
0000
0000
0010
,
0000
0000
1000
0000
0001
0100
0000
0000
,
0101
0000
0100
0000
,
0001
0010
0001
0000
,
0010
0100
0010
0000
,
0100
1000
0100
0000
,
1100
0000
0010
0000
,
1000
0100
1000
0000
,
0100
0010
0100
0000
,
0010
0001
0010
0011
,
0000
0000
0010
0000
0000
0001
0000
1000
,
0000
0001
0000
0010
0000
0100
0000
0010
,
0000
0000
0010
0000
0000
0100
0000
1000
,
0000
0001
0000
1000
0000
0100
0000
0010
,
0000
0000
0001
0000
0000
0001
0000
0010
,
0000
0100
0000
0010
0000
0001
0000
1000
,
0000
0000
1000
0000
0000
0001
0000
0100
,
0000
0010
0110
0000
,
0010
0000
0000
0100
0000
1000
0000
0100
,
0000
0010
0000
0100
0000
0010
0000
0000
,
0010
0000
0000
1000
0000
0010
0000
0100
,
0000
0001
0000
1000
0000
0001
0000
0000
,
0001
1000
0001
1000
0000
0001
0000
0000
,
0010
0000
0000
0100
0000
0100
0000
0000
,
0100
0000
0000
0010
0000
0010
0000
0020
,
0000
0000
0130
0000
,
0100
0000
0000
1000
0000
0000
0000
0000
,
2000
0000
3010
0000
,
0100
0000
0000
0001
0000
0000
0000
0000
,
0020
0000
0130
0000
,
1000
0000
0000
0010
0000
0000
0000
0000
,
0100
0100
0110
0000
,
0010
0000
0000
0000
0000
1000
0010
0000
,
0100
0200
0300
0000
;

//---------------dance-single - ----------------
#NOTES:
     dance-single:
     :
     Hard:
     8:
     0.448414,0.489317,0.145432,0.072716,0.212088,259.000000,247.000000,12.000000,6.000000,2.000000,0.000000,0.448414,0.489317,0.145432,0.072716,0.212088,259.000000,247.000000,12.000000,6.000000,2.000000,0.000000:
// measure 0
0000
0000
0000
0000
,  // measure 1
0000
0000
0000
0000
,  // measure 2
0000
0000
0000
0000
,  // measure 3
0000
0000
0000
0000
,  // measure 4
0001
1000
0001
0000
0100
0000
0000
0100
,  // measure 5
0000
0001
0000
0000
0010
0000
0000
0100
0010
0000
0001
0000
0000
1000
0000
0001
,  // measure 6
1000
0010
0100
0000
0001
0000
1000
0100
,  // measure 7
0000
0000
0000
1000
0000
0000
0000
0000
0000
0000
0000
0000
0010
0000
0000
0000
0000
0000
0000
0000
0000
0100
0000
0000
0004
0000
0000
0000
0000
0000
0000
0000
0003
0000
0000
0000
0000
0000
0000
0100
0000
0000
0001
0000
0000
0000
0000
0000
,  // measure 8
0010
0000
0100
0000
2000
0000
0000
0010
,  // measure 9
3100
0010
0100
0000
0002
0000
0100
0000
,  // measure 10
0103
0001
1000
0000
1000
0000
0010
1000
,  // measure 11
1000
0001
0000
0000
0001
0000
0100
0000
0010
0000
1000
0000
0010
0000
0100
0000
,  // measure 12
0200
0000
0000
0000
0320
0000
0000
0100
,  // measure 13
0130
0010
0000
0000
0010
0000
0000
0010
0000
0000
0010
0100
0010
0000
1000
0000
,  // measure 14
0002
0000
0000
0000
0103
0000
0000
0010
,  // measure 15
0000
0100
0000
0000
0010
0000
0000
1000
0001
1000
0100
0000
0010
0000
0100
0000
,  // measure 16
0110
0001
1000
0001
0100
0000
0010
0000
,  // measure 17
0010
0100
1000
0100
0001
0000
1000
0100
,  // measure 18
1000
0100
0010
0001
0010
0000
0001
0010
,  // measure 19
0100
0000
0010
0000
0100
0000
1000
0000
1000
0001
1000
0000
0040
0000
0000
0000
,  // measure 20
0130
0000
0000
0010
1000
0000
0100
0010
,  // measure 21
0100
1000
0100
0010
0100
0000
0010
0100
,  // measure 22
0010
0001
0010
0100
1000
0000
0001
1000
,  // measure 23
0001
0000
0010
0000
0100
0000
0010
0000
0001
0000
0000
M000
1001
0000
0000
0000
,  // measure 24
0001
0000
0000
0000
0010
0000
0001
0000
0010
0000
0100
0000
0000
0100
0000
0000
,  // measure 25
0010
0000
0000
0100
0000
0000
0010
0000
0000
0001
0000
0000
0011
0000
0001
0000
,  // measure 26
0000
0000
0000
0000
0100
0000
0010
0000
0100
0000
0010
0000
0000
0010
0000
0000
,  // measure 27
1000
0000
0000
0010
0000
0000
1000
0000
0000
0100
0000
0000
1100
0000
1000
0000
,  // measure 28
0000
0000
0000
0000
0001
0000
1000
0000
0001
0000
0100
0000
0000
0010
0000
0000
,  // measure 29
1000
0000
0000
0100
0000
0000
0010
0000
0000
0001
0000
0000
0011
0000
0010
0000
,  // measure 30
0000
0000
0010
0100
1000
0100
0000
1000
,  // measure 31
0000
0100
0000
0000
0100
0000
0000
M000
1100
0000
0000
0000
1000
0000
0100
0000
,  // measure 32
0001
0000
0100
0000
1000
0000
0100
0000
0000
1000
0000
0000
0010
0000
0000
0100
,  // measure 33
0000
0000
0010
0000
0000
0100
0000
0000
0110
0000
0000
0000
0100
0000
1000
0000
,  // measure 34
0100
0000
0010
0000
0100
0000
0001
0000
0000
0010
0000
0000
0001
0000
0000
1000
,  // measure 35
0000
0100
1000
0100
1100
0000
1000
0010
,  // measure 36
0001
0010
1000
0010
0000
0100
0010
0000
,  // measure 37
0010
0000
0100
0000
0101
0000
0001
0100
,  // measure 38
0010
1000
0100
0010
0000
0001
0000
1000
,  // measure 39
0000
0001
0000
0100
0101
0001
0000
0010
,  // measure 40
0010
0000
0000
0000
0001
0000
1000
0000
0000
0100
0000
0000
0010
0000
0000
0000
,  // measure 41
0100
0000
0100
0000
0110
0000
0000
0100
,  // measure 42
0100
0000
0000
0000
1000
0000
0001
0000
0000
0010
0000
0000
0100
0000
0000
0000
,  // measure 43
2000
0000
0001
0000
3010
0000
0000
0001
,  // measure 44
1000
0000
0000
0000
0010
0000
0100
0000
0000
0010
0000
0000
1000
0000
0000
0000
,  // measure 45
0100
0000
1000
0000
1100
0000
0000
1000
,  // measure 46
0010
0000
0100
0000
0000
0100
0001
0000
,  // measure 47
0100
0010
0400
0000
0300
0000
0000
0000
;

//---------------dance-single - ----------------
#NOTES:
     dance-single:
     :
     Beginner:
     1:
     0.174864,0.230267,0.096954,0.181790,0.000000,101.000000,93.000000,8.000000,15.000000,0.000000,0.000000,0.174864,0.230267,0.096954,0.181790,0.000000,101.000000,93.000000,8.000000,15.000000,0.000000,0.000000:
0000
0000
0000
0000
,
0000
0000
0000
0000
,
0000
0000
0000
0000
,
0000
0000
0000
0000
,
0110
0000
0000
0000
0000
0000
0000
0010
,
0000
0000
0100
0000
,
0101
0000
0000
0002
,
0000
0000
0000
0000
0000
0000
0000
0000
0000
0000
0000
0000
0000
0000
0000
0000
0000
0000
0000
0000
0000
0000
0000
0000
2000
0000
0000
0000
0000
0000
0000
0000
0003
3000
0000
0000
0000
0000
0000
0000
0000
0000
0000
0000
0000
0000
0000
0000
,
1001
0000
0000
0000
0002
0000
0000
0100
,
0003
0000
0020
0000
,
0130
0000
0000
0000
0000
0000
0000
0001
,
0000
0100
0000
0100
,
0020
0000
0230
0000
,
0300
0100
0000
0000
0001
0000
0000
0000
,
0002
0000
0000
0000
0103
0000
0000
1000
,
0000
0100
0001
0000
,
0101
0000
0010
0000
,
2000
0000
0000
3000
,
0001
0000
1000
0000
,
0200
0000
0000
0300
,
0110
0000
0100
0000
,
0020
0000
0000
0030
,
0001
0000
0102
0000
,
0000
0000
1000
1003
,
0000
0000
0010
0000
0000
1000
0000
0000
,
0000
0001
0000
0000
0000
0100
0000
0100
,
0000
0000
0100
0000
0000
0010
0000
0000
,
0000
1000
0000
0000
0000
0001
0000
0001
,
0000
0000
0001
0000
0000
0100
0000
0000
,
0000
0010
0000
0000
0000
1000
0000
1000
,
0000
0000
1000
0000
0000
0010
0000
0010
,
0000
0010
1010
0000
,
0010
0000
0000
0100
0000
0000
0000
0001
,
0000
0000
0000
1000
0000
1000
0000
0000
,
1000
0000
0000
0001
0000
0000
0000
0100
,
0000
0000
0000
0010
0000
0010
0000
0000
,
0010
0000
0000
0010
0000
0010
0000
0000
,
0010
0000
0000
0100
0000
0100
0000
0000
,
0100
0000
0000
0010
0000
1000
0000
0200
,
0000
0000
0310
0000
,
0001
0000
0000
0001
0000
0000
0000
0000
,
2000
0000
3010
0000
,
1000
0000
0000
0001
0000
0000
0000
0000
,
0002
0000
0103
0000
,
0001
0000
0000
0010
0000
0000
0000
0000
,
0100
0000
1001
0000
,
0010
0000
0000
0000
0000
0001
0001
0000
,
0200
0000
0300
0000
;
